<?xml version="1.0" standalone="no"?>
<!DOCTYPE svg PUBLIC "-//W3C//DTD SVG 1.1//EN" "http://www.w3.org/Graphics/SVG/1.1/DTD/svg11.dtd" >
<svg xmlns="http://www.w3.org/2000/svg" xmlns:xlink="http://www.w3.org/1999/xlink" version="1.1">
<metadata>
Created by FontForge 20191125 at Wed Sep 15 22:59:39 2010
 By convertio
Copyleft 2002, 2003, 2005, 2008, 2009, 2010 Free Software Foundation.
</metadata>
<defs>
<font id="FreeMonoBold" horiz-adv-x="600" >
  <font-face 
    font-family="FreeMono"
    font-weight="700"
    font-stretch="normal"
    units-per-em="1000"
    panose-1="2 7 8 9 2 8 5 2 4 4"
    ascent="800"
    descent="-200"
    x-height="437"
    cap-height="583"
    bbox="-600 -200 736 800"
    underline-thickness="50"
    underline-position="-150"
    unicode-range="U+0020-FFFD"
  />
<missing-glyph 
d="M100 0v584h400v-584h-400zM200 100h200v384h-200v-384z" />
    <glyph glyph-name="yodyodpatahhebrew" unicode="&#x5f2;&#x5b7;" 
d="M264 480v-240q0 -21 -14.5 -35.5t-35.5 -14.5t-35.5 14.5t-14.5 35.5v140h-72q-21 0 -35.5 14.5t-14.5 35.5t14.5 35.5t35.5 14.5h172zM536 480v-240q0 -21 -14.5 -35.5t-35.5 -14.5t-35.5 14.5t-14.5 35.5v140h-72q-21 0 -35.5 14.5t-14.5 35.5t14.5 35.5t35.5 14.5h172
zM251 156h135q8 0 17 -9t9 -17q0 -9 -9 -18t-17 -9h-135q-8 0 -17.5 9t-9.5 18q0 8 9.5 17t17.5 9z" />
    <glyph glyph-name=".notdef" 
d="M100 0v584h400v-584h-400zM200 100h200v384h-200v-384z" />
    <glyph glyph-name=".null" horiz-adv-x="0" 
 />
    <glyph glyph-name="nonmarkingreturn" 
 />
    <glyph glyph-name="space" unicode=" " 
 />
    <glyph glyph-name="exclam" unicode="!" 
d="M379 525l-29 -297q-5 -49 -49 -49q-21 0 -34.5 13t-15.5 36l-29 297q-2 24 -2 33q0 35 23 57.5t58 22.5t57.5 -23t22.5 -57q0 -7 -2 -33zM309 -15h-17q-28 0 -47.5 19.5t-19.5 46.5t19.5 46.5t47.5 19.5h17q28 0 47 -19t19 -47t-19 -47t-47 -19z" />
    <glyph glyph-name="quotedbl" unicode="&#x22;" 
d="M136 602h128l-31 -254q-3 -20 -10 -28t-22 -8q-27 0 -31 35zM336 602h128l-31 -254q-3 -20 -10 -28t-22 -8q-27 0 -31 35z" />
    <glyph glyph-name="numbersign" unicode="#" 
d="M288 625q0 -7 -0.5 -18.5t-2 -26.5t-4 -52.5t-5.5 -83.5h71l12 168q2 63 51 63q19 0 34.5 -14t15.5 -31v-3l-13 -183h25q66 0 66 -50t-66 -50h-32l-8 -106h19q67 0 67 -50q0 -49 -66 -49h-27l-11 -168q-5 -63 -52 -63q-19 0 -34 14.5t-15 33.5q13 182 13 183h-72
l-12 -168q0 -63 -50 -63q-22 0 -36 14.5t-14 37.5q0 2 0.5 8t0.5 10l11 161h-26q-66 0 -66 50q0 28 17 38.5t49 10.5h33l7 106h-19q-67 0 -67 50q0 30 17.5 40t49.5 10h26l12 168q2 63 51 63q21 0 35.5 -15t14.5 -35zM340 344h-71l-8 -106h72z" />
    <glyph glyph-name="dollar" unicode="$" 
d="M302 684q49 0 49 -66v-26q34 -7 44 -10l14 -5q1 -1 9 -3q15 7 28 7q50 0 50 -66v-32q0 -32 -10.5 -49t-39.5 -17q-43 0 -52 42q-2 14 -27.5 25t-56.5 11q-45 0 -72 -17t-27 -45q0 -41 75 -56l65 -14q23 -5 36 -8.5t41.5 -16t44.5 -28t30 -45t14 -66.5q0 -65 -44 -111
t-122 -61v-83q0 -32 -10.5 -49.5t-38.5 -17.5q-30 0 -40 17.5t-10 49.5v83q-43 9 -79 25q-21 -18 -39 -18q-51 0 -51 67v61q0 67 50 67q8 0 14.5 -2t11 -4t8.5 -6.5t6.5 -7.5t4.5 -8.5t3 -8t2 -7.5l1 -5q6 -23 40.5 -39.5t75.5 -16.5q49 0 81 22t32 54q0 26 -19 41.5
t-61 23.5l-74 15q-152 31 -152 155q0 59 40.5 102.5t104.5 54.5v26q0 32 10.5 49t39.5 17z" />
    <glyph glyph-name="percent" unicode="%" 
d="M228 617q59 0 99.5 -41t40.5 -100q0 -56 -41 -97t-98 -41q-58 0 -99 41t-41 99q0 57 41 98t98 41zM228 552q-30 0 -52 -22t-22 -52q0 -31 22 -53t52 -22q31 0 53 22t22 52q0 31 -21.5 53t-53.5 22zM491 331l-362 -118q-14 -4 -20 -4q-11 0 -20 9.5t-9 22.5q0 21 30 31
l362 118q12 4 20 4q11 0 20 -9.5t9 -22.5q0 -21 -30 -31zM368 264q59 0 99.5 -41t40.5 -100q0 -56 -41 -97t-99 -41q-57 0 -98 41t-41 99q0 57 41 98t98 41zM368 199q-30 0 -52 -22t-22 -52q0 -31 22 -53t53 -22q30 0 52 22t22 52q0 32 -21.5 53.5t-53.5 21.5z" />
    <glyph glyph-name="ampersand" unicode="&#x26;" 
d="M508 50q0 -50 -66 -50h-61l-11 15q-41 -29 -113 -29q-83 0 -132.5 43t-49.5 115q0 103 96 159q-34 58 -34 96q0 61 45.5 106t106.5 45q33 0 70 -17q21 7 28 7q19 0 33.5 -15.5t14.5 -34.5q0 -17 -8.5 -27.5t-32.5 -24.5l-41 -22q-38 34 -63 34q-22 0 -37.5 -14.5
t-15.5 -35.5q0 -17 28 -57l100 -145l23 82h53q66 0 66 -51q0 -19 -12.5 -33t-30.5 -16q-14 -52 -30 -80h8q66 0 66 -50zM312 100l-84 120q-53 -24 -53 -76q0 -58 82 -58q31 0 55 14z" />
    <glyph glyph-name="quotesingle" unicode="'" 
d="M236 602h128l-31 -254q-3 -20 -10 -28t-22 -8q-27 0 -31 35z" />
    <glyph glyph-name="parenleft" unicode="(" 
d="M264 243q0 69 29 162t70.5 160t73.5 67q22 0 36.5 -14.5t14.5 -34.5q0 -15 -17.5 -46.5t-39 -66.5t-39 -97.5t-17.5 -132.5q0 -146 101 -310q12 -19 12 -34q0 -20 -14.5 -34.5t-36.5 -14.5q-32 0 -73 64t-70.5 159t-29.5 173z" />
    <glyph glyph-name="parenright" unicode=")" 
d="M117 -104q0 15 17.5 46.5t39 66.5t39 97.5t17.5 132.5q0 146 -101 310q-12 19 -12 34q0 20 14.5 34.5t36.5 14.5q32 0 73 -64t70.5 -159t29.5 -173q0 -69 -28.5 -161.5t-70 -160t-74.5 -67.5q-22 0 -36.5 14.5t-14.5 34.5z" />
    <glyph glyph-name="asterisk" unicode="*" 
d="M300 622q50 0 50 -66v-89l86 28q24 7 33 7q19 0 33.5 -15t14.5 -35q0 -37 -50 -52l-86 -28l52 -71q19 -27 19 -43q0 -20 -15 -35t-35 -15q-16 0 -25 6.5t-25 27.5l-52 72l-52 -72q-15 -21 -25 -27.5t-25 -6.5q-20 0 -35 15t-15 35q0 18 19 43l52 71l-86 28q-28 8 -39 20
t-11 32t14 35t33 15q10 0 34 -7l86 -28v89q0 66 50 66z" />
    <glyph glyph-name="plus" unicode="+" 
d="M558 280q0 -50 -67 -50h-141v-164q0 -66 -50 -66t-50 66v164h-142q-66 0 -66 50q0 29 17 39.5t49 10.5h142v164q0 66 50 66q29 0 39.5 -17t10.5 -49v-164h141q67 0 67 -50z" />
    <glyph glyph-name="comma" unicode="," 
d="M219 134h132l-141 -268q-12 -24 -32 -24q-13 0 -22 8.5t-9 19.5q0 8 3 19z" />
    <glyph glyph-name="hyphen" unicode="-" 
d="M558 279q0 -50 -66 -50h-384q-66 0 -66 50t66 50h384q33 0 49.5 -10.5t16.5 -39.5z" />
    <glyph glyph-name="period" unicode="." 
d="M309 -15h-18q-27 0 -46.5 19.5t-19.5 46.5t19.5 46.5t46.5 19.5h18q28 0 47 -19t19 -47t-19 -47t-47 -19z" />
    <glyph glyph-name="slash" unicode="/" 
d="M505 610l-320 -679q-11 -25 -22.5 -34.5t-29.5 -9.5q-20 0 -35 14.5t-15 33.5q0 14 12 38l321 678q11 25 22 34.5t29 9.5q20 0 35 -14.5t15 -33.5q0 -13 -12 -37z" />
    <glyph glyph-name="zero" unicode="0" 
d="M300 638q106 0 161.5 -81t55.5 -198v-95q0 -75 -22.5 -136.5t-73 -102t-121.5 -40.5q-106 0 -161.5 81t-55.5 198v95q0 75 22.5 136.5t73 102t121.5 40.5zM183 366v-109q0 -78 32 -125t85 -47t85 47t32 125v109q0 78 -32 125t-85 47t-85 -47t-32 -125z" />
    <glyph glyph-name="one" unicode="1" 
d="M83 50q0 29 17 39.5t49 10.5h101v428l-82 -58q-15 -13 -41 -13q-17 0 -29.5 11t-12.5 29q0 16 7 26.5t24 22.5l135 92h99v-538h101q66 0 66 -50t-66 -50h-302q-66 0 -66 50z" />
    <glyph glyph-name="two" unicode="2" 
d="M503 444q0 -44 -18.5 -76.5t-73.5 -86t-204 -181.5h201q4 54 50 54q50 0 50 -66v-88h-454v105q19 16 68.5 56t72 59t62.5 53.5t60 54.5t43.5 45t33 43t9.5 32q0 38 -33 64t-82 26q-37 0 -61.5 -12t-34.5 -29t-17.5 -34t-19.5 -29t-31 -12q-20 0 -35 14.5t-15 33.5
q0 58 62.5 113t153.5 55t152 -55.5t61 -138.5z" />
    <glyph glyph-name="three" unicode="3" 
d="M268 85q161 0 161 98q0 44 -40 72t-113 32q-52 3 -52 46q0 22 14.5 36t37.5 14h40q37 0 64 23.5t27 55.5q0 35 -30 55.5t-82 20.5q-39 0 -65 -9.5t-35 -21t-21.5 -21t-29.5 -9.5q-20 0 -34.5 15t-14.5 35q0 43 63 77t143 34q91 0 148.5 -50t57.5 -124q0 -41 -21 -71.5
t-70 -59.5q113 -55 113 -151q0 -36 -12 -68t-39 -62.5t-80.5 -48.5t-126.5 -18q-92 0 -148.5 23.5t-56.5 61.5q0 21 14.5 35.5t35.5 14.5q10 0 20.5 -5.5t20.5 -12t39 -12t72 -5.5z" />
    <glyph glyph-name="four" unicode="4" 
d="M243 50q0 50 66 50h38v38h-272v83l241 401h131v-384q61 0 61 -50q0 -48 -61 -50v-38q61 0 61 -50t-67 -50h-132q-66 0 -66 50zM347 238v242l-150 -242h150z" />
    <glyph glyph-name="five" unicode="5" 
d="M487 572q0 -50 -66 -50h-202v-115q56 17 99 17q91 0 151 -63t60 -159q0 -28 -5.5 -55t-22 -57.5t-43 -52.5t-73 -37t-107.5 -15q-90 0 -151 28.5t-61 70.5q0 20 15 34.5t35 14.5q13 0 24.5 -7.5t22 -16.5t40 -16.5t74.5 -7.5q78 0 115 28.5t37 87.5q0 55 -31 89t-81 34
q-41 0 -91 -21t-57 -21q-22 0 -36 16t-14 40v284h302q32 0 49 -10.5t17 -39.5z" />
    <glyph glyph-name="six" unicode="6" 
d="M331 -15q-52 0 -92.5 19.5t-65 49.5t-40.5 71t-22 80t-6 80q0 132 77 229q101 124 241 124q53 0 85 -18t32 -47q0 -21 -15 -36t-36 -15q-6 0 -28.5 6.5t-31.5 6.5q-79 0 -141.5 -59.5t-79.5 -151.5q36 38 67.5 54t69.5 16q79 0 134.5 -60t55.5 -145q0 -91 -54 -147.5
t-150 -56.5zM218 209q11 -65 39 -94.5t77 -29.5q47 0 74 28t27 77q0 43 -28 73.5t-69 30.5q-32 0 -66 -24t-54 -61z" />
    <glyph glyph-name="seven" unicode="7" 
d="M125 468q-50 0 -50 66v88h433v-99l-159 -475q-10 -27 -21.5 -38t-30.5 -11q-20 0 -35.5 14.5t-15.5 33.5q0 14 7 34l150 441h-228q-5 -54 -50 -54z" />
    <glyph glyph-name="eight" unicode="8" 
d="M420 319q97 -61 97 -154q0 -80 -60.5 -130t-157.5 -50q-96 0 -156 50t-60 130q0 93 97 154q-88 59 -88 136t60.5 130t147.5 53q86 0 147 -53t61 -128q0 -79 -88 -138zM300 538q-48 0 -78 -24.5t-30 -62.5t30.5 -62.5t77.5 -24.5t77.5 24t30.5 62q0 39 -30 63.5t-78 24.5z
M300 263q-48 0 -82.5 -26.5t-34.5 -63.5q0 -38 33 -63t84 -25t84 24.5t33 62.5t-34 64.5t-83 26.5z" />
    <glyph glyph-name="nine" unicode="9" 
d="M315 638q64 0 111 -28t70.5 -75t34 -95.5t10.5 -101.5q0 -132 -77 -229q-101 -124 -241 -124q-53 0 -85 18t-32 47q0 21 15 36t36 15q6 0 28.5 -6.5t31.5 -6.5q79 0 141.5 59.5t79.5 151.5q-66 -70 -136 -70q-79 0 -135 60t-56 145q0 91 54 147.5t150 56.5zM428 414
q-11 65 -39 94.5t-77 29.5q-47 0 -74 -28t-27 -77q0 -43 28 -73.5t69 -30.5q32 0 66 24t54 61z" />
    <glyph glyph-name="colon" unicode=":" 
d="M309 -15h-18q-27 0 -46.5 19.5t-19.5 46.5t19.5 46.5t46.5 19.5h18q28 0 47 -19t19 -47t-19 -47t-47 -19zM309 304h-18q-27 0 -46.5 19.5t-19.5 46.5q0 28 19.5 47.5t46.5 19.5h18q28 0 47 -19.5t19 -47.5t-19 -47t-47 -19z" />
    <glyph glyph-name="semicolon" unicode=";" 
d="M219 134h132l-141 -268q-12 -24 -32 -24q-13 0 -22 8.5t-9 19.5q0 8 3 19zM276 437q34 0 54.5 -18t20.5 -49q0 -30 -20.5 -48t-54.5 -18t-54.5 18.5t-20.5 48.5q0 29 20.5 47.5t54.5 18.5z" />
    <glyph glyph-name="less" unicode="&#x3c;" 
d="M502 501q17 0 29.5 -15.5t12.5 -30.5q0 -26 -32 -43l-261 -133l261 -136q32 -17 32 -43q0 -15 -12.5 -30.5t-29.5 -15.5q-14 0 -30 9l-430 217l430 212q18 9 30 9z" />
    <glyph glyph-name="equal" unicode="=" 
d="M42 372q0 29 17 39.5t49 10.5h384q66 0 66 -50t-66 -50h-384q-66 0 -66 50zM42 188q0 29 17 39.5t49 10.5h384q66 0 66 -50t-66 -50h-384q-66 0 -66 50z" />
    <glyph glyph-name="greater" unicode="&#x3e;" 
d="M98 53q-17 0 -29.5 15.5t-12.5 31.5q0 25 32 42l261 133l-261 137q-32 15 -32 41q0 16 12.5 31.5t29.5 15.5q14 0 30 -9l430 -217l-430 -212q-18 -9 -30 -9z" />
    <glyph glyph-name="question" unicode="?" 
d="M154 394q-50 0 -50 66v79q72 35 114 47t90 12q93 0 151 -52.5t58 -136.5q0 -61 -36.5 -101t-127.5 -80q-6 -54 -50 -54q-50 0 -50 66v56q96 37 130 61.5t34 56.5q0 37 -30 60.5t-78 23.5q-55 0 -105 -24v-14q0 -66 -50 -66zM311 -15h-17q-28 0 -47.5 19.5t-19.5 46.5
t19.5 46.5t47.5 19.5h17q28 0 47 -19t19 -47t-19 -47t-47 -19z" />
    <glyph glyph-name="at" unicode="@" 
d="M302 -152q-52 0 -93 21t-65 53t-40 74.5t-22 81t-6 76.5v169q0 129 63.5 213t161.5 84q81 0 133 -54t52 -137v-281q23 -10 23 -35q0 -41 -55 -41h-47v3q-23 -3 -33 -3q-64 0 -110 46t-46 108q0 70 52.5 117.5t136.5 53.5v32q0 50 -29.5 81t-75.5 31q-63 0 -105 -64
t-42 -160v-156q0 -38 7 -75.5t22.5 -75.5t46.5 -61t74 -23q34 0 58.5 7.5t34.5 17t20.5 17t20.5 7.5q17 0 28.5 -12t11.5 -29q0 -35 -52.5 -60.5t-124.5 -25.5zM407 155v161q-50 -5 -80 -29.5t-30 -61.5q0 -31 24 -51.5t60 -20.5q12 0 26 2z" />
    <glyph glyph-name="A" unicode="A" 
d="M350 50q0 29 17 39.5t49 10.5h23l-23 58h-238l-23 -58h23q66 0 66 -50t-66 -50h-133q-66 0 -66 50q0 30 17.5 40t49.5 10l155 383h-63q-67 0 -67 50q0 30 17.5 40t49.5 10h216l199 -483q68 0 68 -50t-66 -50h-139q-66 0 -66 50zM375 258l-78 192l-79 -192h157z" />
    <glyph glyph-name="B" unicode="B" 
d="M13 50q0 50 66 50h15v383h-15q-66 0 -66 50q0 29 17.5 39.5t48.5 10.5h253q85 0 140.5 -47t55.5 -118q0 -64 -63 -113q106 -53 106 -145q0 -72 -54 -116t-143 -44h-295q-66 0 -66 50zM194 342h113q54 0 87.5 21.5t33.5 55.5q0 30 -27 47t-74 17h-133v-141zM471 154
q0 40 -39 64t-103 24h-135v-142h175q102 0 102 54z" />
    <glyph glyph-name="C" unicode="C" 
d="M330 86q47 0 80.5 11.5t47.5 25t28.5 25t27.5 11.5q20 0 35 -15t15 -35q0 -43 -68.5 -83t-168.5 -40q-127 0 -210.5 74.5t-83.5 188.5v66q0 120 78 201t194 81q70 0 142 -34l10 -4q17 24 42 24q29 0 39.5 -17t10.5 -49v-84q0 -66 -50 -66q-18 0 -29.5 10t-14 18.5
t-5.5 24.5q-6 30 -36.5 48.5t-56.5 23.5t-48 5q-76 0 -126 -51.5t-50 -130.5v-64q0 -75 53.5 -120t143.5 -45z" />
    <glyph glyph-name="D" unicode="D" 
d="M80 0q-67 0 -67 50q0 24 16 37t45 13v383q-61 0 -61 50q0 30 17.5 40t49.5 10h212q109 0 183.5 -80t74.5 -198v-47q0 -117 -72.5 -187.5t-193.5 -70.5h-204zM450 307q0 75 -45.5 125.5t-120.5 50.5h-110v-383h111q50 0 84.5 15t51 41t23 51t6.5 54v46z" />
    <glyph glyph-name="E" unicode="E" 
d="M500 219q50 0 50 -67v-152h-471q-66 0 -66 50t66 50h15v383h-15q-66 0 -66 50q0 29 17 39.5t49 10.5h449v-150q0 -67 -50 -67t-50 67v50h-234v-141h85v7q0 67 49 67q50 0 50 -67v-113q0 -66 -49 -66q-50 0 -50 66v7h-85v-143h256v52q0 67 50 67z" />
    <glyph glyph-name="F" unicode="F" 
d="M329 169q-50 0 -50 67v7h-85v-143h100q66 0 66 -50t-66 -50h-215q-66 0 -66 50t66 50h15v383h-15q-66 0 -66 50q0 29 17 39.5t49 10.5h471v-151q0 -66 -50 -66t-50 66v51h-256v-141h85v7q0 66 50 66q49 0 49 -66v-113q0 -67 -49 -67z" />
    <glyph glyph-name="G" unicode="G" 
d="M525 280q67 0 67 -50q0 -38 -42 -50v-132q-67 -35 -114 -48.5t-105 -13.5q-68 0 -122 16.5t-86 42.5t-53 61.5t-29 69.5t-8 70v71q0 117 79.5 198.5t204.5 81.5q81 0 145 -32q16 32 41 32q27 0 37 -16.5t10 -49.5v-78q0 -32 -10.5 -49t-39.5 -17q-7 0 -13.5 1.5t-10.5 4
t-7.5 6.5t-6 7.5t-4.5 9t-3 8.5t-2.5 8.5t-1.5 7.5q-8 26 -43 41.5t-90 15.5q-84 0 -134.5 -49.5t-50.5 -130.5v-64q0 -167 192 -167q69 0 125 25v69h-100q-66 0 -66 50q0 29 17 39.5t49 10.5h175z" />
    <glyph glyph-name="H" unicode="H" 
d="M328 50q0 50 66 50h15v141h-214v-141h15q66 0 66 -50t-66 -50h-121q-66 0 -66 50q0 29 17 39.5t49 10.5h6v383q-52 5 -52 50q0 29 17 39.5t49 10.5h101q66 0 66 -50t-66 -50h-15v-142h214v142h-15q-66 0 -66 50q0 29 17 39.5t49 10.5h101q66 0 66 -50q0 -45 -52 -50v-383
h6q66 0 66 -50t-66 -50h-121q-66 0 -66 50z" />
    <glyph glyph-name="I" unicode="I" 
d="M451 100q32 0 49 -10.5t17 -39.5q0 -50 -66 -50h-302q-66 0 -66 50q0 29 17 39.5t49 10.5h101v383h-101q-66 0 -66 50q0 29 17 39.5t49 10.5h302q32 0 49 -10.5t17 -39.5q0 -50 -66 -50h-101v-383h101z" />
    <glyph glyph-name="J" unicode="J" 
d="M613 533q0 -50 -66 -50h-57v-296q0 -90 -63.5 -145.5t-157.5 -55.5q-84 0 -215 65v162q0 67 50 67q30 0 40 -17.5t10 -49.5v-96q69 -31 117 -31q57 0 95 36q16 16 20 29t4 47v285h-119q-66 0 -66 50q0 29 17 39.5t49 10.5h276q66 0 66 -50z" />
    <glyph glyph-name="K" unicode="K" 
d="M295 533q0 -50 -66 -50h-35v-149l178 153q-31 12 -31 45q0 51 66 51h100q66 0 66 -50t-62 -50l-176 -153q97 -51 169 -230h32q66 0 66 -50t-66 -50h-110q-35 107 -80.5 176t-91.5 83l-60 -51v-108h35q66 0 66 -50t-66 -50h-150q-66 0 -66 50t66 50h15v383h-15
q-66 0 -66 50q0 29 17 39.5t49 10.5h150q66 0 66 -50z" />
    <glyph glyph-name="L" unicode="L" 
d="M521 259q29 0 39.5 -17t10.5 -50v-192h-472q-66 0 -66 50q0 29 17 39.5t49 10.5h57v383h-57q-66 0 -66 50q0 29 17 39.5t49 10.5h214q66 0 66 -50t-66 -50h-57v-383h215v92q0 67 50 67z" />
    <glyph glyph-name="M" unicode="M" 
d="M361 50q0 29 17 39.5t49 10.5h35v289l-111 -252h-91l-118 251v-288h35q33 0 49.5 -10.5t16.5 -39.5q0 -50 -66 -50h-129q-67 0 -67 50t61 50v382q-52 5 -52 51q0 20 14 35t48 15h113l138 -298l135 298h110q66 0 66 -50q0 -45 -52 -50v-383q61 0 61 -50t-66 -50h-130
q-66 0 -66 50z" />
    <glyph glyph-name="N" unicode="N" 
d="M526 583q66 0 66 -50t-61 -50v-483h-99l-259 394v-294h35q32 0 49 -10.5t17 -39.5q0 -50 -66 -50h-129q-67 0 -67 50t61 50v383h-15q-66 0 -66 50q0 29 17 39.5t49 10.5h115l258 -392v292h-35q-66 0 -66 50q0 29 17 39.5t49 10.5h130z" />
    <glyph glyph-name="O" unicode="O" 
d="M300 597q22 0 52 -6.5t71.5 -27.5t75 -53t57 -90.5t23.5 -132.5q0 -123 -82.5 -212t-196.5 -89q-116 0 -197.5 89.5t-81.5 216.5q0 126 82 215.5t197 89.5zM300 497q-73 0 -126 -60.5t-53 -144.5q0 -85 52.5 -145.5t126.5 -60.5q73 0 126 60t53 143q0 86 -52.5 147
t-126.5 61z" />
    <glyph glyph-name="P" unicode="P" 
d="M529 394q0 -27 -6 -52t-23 -51.5t-42.5 -46t-68 -32t-97.5 -12.5h-98v-100h99q66 0 66 -50t-66 -50h-214q-66 0 -66 50t66 50h15v383h-15q-66 0 -66 50q0 29 17 39.5t49 10.5h233q95 0 156 -53t61 -136zM194 483v-183h118q52 0 81.5 24.5t29.5 66.5q0 43 -29.5 67.5
t-81.5 24.5h-118z" />
    <glyph glyph-name="Q" unicode="Q" 
d="M579 294q0 -122 -80.5 -211.5t-209.5 -89.5q-10 0 -18 1l-4 -24q30 5 51 5q30 0 72.5 -10t52.5 -10q21 0 45 16t38 16q22 0 36.5 -14.5t14.5 -35.5q0 -31 -45 -56.5t-88 -25.5q-27 0 -62 14t-63 14q-35 0 -89.5 -13t-64.5 -13q-19 0 -33.5 15.5t-14.5 36.5q0 19 20 38
l62 60q-25 14 -39 23t-44.5 35.5t-48 54t-32 73.5t-14.5 99q0 126 82 215.5t197 89.5t197 -89t82 -214zM300 497q-74 0 -126.5 -60.5t-52.5 -145.5q0 -84 53 -145t126 -61t126 60t53 143q0 87 -52.5 148t-126.5 61z" />
    <glyph glyph-name="R" unicode="R" 
d="M619 50q0 -50 -66 -50h-79q-37 72 -94.5 141.5t-89.5 80.5h-96v-122h35q66 0 66 -50t-66 -50h-150q-66 0 -66 50t66 50h15v383h-15q-66 0 -66 50q0 29 17 39.5t49 10.5h223q97 0 158.5 -49.5t61.5 -128.5q0 -92 -108 -151q65 -57 126 -154h13q66 0 66 -50zM194 322h76
q63 0 104.5 24.5t41.5 61.5q0 32 -31 53.5t-79 21.5h-112v-161z" />
    <glyph glyph-name="S" unicode="S" 
d="M468 597q30 0 39.5 -17t9.5 -49v-88q0 -67 -49 -67q-8 0 -14.5 1.5t-11 4t-8.5 7t-6 7.5t-4 9t-2.5 8.5t-2 9t-1.5 7.5q-7 30 -39.5 48.5t-79.5 18.5t-80 -22t-33 -54q0 -34 33 -52.5t77 -24t98 -20t85 -39.5q59 -47 59 -125t-63 -126t-166 -48q-83 0 -156 39
q-20 -24 -40 -24q-51 0 -51 66v66q0 33 11 49.5t39 16.5q9 0 16.5 -2t12.5 -6t8.5 -7.5t6 -9.5t3.5 -9t2.5 -8t1.5 -6q7 -27 48 -46t91 -19q56 0 94 22t38 54q0 30 -29.5 48t-68 24t-90 18t-82.5 29q-38 22 -60 59t-22 80q0 76 62 126.5t155 50.5q77 0 130 -33q8 19 16 26
t23 7z" />
    <glyph glyph-name="T" unicode="T" 
d="M481 50q0 -50 -66 -50h-231q-66 0 -66 50q0 29 17 39.5t49 10.5h65v383h-107v-93q0 -66 -50 -66t-50 66v193h516v-193q0 -32 -10.5 -49t-39.5 -17q-50 0 -50 66v93h-109v-383h66q66 0 66 -50z" />
    <glyph glyph-name="U" unicode="U" 
d="M529 205q0 -97 -68 -158t-161 -61t-161 62t-68 157v278q-61 2 -61 50q0 29 17 39.5t49 10.5h130q32 0 49 -10t17 -40q0 -50 -66 -50h-35v-287q0 -46 38 -78t91 -32t91 32t38 78v287h-35q-66 0 -66 50q0 29 17 39.5t49 10.5h130q33 0 49.5 -10.5t16.5 -39.5q0 -50 -61 -50
v-278z" />
    <glyph glyph-name="V" unicode="V" 
d="M244 533q0 -50 -66 -50h-19l144 -339l144 339h-24q-32 0 -49 10.5t-17 39.5t17 39.5t49 10.5h132q66 0 66 -50t-68 -50l-205 -483h-99l-202 483q-68 0 -68 50q0 29 17 39.5t49 10.5h133q32 0 49 -10.5t17 -39.5z" />
    <glyph glyph-name="W" unicode="W" 
d="M544 583q66 0 66 -50q0 -42 -47 -50l-60 -483h-110l-93 277l-91 -277h-111l-62 483q-46 6 -46 48q0 30 16.5 41t49.5 11h131q67 0 67 -50t-67 -50h-48l36 -272l76 226h104l76 -226l35 272h-53q-66 0 -66 50q0 29 17 39.5t49 10.5h131z" />
    <glyph glyph-name="X" unicode="X" 
d="M76 0q-66 0 -66 50q0 23 15.5 36.5t43.5 13.5l166 198l-158 185q-58 3 -58 50q0 50 66 50h91q67 0 67 -50q0 -31 -38 -49l95 -109l93 109q-38 19 -38 49q0 50 67 50h90q32 0 49 -10.5t17 -39.5q0 -48 -57 -50l-157 -186l167 -197q59 -2 59 -50q0 -50 -66 -50h-111
q-66 0 -66 50q0 47 55 50l-101 120l-102 -120q54 -3 54 -50q0 -50 -66 -50h-111z" />
    <glyph glyph-name="Y" unicode="Y" 
d="M118 50q0 30 17.5 40t49.5 10h65v145l-165 238q-64 0 -64 50t67 50h89q66 0 66 -50q0 -33 -38 -49l95 -136l94 136q-40 15 -40 49q0 30 17.5 40t49.5 10h92q32 0 49 -10.5t17 -39.5q0 -50 -65 -50l-164 -238v-145h65q67 0 67 -50t-67 -50h-230q-67 0 -67 50z" />
    <glyph glyph-name="Z" unicode="Z" 
d="M146 347q-50 0 -50 66v170h408v-97l-303 -386h226v72q0 32 10.5 49t39.5 17t39.5 -17t10.5 -49v-172h-454v100l302 383h-179v-70q0 -66 -50 -66z" />
    <glyph glyph-name="bracketleft" unicode="[" 
d="M474 573q0 -50 -66 -50h-58v-571h59q66 0 66 -50t-66 -50h-159v771h158q33 0 49.5 -10.5t16.5 -39.5z" />
    <glyph glyph-name="backslash" unicode="\" 
d="M184 651l321 -678q12 -24 12 -38q0 -19 -15 -33.5t-35 -14.5q-18 0 -29 9.5t-23 34.5l-320 679q-12 24 -12 37q0 19 15 33.5t35 14.5q17 0 28 -9.5t23 -34.5z" />
    <glyph glyph-name="bracketright" unicode="]" 
d="M126 -98q0 50 66 50h58v571h-59q-66 0 -66 50t66 50h159v-771h-158q-33 0 -49.5 10.5t-16.5 39.5z" />
    <glyph glyph-name="asciicircum" unicode="^" 
d="M299 494l-117 -138q-17 -20 -25.5 -25.5t-23.5 -5.5q-20 0 -35 15t-15 35q0 18 22 44l194 233l196 -233q22 -26 22 -44q0 -20 -15 -35t-35 -15q-14 0 -23.5 5.5t-25.5 24.5z" />
    <glyph glyph-name="underscore" unicode="_" 
d="M600 -100v-100h-600v100h600z" />
    <glyph glyph-name="grave" unicode="`" 
d="M232 650l95 -81q23 -20 23 -37q0 -14 -11 -25t-26 -11q-13 0 -32 16l-95 82q-23 18 -23 36q0 15 10.5 25.5t26.5 10.5q12 0 32 -16z" />
    <glyph glyph-name="a" unicode="a" 
d="M42 119q0 68 67 118.5t175 50.5q45 0 104 -10v23q0 49 -93 49q-41 0 -93 -11.5t-63 -11.5q-21 0 -35 14.5t-14 36.5q0 32 30 42q85 30 172 30q92 0 144.5 -39t52.5 -109v-202h16q66 0 66 -50t-66 -50h-117v23q-75 -39 -166 -39q-74 0 -127 39.5t-53 95.5zM389 135v50
q-63 11 -111 11q-51 0 -90.5 -22t-39.5 -51q0 -17 22 -28t54 -11q82 0 165 51z" />
    <glyph glyph-name="b" unicode="b" 
d="M-8 573q0 50 66 50h116v-222q63 50 150 50q113 0 180 -66.5t67 -166.5t-68 -166t-178 -66q-80 0 -151 49v-35h-116q-66 0 -66 50q0 29 17 39.5t49 10.5h16v423h-16q-32 0 -49 10.5t-17 39.5zM323 351q-68 0 -108.5 -37.5t-40.5 -93.5q0 -59 41.5 -96.5t107.5 -37.5
q65 0 106.5 37.5t41.5 95.5q0 56 -41 94t-107 38z" />
    <glyph glyph-name="c" unicode="c" 
d="M540 307q0 -66 -50 -66q-27 0 -37.5 15t-16.5 37t-20 32q-41 25 -106 25q-71 0 -113.5 -39.5t-42.5 -103.5q0 -123 176 -123q53 0 88 9t47.5 19t25 19t24.5 9q20 0 35 -15t15 -36q0 -43 -66.5 -74t-175.5 -31q-62 0 -110.5 14t-77.5 36.5t-48 52.5t-26 59.5t-7 60.5
q0 107 71.5 175t184.5 68q86 0 144 -30q9 30 38 30q48 0 48 -66v-77z" />
    <glyph glyph-name="d" unicode="d" 
d="M613 50q0 -50 -66 -50h-116v35q-72 -49 -151 -49q-112 0 -179.5 67t-67.5 166t67.5 165.5t180.5 66.5q87 0 150 -50v123h-16q-32 0 -49 10.5t-17 39.5q0 28 17 38.5t49 10.5h116v-523h16q66 0 66 -50zM431 217q0 60 -41 97t-109 37q-67 0 -107.5 -38.5t-40.5 -93.5
q0 -57 41.5 -95t107.5 -38t107.5 37.5t41.5 93.5z" />
    <glyph glyph-name="e" unicode="e" 
d="M550 67q0 -32 -58 -52.5t-108.5 -25.5t-86.5 -5q-116 0 -190 65t-74 167q0 99 74.5 166.5t183.5 67.5q112 0 185.5 -68t73.5 -171v-39h-408q34 -88 164 -88q53 0 118 16.5t78 16.5q20 0 34 -14.5t14 -35.5zM145 260h294q-12 41 -52 65.5t-95 24.5t-95.5 -25t-51.5 -65z
" />
    <glyph glyph-name="f" unicode="f" 
d="M392 623q179 0 179 -63q0 -22 -13.5 -36.5t-33.5 -14.5q-5 0 -54.5 7t-86.5 7q-84 0 -84 -49v-37h151q66 0 66 -50t-66 -50h-151v-237h139q66 0 66 -50t-66 -50h-297q-66 0 -66 50q0 29 17 39.5t49 10.5h58v237h-47q-66 0 -66 50q0 30 17.5 40t49.5 10h46v37q0 69 52 109
t141 40z" />
    <glyph glyph-name="g" unicode="g" 
d="M141 -150q0 29 17 39.5t49 10.5h109q44 0 69 21t25 59v55q-66 -49 -141 -49q-101 0 -168.5 66.5t-67.5 165.5q0 100 67.5 166.5t168.5 66.5q82 0 141 -50v36h116q66 0 66 -50t-66 -50h-16v-357q0 -79 -54.5 -129.5t-136.5 -50.5h-112q-66 0 -66 50zM271 351
q-57 0 -97.5 -38.5t-40.5 -93.5t40.5 -94t97.5 -39t98 38.5t41 92.5q0 56 -40.5 95t-98.5 39z" />
    <glyph glyph-name="h" unicode="h" 
d="M13 573q0 50 66 50h116v-234q60 61 137 61q80 0 128.5 -45.5t48.5 -120.5v-184h6q66 0 66 -50t-66 -50h-112q-67 0 -67 50t67 50h6v171q0 38 -17.5 58.5t-70.5 20.5q-35 0 -59 -13t-67 -54v-183h6q67 0 67 -50t-67 -50h-112q-66 0 -66 50t66 50h6v423h-16q-32 0 -49 10.5
t-17 39.5z" />
    <glyph glyph-name="i" unicode="i" 
d="M538 50q0 -50 -66 -50h-344q-66 0 -66 50q0 29 17 39.5t49 10.5h122v237h-78q-67 0 -67 50q0 30 17.5 40t49.5 10h178v-337h122q66 0 66 -50zM336 623v-105h-118v105h118z" />
    <glyph glyph-name="j" unicode="j" 
d="M117 -150q0 29 17.5 39.5t48.5 10.5h111q44 0 69 21t25 59v357h-202q-66 0 -66 50q0 29 17 39.5t49 10.5h302v-457q0 -78 -54.5 -129t-136.5 -51h-114q-66 0 -66 50zM430 623v-105h-119v105h119z" />
    <glyph glyph-name="k" unicode="k" 
d="M571 50q0 -50 -67 -50h-118q-66 0 -66 50q0 20 16 37l-103 91l-18 -14v-164h-116q-66 0 -66 50q0 29 17 39.5t49 10.5h16v423h-16q-32 0 -49 10.5t-17 39.5q0 50 66 50h116v-336l79 63q-16 19 -16 37q0 50 67 50h112q33 0 49.5 -11t16.5 -39q0 -50 -66 -50h-28l-118 -96
l160 -141h33q67 0 67 -50z" />
    <glyph glyph-name="l" unicode="l" 
d="M105 573q0 29 17 39.5t50 10.5h178v-523h122q66 0 66 -50t-66 -50h-344q-66 0 -66 50q0 29 17 39.5t49 10.5h122v423h-78q-67 0 -67 50z" />
    <glyph glyph-name="m" unicode="m" 
d="M48 0q-67 0 -67 50t60 50v237q-60 2 -60 50q0 50 67 50h93v-24q46 37 85 37q57 0 102 -49q45 49 104 49q56 0 93.5 -37.5t37.5 -93.5v-219q60 0 60 -50t-66 -50h-94v311q0 22 -7.5 30.5t-27.5 8.5t-35.5 -9t-40.5 -36v-205q28 0 44 -13.5t16 -36.5q0 -50 -66 -50h-94v311
q0 21 -8 30t-27 9q-36 0 -76 -45v-205q61 0 61 -50t-66 -50h-88z" />
    <glyph glyph-name="n" unicode="n" 
d="M23 50q0 50 66 50h6v237q-61 2 -61 50q0 50 67 50h94v-48q36 34 66 47.5t71 13.5q78 0 128 -44t50 -124v-182q61 0 61 -50t-66 -50h-89q-67 0 -67 50t61 50v178q0 72 -90 72q-35 0 -62.5 -15t-62.5 -53v-182h6q66 0 66 -50t-66 -50h-112q-66 0 -66 50z" />
    <glyph glyph-name="o" unicode="o" 
d="M303 450q106 0 180.5 -68t74.5 -165q0 -98 -75 -165.5t-183 -67.5t-183 67.5t-75 165.5q0 99 75 166t186 67zM302 350q-68 0 -114 -38t-46 -95q0 -56 45.5 -94.5t112.5 -38.5t112.5 38.5t45.5 94.5t-45.5 94.5t-110.5 38.5z" />
    <glyph glyph-name="p" unicode="p" 
d="M-8 387q0 50 66 50h116v-45q68 58 153 58q105 0 174.5 -64.5t69.5 -161.5q0 -92 -69 -153t-173 -61q-82 0 -155 56v-166h58q33 0 49.5 -10.5t16.5 -39.5q0 -50 -66 -50h-174q-66 0 -66 50t66 50h16v437h-16q-32 0 -49 10.5t-17 39.5zM471 230q0 52 -41 86t-107 34
q-67 0 -108 -34t-41 -85q0 -53 41.5 -87t107.5 -34q65 0 106.5 34t41.5 86z" />
    <glyph glyph-name="q" unicode="q" 
d="M307 -150q0 50 66 50h58v166q-73 -56 -156 -56q-104 0 -173 61t-69 153q0 97 69.5 161.5t174.5 64.5q47 0 82 -13t72 -45v45h116q66 0 66 -50t-66 -50h-16v-437h16q66 0 66 -50t-66 -50h-174q-66 0 -66 50zM282 110q66 0 107.5 34t41.5 85q0 53 -41.5 87t-108.5 34
q-65 0 -106.5 -34.5t-41.5 -85.5q0 -52 41.5 -86t107.5 -34z" />
    <glyph glyph-name="r" unicode="r" 
d="M445 449q42 0 84 -26t42 -59q0 -21 -15 -36t-35 -15q-17 0 -39 18t-39 18q-24 0 -58.5 -21.5t-106.5 -80.5v-147h139q67 0 67 -50t-67 -50h-297q-66 0 -66 50q0 29 17 39.5t49 10.5h58v237h-35q-66 0 -66 50t66 50h135v-65q60 45 95 61t72 16z" />
    <glyph glyph-name="s" unicode="s" 
d="M506 347q0 -32 -10.5 -49t-39.5 -17q-18 0 -30 11t-19.5 23.5t-34 23.5t-71.5 11q-38 0 -68.5 -10.5t-30.5 -24.5q0 -20 44 -28.5t110 -18.5t101 -30q33 -18 51.5 -48t18.5 -65q0 -61 -63 -101t-160 -40q-87 0 -148 29q-15 -12 -32 -12q-51 0 -51 66v33q0 67 51 67
q38 0 51 -44q43 -39 125 -39q48 0 82.5 13t34.5 30q0 39 -126 52q-105 11 -152 43t-47 91q0 60 58 98.5t148 38.5q73 0 129 -26q11 26 32 26q47 0 47 -66v-37z" />
    <glyph glyph-name="t" unicode="t" 
d="M214 141q0 -31 17 -44t69 -13q39 0 71.5 7t49 15.5t33 15.5t27.5 7q20 0 34 -15t14 -36q0 -28 -42.5 -50.5t-94 -33t-93.5 -10.5q-85 0 -135 37t-50 101v215h-35q-66 0 -66 50q0 29 17 39.5t49 10.5h35v88q0 66 50 66q29 0 39.5 -17t10.5 -49v-88h181q32 0 49 -10.5
t17 -39.5q0 -50 -66 -50h-181v-196z" />
    <glyph glyph-name="u" unicode="u" 
d="M365 337q-30 0 -43 15.5t-13 34.5q0 50 66 50h135v-337q61 0 61 -50t-66 -50h-95v48q-37 -35 -66.5 -48t-70.5 -13q-79 0 -128.5 44.5t-49.5 124.5v181h-27q-25 0 -40 14t-15 36q0 29 17 39.5t49 10.5h116v-278q0 -72 88 -72q38 0 63 13.5t64 54.5v182h-35h-10z" />
    <glyph glyph-name="v" unicode="v" 
d="M264 387q0 -50 -66 -50h-5l109 -215l107 215h-10q-66 0 -66 50t66 50h135q32 0 49 -10.5t17 -39.5q0 -50 -66 -50h-16l-167 -337h-104l-167 337h-14q-66 0 -66 50t66 50h132q32 0 49 -10.5t17 -39.5z" />
    <glyph glyph-name="w" unicode="w" 
d="M441 338q-66 0 -66 49q0 50 66 50h93q66 0 66 -50q0 -46 -52 -49l-84 -338h-92l-71 181l-68 -181h-94l-85 338q-26 2 -40 14.5t-14 34.5q0 50 66 50h92q32 0 49 -10.5t17 -39.5q0 -49 -64 -49l39 -153l60 158h88l61 -158l40 153h-7z" />
    <glyph glyph-name="x" unicode="x" 
d="M198 437q66 0 66 -49q0 -29 -26 -46l61 -49l61 50q-26 18 -26 43q0 51 66 51h91q67 0 67 -50q0 -45 -53 -50l-132 -110l152 -127q54 -3 54 -50q0 -50 -66 -50h-112q-67 0 -67 51q0 38 40 49l-75 61l-73 -61q38 -16 38 -49q0 -51 -66 -51h-111q-66 0 -66 50q0 47 54 50
l145 128l-128 109q-52 5 -52 50q0 50 66 50h92z" />
    <glyph glyph-name="y" unicode="y" 
d="M77 -200q-30 0 -43 15.5t-13 34.5q0 50 66 50h100l55 103l-172 334q-49 6 -49 50q0 50 66 50h90q32 0 49 -10.5t17 -39.5q0 -48 -59 -50l114 -223l120 223q-64 0 -64 50t67 50h92q32 0 49 -10.5t17 -39.5q0 -45 -52 -50l-230 -437h5q32 0 49 -10.5t17 -39.5
q0 -50 -66 -50h-215h-10z" />
    <glyph glyph-name="z" unicode="z" 
d="M147 262q-50 0 -50 66v109h409v-81l-262 -256h175q3 54 50 54q29 0 39.5 -17t10.5 -49v-88h-434v83l261 254h-149v-9q0 -66 -50 -66z" />
    <glyph glyph-name="braceleft" unicode="{" 
d="M348 5q0 -21 15.5 -38.5t35.5 -18.5q22 -2 38 -16t16 -35q0 -22 -17.5 -36t-43.5 -14q-64 0 -104 42.5t-40 108.5v125q0 21 -18.5 39t-43.5 18q-24 0 -39 14t-15 36t15.5 36.5t38.5 14.5q26 0 44 18t18 40v133q0 61 41.5 106t103.5 45q25 0 42.5 -14t17.5 -36
q0 -21 -16 -35t-38 -16q-21 -1 -36 -18.5t-15 -38.5v-117q0 -36 -18.5 -70t-40.5 -48q22 -15 40.5 -46t18.5 -61v-118z" />
    <glyph glyph-name="bar" unicode="|" 
d="M300 623q50 0 50 -66v-644q0 -66 -50 -66t-50 66v644q0 32 10.5 49t39.5 17z" />
    <glyph glyph-name="braceright" unicode="}" 
d="M252 5v118q0 30 18.5 61t40.5 46q-22 14 -40.5 48t-18.5 70v117q0 21 -15 38.5t-36 18.5q-22 2 -38 16t-16 35q0 22 17.5 36t42.5 14q62 0 103.5 -45t41.5 -106v-133q0 -22 18 -40t44 -18q23 0 38.5 -14.5t15.5 -36.5t-15 -36t-39 -14q-25 0 -43.5 -18t-18.5 -39v-125
q0 -66 -40 -108.5t-104 -42.5q-26 0 -43.5 14t-17.5 36q0 21 16 35t38 16q20 1 35.5 18.5t15.5 38.5z" />
    <glyph glyph-name="asciitilde" unicode="~" 
d="M62 252q0 30 47.5 81.5t103.5 51.5q38 0 74 -25.5t62 -50.5t40 -25q11 0 22.5 12.5t20.5 27.5t23.5 27.5t32.5 12.5q20 0 35 -15t15 -35q0 -28 -48 -81.5t-99 -53.5q-35 0 -73 25.5t-66 51t-40 25.5q-11 0 -27.5 -20t-35.5 -40t-36 -20q-20 0 -35.5 15.5t-15.5 35.5z" />
    <glyph glyph-name="nonbreakingspace" unicode="&#xa0;" 
 />
    <glyph glyph-name="exclamdown" unicode="&#xa1;" 
d="M222 -87l29 297q5 49 49 49q21 0 34.5 -13t15.5 -36l29 -297q2 -24 2 -33q0 -35 -23 -57.5t-58 -22.5t-57.5 23t-22.5 57q0 7 2 33zM292 453h17q28 0 47.5 -19.5t19.5 -46.5t-19.5 -46.5t-47.5 -19.5h-17q-28 0 -47 19t-19 47t19 47t47 19z" />
    <glyph glyph-name="cent" unicode="&#xa2;" 
d="M310 197q45 0 86.5 24t52.5 24q20 0 35 -15.5t15 -35.5q0 -31 -41 -57.5t-107 -37.5v-77q0 -66 -50 -66t-50 66v81q-77 19 -122.5 75.5t-45.5 133.5q0 73 47 130t121 75v77q0 67 50 67q30 0 40 -17.5t10 -49.5v-67q45 -7 73 -24q12 4 20 4q51 0 51 -66v-42q0 -66 -50 -66
q-25 0 -36 14.5t-13 32.5t-20 32.5t-56 14.5q-59 0 -98 -33.5t-39 -83.5q0 -47 36.5 -80t90.5 -33z" />
    <glyph glyph-name="sterling" unicode="&#xa3;" 
d="M381 293q0 -50 -67 -50h-45q1 -12 1 -27q0 -59 -23 -116h203q6 46 49 46q23 0 37 -15t14 -41q0 -44 -28 -67t-80 -23h-321q-66 0 -66 51q0 25 19 36t43.5 19.5t32.5 25.5q19 37 19 92q0 11 -1 19h-69q-66 0 -66 50q0 29 17 39.5t49 10.5h44q-17 51 -17 89
q0 73 48.5 119.5t124.5 46.5q59 0 108.5 -32.5t49.5 -70.5q0 -21 -14.5 -36t-34.5 -15q-19 0 -32 13.5t-30.5 27t-47.5 13.5q-31 0 -51.5 -17.5t-20.5 -43.5q0 -23 20 -94h68q67 0 67 -50z" />
    <glyph glyph-name="currency" unicode="&#xa4;" 
d="M131 388q-3 3 -13.5 13t-16 16t-13.5 15.5t-11.5 18.5t-3.5 18q0 20 15 35t36 15q20 0 47 -26l32 -31q48 26 97 26q47 0 97 -27l31 30q26 26 47 26t36 -15t15 -36q0 -13 -4.5 -21t-21.5 -25l-31 -32q25 -49 25 -96q0 -48 -26 -96l33 -34q26 -26 26 -46q0 -21 -15.5 -36.5
t-36.5 -15.5q-13 0 -21 4.5t-25 21.5l-34 32q-47 -25 -95 -25t-96 26l-33 -32q-17 -17 -25.5 -22t-21.5 -5q-21 0 -36 15t-15 36q0 20 26 47l32 34q-25 49 -25 96q0 49 25 96zM300 388q-39 0 -66.5 -27.5t-27.5 -67.5q0 -39 28 -67.5t66 -28.5t66 28.5t28 66.5
q0 41 -27 68.5t-67 27.5z" />
    <glyph glyph-name="yen" unicode="&#xa5;" 
d="M179 580q33 0 50 -10.5t17 -39.5q0 -18 -11 -31.5t-28 -16.5l94 -134l95 133q-41 11 -41 49q0 30 17.5 40t49.5 10h91q66 0 66 -50t-65 -50l-139 -199h72q31 0 31 -28t-31 -28h-97v-34h97q31 0 31 -28t-31 -28h-97v-35h47q32 0 49 -10.5t17 -39.5q0 -50 -66 -50h-194
q-66 0 -66 50q0 30 17.5 40t49.5 10h46v35h-97q-31 0 -31 28t31 28h97v34h-97q-31 0 -31 28t31 28h72l-138 200q-2 -1 -5 -1h-6q-23 0 -39 14t-16 36q0 29 17 39.5t49 10.5h92z" />
    <glyph glyph-name="brokenbar" unicode="&#xa6;" 
d="M300 622q50 0 50 -66v-203q0 -66 -50 -66t-50 66v203q0 66 50 66zM300 182q50 0 50 -66v-203q0 -66 -50 -66t-50 66v203q0 32 10.5 49t39.5 17z" />
    <glyph glyph-name="section" unicode="&#xa7;" 
d="M475 401q-44 0 -44 55v37h-144q-29 0 -49.5 -15.5t-20.5 -37.5q0 -37 107 -98l92 -51q87 -49 117.5 -82t30.5 -80q0 -46 -26.5 -77t-75.5 -42q5 -21 5 -38q0 -61 -43 -101.5t-112 -40.5h-231v127q0 55 44 55t44 -55v-39h145q27 0 47 16t20 37q0 39 -105 98l-106 61
q-75 43 -104.5 76.5t-29.5 76.5q0 91 101 119q-5 15 -5 30q0 63 45 107t117 44h225v-127q0 -55 -44 -55zM371 214l-99 57q-38 21 -80 55q-60 0 -60 -34q0 -37 86 -87l103 -58q65 -40 86 -59h17q19 1 31.5 10t12.5 23q0 37 -97 93z" />
    <glyph glyph-name="dieresis" unicode="&#xa8;" 
d="M196 654q25 0 42.5 -17.5t17.5 -43.5q0 -24 -17.5 -41.5t-42.5 -17.5t-42.5 17.5t-17.5 42.5t17.5 42.5t42.5 17.5zM404 654q25 0 42.5 -17.5t17.5 -43.5q0 -24 -17.5 -41.5t-42.5 -17.5t-42.5 17.5t-17.5 42.5t17.5 42.5t42.5 17.5z" />
    <glyph glyph-name="copyright" unicode="&#xa9;" 
d="M303 189q27 0 44 6.5t22.5 13.5t13.5 13.5t20 6.5q14 0 25 -11t11 -25q0 -29 -42 -52t-95 -23q-72 0 -119.5 43t-47.5 108v36q0 69 44.5 115t111.5 46q41 0 79 -19q8 19 28 19q15 0 24 -10.5t9 -27.5v-60q0 -44 -35 -44q-15 0 -23.5 11t-12.5 24.5t-21 24.5t-46 11
q-38 0 -62.5 -25.5t-24.5 -65.5v-34q0 -37 26.5 -59t70.5 -22zM299 598q127 0 217 -89.5t90 -216.5q0 -128 -90 -217.5t-220 -89.5q-124 0 -213.5 90.5t-89.5 216.5q0 127 89.5 216.5t216.5 89.5zM300 525q-97 0 -165.5 -68t-68.5 -165q0 -96 68 -165t163 -69q99 0 167.5 68
t68.5 166q0 97 -68.5 165t-164.5 68z" />
    <glyph glyph-name="ordfeminine" unicode="&#xaa;" 
d="M151 541q0 29 44.5 41.5t96.5 12.5q67 0 103.5 -27.5t36.5 -77.5v-128h6q51 0 51 -39t-50 -39h-85v11q-55 -22 -108 -22t-90.5 28t-37.5 68q0 50 48.5 84t125.5 34q26 0 62 -5v8q0 27 -58 27q-31 0 -66 -8t-41 -8q-16 0 -27 11.5t-11 28.5zM354 383v27q-37 7 -66 7
q-32 0 -55.5 -13t-23.5 -30q0 -10 12 -16t31 -6q57 0 102 31zM432 182h-256q-33 0 -42.5 8t-9.5 37q0 19 10.5 25.5t41.5 6.5h255q52 0 52 -38q0 -39 -51 -39z" />
    <glyph glyph-name="guillemotleft" unicode="&#xab;" 
d="M175 218l151 -141q16 -15 16 -27t-10 -21t-23 -9q-11 0 -28 13l-248 185l248 184q17 13 29 13q13 0 22.5 -9t9.5 -21q0 -11 -16 -27zM404 218l151 -141q16 -15 16 -27t-10 -21t-23 -9q-11 0 -28 13l-248 185l248 184q17 13 29 13q13 0 22.5 -9t9.5 -21q0 -11 -16 -27z
" />
    <glyph glyph-name="logicalnot" unicode="&#xac;" 
d="M42 395q0 29 17 39.5t49 10.5h357v-264q0 -66 -50 -66t-50 66v164h-257q-66 0 -66 50z" />
    <glyph glyph-name="softhyphen" unicode="&#xad;" 
d="M558 279q0 -50 -66 -50h-384q-66 0 -66 50t66 50h384q33 0 49.5 -10.5t16.5 -39.5z" />
    <glyph glyph-name="registered" unicode="&#xae;" 
d="M269 246v-49q42 0 42 -35q0 -36 -44 -36h-68q-45 0 -45 36q0 35 43 35v190q-43 2 -43 36q0 35 45 35h93q56 0 91.5 -29t35.5 -75q0 -28 -16.5 -51.5t-44.5 -36.5q28 -25 53 -69q36 -3 36 -35q0 -36 -44 -36h-40q-9 36 -33.5 73t-45.5 47h-15zM269 316h25q23 0 38.5 11
t15.5 28q0 14 -14.5 23t-39.5 9h-25v-71zM300 598q126 0 216 -89.5t90 -216.5q0 -128 -90 -217.5t-220 -89.5q-124 0 -213.5 90.5t-89.5 216.5t90 216t217 90zM300 525q-97 0 -165.5 -68.5t-68.5 -164.5t68 -165t163 -69q99 0 167.5 68t68.5 166q0 96 -68.5 164.5
t-164.5 68.5z" />
    <glyph glyph-name="macron" unicode="&#xaf;" 
d="M178 546q-53 0 -53 40t53 40h244q53 0 53 -40t-53 -40h-244z" />
    <glyph glyph-name="degree" unicode="&#xb0;" 
d="M300 596q73 0 124 -51.5t51 -124.5q0 -74 -51.5 -125.5t-125.5 -51.5q-71 0 -122 52t-51 125t51 124.5t124 51.5zM300 535q-47 0 -80.5 -34t-33.5 -81t33.5 -81.5t79.5 -34.5q48 0 81.5 34t33.5 82q0 47 -33.5 81t-80.5 34z" />
    <glyph glyph-name="plusminus" unicode="&#xb1;" 
d="M558 380q0 -50 -67 -50h-141v-100q0 -66 -50 -66t-50 66v100h-142q-66 0 -66 50t66 50h142v128q0 66 50 66q29 0 39.5 -17t10.5 -49v-128h141q67 0 67 -50zM42 50q0 50 66 50h384q66 0 66 -50t-66 -50h-384q-66 0 -66 50z" />
    <glyph glyph-name="twosuperior" unicode="&#xb2;" 
d="M161 533q0 35 38.5 69.5t94.5 34.5t93.5 -34t37.5 -86q0 -38 -30 -73.5t-142 -129.5h109q5 32 33 32q34 0 34 -43v-56h-280v68q139 115 174 149.5t35 55.5t-18.5 35.5t-46.5 14.5q-27 0 -42.5 -11t-19.5 -24t-12.5 -24t-23.5 -11q-14 0 -24 9.5t-10 23.5z" />
    <glyph glyph-name="threesuperior" unicode="&#xb3;" 
d="M190 326q4 0 26 -10.5t67 -10.5q92 0 92 52q0 28 -19 41.5t-42.5 15t-42.5 10t-19 27.5q0 14 10 23.5t24 9.5h25q20 0 35.5 13.5t15.5 30.5q0 19 -17 30.5t-46 11.5q-23 0 -38 -6t-20.5 -12.5t-13.5 -12.5t-19 -6q-13 0 -23 10t-10 24q0 28 38.5 49t88.5 21
q55 0 91 -30.5t36 -77.5q0 -18 -6.5 -33t-14 -22t-18 -15.5t-12.5 -10.5q64 -33 64 -93q0 -46 -36 -81.5t-121 -35.5q-59 0 -93.5 14.5t-34.5 39.5q0 14 9.5 24t23.5 10z" />
    <glyph glyph-name="acute" unicode="&#xb4;" 
d="M404 588l-85 -76q-18 -16 -32 -16q-15 0 -26 11t-11 25q0 17 23 37l85 75q20 16 32 16q16 0 26.5 -10.5t10.5 -26.5q0 -15 -23 -35z" />
    <glyph glyph-name="micro" unicode="&#xb5;" 
d="M571 50q0 -50 -66 -50h-95v22q-79 -38 -157 -38q-28 0 -58 9v-80q0 -66 -50 -66t-50 66v424h-16q-66 0 -66 50q0 29 17 39.5t49 10.5h116v-293q0 -32 15 -46t50 -14q61 0 150 54v199h-35q-66 0 -66 50t66 50h135v-337q61 0 61 -50z" />
    <glyph glyph-name="paragraph" unicode="&#xb6;" 
d="M138 -135q0 39 53 39h79v281q-97 10 -159 59.5t-62 116.5v46q0 73 75 124.5t181 51.5h197q54 0 54 -39t-54 -39h-34v-601h36q54 0 54 -39t-54 -39h-93q-28 0 -40 34q-8 -21 -16.5 -27.5t-26.5 -6.5h-137q-53 0 -53 39zM270 266v234q-50 -11 -79 -36t-29 -59v-44
q0 -34 29 -59t79 -36zM392 505h-44v-601q17 -8 23 -28q5 19 21 28v601z" />
    <glyph glyph-name="middot" unicode="&#xb7;" 
d="M300 292q25 0 42.5 -17.5t17.5 -43.5q0 -24 -17.5 -41.5t-42.5 -17.5t-42.5 17.5t-17.5 42.5t17.5 42.5t42.5 17.5z" />
    <glyph glyph-name="cedilla" unicode="&#xb8;" 
d="M215 -101q7 0 35 -14t51 -14q36 0 36 25q0 34 -53 34q-9 0 -22 -2v73h70v-12q75 -16 75 -91q0 -43 -30 -70t-77 -27q-37 0 -78.5 17t-41.5 46q0 14 10.5 24.5t24.5 10.5z" />
    <glyph glyph-name="onesuperior" unicode="&#xb9;" 
d="M334 638v-324h57q43 0 43 -33q0 -34 -43 -34h-181q-44 0 -44 34q0 33 44 33h57v237l-48 -12q-15 -4 -20 -4q-13 0 -22 10.5t-9 24.5t7.5 21.5t26.5 12.5z" />
    <glyph glyph-name="ordmasculine" unicode="&#xba;" 
d="M301 595q71 0 120.5 -48.5t49.5 -118.5q0 -64 -50 -109.5t-120 -45.5q-71 0 -120.5 46t-49.5 111q0 68 50 116.5t120 48.5zM301 517q-37 0 -64 -26t-27 -61q0 -31 27.5 -55t63.5 -24t63.5 24t27.5 55q0 35 -27 61t-64 26zM122 221q0 38 52 38h254q52 0 52 -38
q0 -39 -52 -39h-254q-52 0 -52 39z" />
    <glyph glyph-name="guillemotright" unicode="&#xbb;" 
d="M430 217l-151 141q-16 15 -16 27t10 21t23 9q11 0 28 -13l247 -185l-247 -184q-17 -13 -29 -13q-13 0 -22.5 9t-9.5 21q0 11 16 27zM200 217l-151 141q-16 15 -16 27t10 21t23 9q11 0 28 -13l247 -185l-247 -184q-17 -13 -29 -13q-13 0 -22.5 9t-9.5 21q0 11 16 27z" />
    <glyph glyph-name="onequarter" unicode="&#xbc;" 
d="M134 638v-324h57q43 0 43 -33q0 -34 -43 -34h-181q-44 0 -44 34q0 33 44 33h57v237l-48 -12q-15 -4 -20 -4q-13 0 -22 10.5t-9 24.5t7.5 21.5t26.5 12.5zM473 528l-260 -451q-15 -26 -34 -26q-13 0 -23.5 10t-10.5 23q0 10 10 26l260 451q16 26 35 26q13 0 23.5 -10
t10.5 -22q0 -9 -11 -27zM592 380v-230q37 -2 37 -33q0 -32 -37 -34v-16q37 -2 37 -33q0 -34 -44 -34h-79q-43 0 -43 34q0 33 43 33h19v16h-163v55l146 242h84zM525 150v129l-79 -129h79z" />
    <glyph glyph-name="onehalf" unicode="&#xbd;" 
d="M134 638v-324h57q43 0 43 -33q0 -34 -43 -34h-181q-44 0 -44 34q0 33 44 33h57v237l-48 -12q-15 -4 -20 -4q-13 0 -22 10.5t-9 24.5t7.5 21.5t26.5 12.5zM473 528l-260 -451q-15 -26 -34 -26q-13 0 -23.5 10t-10.5 23q0 10 10 26l260 451q16 26 35 26q13 0 23.5 -10
t10.5 -22q0 -9 -11 -27zM361 286q0 35 38.5 69.5t94.5 34.5t93.5 -34t37.5 -86q0 -38 -30 -73.5t-142 -129.5h109q5 32 33 32q34 0 34 -43v-56h-280v68q139 115 174 149.5t35 55.5t-18.5 35.5t-46.5 14.5q-27 0 -42.5 -11t-19.5 -24t-12.5 -24t-23.5 -11q-14 0 -24 9.5
t-10 23.5z" />
    <glyph glyph-name="threequarters" unicode="&#xbe;" 
d="M-10 326q4 0 26 -10.5t67 -10.5q92 0 92 52q0 28 -19 41.5t-42.5 15t-42.5 10t-19 27.5q0 14 10 23.5t24 9.5h25q20 0 35.5 13.5t15.5 30.5q0 19 -17 30.5t-46 11.5q-23 0 -38 -6t-20.5 -12.5t-13.5 -12.5t-19 -6q-13 0 -23 10t-10 24q0 28 38.5 49t88.5 21
q55 0 91 -30.5t36 -77.5q0 -18 -6.5 -33t-14 -22t-18 -15.5t-12.5 -10.5q64 -33 64 -93q0 -46 -36 -81.5t-121 -35.5q-59 0 -93.5 14.5t-34.5 39.5q0 14 9.5 24t23.5 10zM474 528l-261 -451q-15 -26 -34 -26q-14 0 -24 10t-10 23q0 10 10 26l261 451q14 26 34 26
q13 0 23.5 -10t10.5 -22q0 -9 -10 -27zM593 380v-230q37 -2 37 -33q0 -32 -37 -34v-16q37 -2 37 -33q0 -34 -44 -34h-79q-44 0 -44 34q0 33 44 33h19v16h-164v55l147 242h84zM526 150v129l-80 -129h80z" />
    <glyph glyph-name="questiondown" unicode="&#xbf;" 
d="M446 4q50 0 50 -66v-79q-72 -35 -114 -47t-90 -12q-93 0 -151 52.5t-58 136.5q0 61 36.5 101t127.5 80q6 54 50 54q50 0 50 -66v-56q-96 -37 -130 -61.5t-34 -56.5q0 -37 30 -60.5t78 -23.5q55 0 105 24v14q0 66 50 66zM289 413h17q28 0 47.5 -19.5t19.5 -46.5
t-19.5 -46.5t-47.5 -19.5h-17q-28 0 -47 19t-19 47t19 47t47 19z" />
    <glyph glyph-name="Agrave" unicode="&#xc0;" 
d="M248 782l95 -81q23 -20 23 -37q0 -14 -11 -25t-26 -11q-13 0 -32 16l-95 82q-23 18 -23 36q0 15 10.5 25.5t26.5 10.5q12 0 32 -16zM350 50q0 29 17 39.5t49 10.5h23l-23 58h-238l-23 -58h23q66 0 66 -50t-66 -50h-133q-66 0 -66 50q0 30 17.5 40t49.5 10l155 383h-63
q-67 0 -67 50q0 30 17.5 40t49.5 10h216l199 -483q68 0 68 -50t-66 -50h-139q-66 0 -66 50zM375 258l-78 192l-79 -192h157z" />
    <glyph glyph-name="Aacute" unicode="&#xc1;" 
d="M360 728l-85 -76q-18 -16 -32 -16q-15 0 -26 11t-11 25q0 17 23 37l85 75q20 16 32 16q16 0 26.5 -10.5t10.5 -26.5q0 -15 -23 -35zM350 50q0 29 17 39.5t49 10.5h23l-23 58h-238l-23 -58h23q66 0 66 -50t-66 -50h-133q-66 0 -66 50q0 30 17.5 40t49.5 10l155 383h-63
q-67 0 -67 50q0 30 17.5 40t49.5 10h216l199 -483q68 0 68 -50t-66 -50h-139q-66 0 -66 50zM375 258l-78 192l-79 -192h157z" />
    <glyph glyph-name="Acircumflex" unicode="&#xc2;" 
d="M285 701l-113 -62q-24 -13 -28 -13q-14 0 -24.5 10.5t-10.5 24.5q0 12 4 18.5t20 16.5l152 94l160 -101q15 -12 15 -28q0 -14 -10.5 -24.5t-23.5 -10.5q-6 0 -29 13zM350 50q0 29 17 39.5t49 10.5h23l-23 58h-238l-23 -58h23q66 0 66 -50t-66 -50h-133q-66 0 -66 50
q0 30 17.5 40t49.5 10l155 383h-63q-67 0 -67 50q0 30 17.5 40t49.5 10h216l199 -483q68 0 68 -50t-66 -50h-139q-66 0 -66 50zM375 258l-78 192l-79 -192h157z" />
    <glyph glyph-name="Atilde" unicode="&#xc3;" 
d="M359 680q17 0 40 24t40 24q13 0 22.5 -8.5t9.5 -19.5q0 -21 -33.5 -55t-75.5 -34q-28 0 -81 24t-68 24q-21 0 -43 -22.5t-38 -22.5q-13 0 -22 9t-9 21q0 23 33 53.5t77 30.5q28 0 80.5 -24t67.5 -24zM350 50q0 29 17 39.5t49 10.5h23l-23 58h-238l-23 -58h23q66 0 66 -50
t-66 -50h-133q-66 0 -66 50q0 30 17.5 40t49.5 10l155 383h-63q-67 0 -67 50q0 30 17.5 40t49.5 10h216l199 -483q68 0 68 -50t-66 -50h-139q-66 0 -66 50zM375 258l-78 192l-79 -192h157z" />
    <glyph glyph-name="Adieresis" unicode="&#xc4;" 
d="M193 746q25 0 42.5 -17.5t17.5 -43.5q0 -24 -17.5 -41.5t-42.5 -17.5t-42.5 17.5t-17.5 42.5t17.5 42.5t42.5 17.5zM401 746q25 0 42.5 -17.5t17.5 -43.5q0 -24 -17.5 -41.5t-42.5 -17.5t-42.5 17.5t-17.5 42.5t17.5 42.5t42.5 17.5zM350 50q0 29 17 39.5t49 10.5h23
l-23 58h-238l-23 -58h23q66 0 66 -50t-66 -50h-133q-66 0 -66 50q0 30 17.5 40t49.5 10l155 383h-63q-67 0 -67 50q0 30 17.5 40t49.5 10h216l199 -483q68 0 68 -50t-66 -50h-139q-66 0 -66 50zM375 258l-78 192l-79 -192h157z" />
    <glyph glyph-name="Aring" unicode="&#xc5;" 
d="M293 800q39 0 66 -26.5t27 -65.5q0 -36 -27.5 -62.5t-65.5 -26.5t-65.5 27t-27.5 64t27.5 63.5t65.5 26.5zM293 738q-12 0 -21 -8.5t-9 -19.5q0 -12 9 -20.5t21 -8.5t21 8.5t9 19.5q0 12 -9 20.5t-21 8.5zM350 50q0 29 17 39.5t49 10.5h23l-23 58h-238l-23 -58h23
q66 0 66 -50t-66 -50h-133q-66 0 -66 50q0 30 17.5 40t49.5 10l155 383h-63q-67 0 -67 50q0 30 17.5 40t49.5 10h216l199 -483q68 0 68 -50t-66 -50h-139q-66 0 -66 50zM375 258l-78 192l-79 -192h157z" />
    <glyph glyph-name="AE" unicode="&#xc6;" 
d="M-20 50q0 50 66 50h7l115 383h-14q-66 0 -66 50q0 29 17 39.5t49 10.5h439v-165q0 -66 -50 -66t-50 66v65h-126v-141h19q3 55 50 55q29 0 39.5 -17t10.5 -49v-78q0 -66 -50 -66q-23 0 -36 15t-14 41h-19v-143h147v23q0 66 50 66q29 0 39.5 -17t10.5 -49v-123h-349
q-26 0 -41 14t-15 38q0 20 14.5 34t35.5 14h8v58h-93l-17 -58q41 -6 41 -47q0 -53 -57 -53h-95q-66 0 -66 50zM267 259v212l-64 -212h64z" />
    <glyph glyph-name="Ccedilla" unicode="&#xc7;" 
d="M564 108q0 -9 -5.5 -21.5t-21 -29t-39.5 -30.5t-66 -25t-95 -14q75 -15 75 -91q0 -42 -30 -69.5t-75 -27.5q-39 0 -80.5 16.5t-41.5 46.5q0 14 10.5 24.5t24.5 10.5q6 0 34.5 -14t51.5 -14q36 0 36 25q0 34 -50 34q-8 0 -25 -2v64q-62 13 -108.5 40.5t-69.5 56t-36.5 64
t-16.5 56.5t-3 41v66q0 120 78 201t194 81q70 0 142 -34l10 -4q17 24 42 24q29 0 39.5 -17t10.5 -49v-84q0 -66 -50 -66q-24 0 -34.5 11.5t-12 27t-12.5 35.5t-34 32q-43 24 -97 24q-77 0 -126.5 -51.5t-49.5 -130.5v-64q0 -75 53.5 -120t142.5 -45q48 0 82 11.5t47.5 25
t27.5 25t28 11.5q20 0 35 -15t15 -36z" />
    <glyph glyph-name="Egrave" unicode="&#xc8;" 
d="M250 784l95 -81q23 -20 23 -37q0 -14 -11 -25t-26 -11q-13 0 -32 16l-95 82q-23 18 -23 36q0 15 10.5 25.5t26.5 10.5q12 0 32 -16zM500 219q50 0 50 -67v-152h-471q-66 0 -66 50t66 50h15v383h-15q-66 0 -66 50q0 29 17 39.5t49 10.5h449v-150q0 -67 -50 -67t-50 67v50
h-234v-141h85v7q0 67 49 67q50 0 50 -67v-113q0 -66 -49 -66q-50 0 -50 66v7h-85v-143h256v52q0 67 50 67z" />
    <glyph glyph-name="Eacute" unicode="&#xc9;" 
d="M370 728l-85 -76q-18 -16 -32 -16q-15 0 -26 11t-11 25q0 17 23 37l85 75q20 16 32 16q16 0 26.5 -10.5t10.5 -26.5q0 -15 -23 -35zM500 219q50 0 50 -67v-152h-471q-66 0 -66 50t66 50h15v383h-15q-66 0 -66 50q0 29 17 39.5t49 10.5h449v-150q0 -67 -50 -67t-50 67v50
h-234v-141h85v7q0 67 49 67q50 0 50 -67v-113q0 -66 -49 -66q-50 0 -50 66v7h-85v-143h256v52q0 67 50 67z" />
    <glyph glyph-name="Ecircumflex" unicode="&#xca;" 
d="M291 699l-113 -62q-24 -13 -28 -13q-14 0 -24.5 10.5t-10.5 24.5q0 12 4 18.5t20 16.5l152 94l160 -101q15 -12 15 -28q0 -14 -10.5 -24.5t-23.5 -10.5q-6 0 -29 13zM500 218q50 0 50 -67v-152h-471q-66 0 -66 50t66 50h15v383h-15q-66 0 -66 50q0 29 17 39.5t49 10.5
h449v-150q0 -67 -50 -67t-50 67v50h-234v-141h85v7q0 67 49 67q50 0 50 -67v-113q0 -66 -49 -66q-50 0 -50 66v7h-85v-143h256v52q0 67 50 67z" />
    <glyph glyph-name="Edieresis" unicode="&#xcb;" 
d="M200 745q25 0 42.5 -17.5t17.5 -43.5q0 -24 -17.5 -41.5t-42.5 -17.5t-42.5 17.5t-17.5 42.5t17.5 42.5t42.5 17.5zM408 745q25 0 42.5 -17.5t17.5 -43.5q0 -24 -17.5 -41.5t-42.5 -17.5t-42.5 17.5t-17.5 42.5t17.5 42.5t42.5 17.5zM500 219q50 0 50 -67v-152h-471
q-66 0 -66 50t66 50h15v383h-15q-66 0 -66 50q0 29 17 39.5t49 10.5h449v-150q0 -67 -50 -67t-50 67v50h-234v-141h85v7q0 67 49 67q50 0 50 -67v-113q0 -66 -49 -66q-50 0 -50 66v7h-85v-143h256v52q0 67 50 67z" />
    <glyph glyph-name="Igrave" unicode="&#xcc;" 
d="M259 784l95 -81q23 -20 23 -37q0 -14 -11 -25t-26 -11q-13 0 -32 16l-95 82q-23 18 -23 36q0 15 10.5 25.5t26.5 10.5q12 0 32 -16zM451 100q32 0 49 -10.5t17 -39.5q0 -50 -66 -50h-302q-66 0 -66 50q0 29 17 39.5t49 10.5h101v383h-101q-66 0 -66 50q0 29 17 39.5
t49 10.5h302q32 0 49 -10.5t17 -39.5q0 -50 -66 -50h-101v-383h101z" />
    <glyph glyph-name="Iacute" unicode="&#xcd;" 
d="M407 728l-85 -76q-18 -16 -32 -16q-15 0 -26 11t-11 25q0 17 23 37l85 75q20 16 32 16q16 0 26.5 -10.5t10.5 -26.5q0 -15 -23 -35zM451 100q32 0 49 -10.5t17 -39.5q0 -50 -66 -50h-302q-66 0 -66 50q0 29 17 39.5t49 10.5h101v383h-101q-66 0 -66 50q0 29 17 39.5
t49 10.5h302q32 0 49 -10.5t17 -39.5q0 -50 -66 -50h-101v-383h101z" />
    <glyph glyph-name="Icircumflex" unicode="&#xce;" 
d="M299 702l-113 -62q-24 -13 -28 -13q-14 0 -24.5 10.5t-10.5 24.5q0 12 4 18.5t20 16.5l152 94l160 -101q15 -12 15 -28q0 -14 -10.5 -24.5t-23.5 -10.5q-6 0 -29 13zM451 100q32 0 49 -10.5t17 -39.5q0 -50 -66 -50h-302q-66 0 -66 50q0 29 17 39.5t49 10.5h101v383h-101
q-66 0 -66 50q0 29 17 39.5t49 10.5h302q32 0 49 -10.5t17 -39.5q0 -50 -66 -50h-101v-383h101z" />
    <glyph glyph-name="Idieresis" unicode="&#xcf;" 
d="M196 744q25 0 42.5 -17.5t17.5 -43.5q0 -24 -17.5 -41.5t-42.5 -17.5t-42.5 17.5t-17.5 42.5t17.5 42.5t42.5 17.5zM404 744q25 0 42.5 -17.5t17.5 -43.5q0 -24 -17.5 -41.5t-42.5 -17.5t-42.5 17.5t-17.5 42.5t17.5 42.5t42.5 17.5zM451 100q32 0 49 -10.5t17 -39.5
q0 -50 -66 -50h-302q-66 0 -66 50q0 29 17 39.5t49 10.5h101v383h-101q-66 0 -66 50q0 29 17 39.5t49 10.5h302q32 0 49 -10.5t17 -39.5q0 -50 -66 -50h-101v-383h101z" />
    <glyph glyph-name="Eth" unicode="&#xd0;" 
d="M79 0q-66 0 -66 50q0 24 16 37t45 13v143h-8q-66 0 -66 50q0 30 17.5 40t49.5 10h7v140q-61 0 -61 50q0 30 17.5 40t49.5 10h212q109 0 183.5 -80t74.5 -198v-47q0 -117 -72.5 -187.5t-193.5 -70.5h-205zM248 343q32 0 49 -10.5t17 -39.5q0 -50 -66 -50h-74v-143h111
q50 0 84.5 15t51 41t23 51t6.5 54v46q0 75 -45.5 125.5t-120.5 50.5h-110v-140h74z" />
    <glyph glyph-name="Ntilde" unicode="&#xd1;" 
d="M365 677q17 0 40 24t40 24q13 0 22.5 -8.5t9.5 -19.5q0 -21 -33.5 -55t-75.5 -34q-28 0 -81 24t-68 24q-21 0 -43 -22.5t-38 -22.5q-13 0 -22 9t-9 21q0 23 33 53.5t77 30.5q28 0 80.5 -24t67.5 -24zM526 583q66 0 66 -50t-61 -50v-483h-99l-259 394v-294h35
q32 0 49 -10.5t17 -39.5q0 -50 -66 -50h-129q-67 0 -67 50t61 50v383h-15q-66 0 -66 50q0 29 17 39.5t49 10.5h115l258 -392v292h-35q-66 0 -66 50q0 29 17 39.5t49 10.5h130z" />
    <glyph glyph-name="Ograve" unicode="&#xd2;" 
d="M259 784l95 -81q23 -20 23 -37q0 -14 -11 -25t-26 -11q-13 0 -32 16l-95 82q-23 18 -23 36q0 15 10.5 25.5t26.5 10.5q12 0 32 -16zM300 597q22 0 52 -6.5t71.5 -27.5t75 -53t57 -90.5t23.5 -132.5q0 -123 -82.5 -212t-196.5 -89q-116 0 -197.5 89.5t-81.5 216.5
q0 126 82 215.5t197 89.5zM300 497q-73 0 -126 -60.5t-53 -144.5q0 -85 52.5 -145.5t126.5 -60.5q73 0 126 60t53 143q0 86 -52.5 147t-126.5 61z" />
    <glyph glyph-name="Oacute" unicode="&#xd3;" 
d="M377 728l-85 -76q-18 -16 -32 -16q-15 0 -26 11t-11 25q0 17 23 37l85 75q20 16 32 16q16 0 26.5 -10.5t10.5 -26.5q0 -15 -23 -35zM300 597q22 0 52 -6.5t71.5 -27.5t75 -53t57 -90.5t23.5 -132.5q0 -123 -82.5 -212t-196.5 -89q-116 0 -197.5 89.5t-81.5 216.5
q0 126 82 215.5t197 89.5zM300 497q-73 0 -126 -60.5t-53 -144.5q0 -85 52.5 -145.5t126.5 -60.5q73 0 126 60t53 143q0 86 -52.5 147t-126.5 61z" />
    <glyph glyph-name="Ocircumflex" unicode="&#xd4;" 
d="M301 699l-113 -62q-24 -13 -28 -13q-14 0 -24.5 10.5t-10.5 24.5q0 12 4 18.5t20 16.5l152 94l160 -101q15 -12 15 -28q0 -14 -10.5 -24.5t-23.5 -10.5q-6 0 -29 13zM300 597q22 0 52 -6.5t71.5 -27.5t75 -53t57 -90.5t23.5 -132.5q0 -123 -82.5 -212t-196.5 -89
q-116 0 -197.5 89.5t-81.5 216.5q0 126 82 215.5t197 89.5zM300 497q-73 0 -126 -60.5t-53 -144.5q0 -85 52.5 -145.5t126.5 -60.5q73 0 126 60t53 143q0 86 -52.5 147t-126.5 61z" />
    <glyph glyph-name="Otilde" unicode="&#xd5;" 
d="M373 681q17 0 40 24t40 24q13 0 22.5 -8.5t9.5 -19.5q0 -21 -33.5 -55t-75.5 -34q-28 0 -81 24t-68 24q-21 0 -43 -22.5t-38 -22.5q-13 0 -22 9t-9 21q0 23 33 53.5t77 30.5q28 0 80.5 -24t67.5 -24zM300 597q22 0 52 -6.5t71.5 -27.5t75 -53t57 -90.5t23.5 -132.5
q0 -123 -82.5 -212t-196.5 -89q-116 0 -197.5 89.5t-81.5 216.5q0 126 82 215.5t197 89.5zM300 497q-73 0 -126 -60.5t-53 -144.5q0 -85 52.5 -145.5t126.5 -60.5q73 0 126 60t53 143q0 86 -52.5 147t-126.5 61z" />
    <glyph glyph-name="Odieresis" unicode="&#xd6;" 
d="M196 747q25 0 42.5 -17.5t17.5 -43.5q0 -24 -17.5 -41.5t-42.5 -17.5t-42.5 17.5t-17.5 42.5t17.5 42.5t42.5 17.5zM404 747q25 0 42.5 -17.5t17.5 -43.5q0 -24 -17.5 -41.5t-42.5 -17.5t-42.5 17.5t-17.5 42.5t17.5 42.5t42.5 17.5zM300 597q22 0 52 -6.5t71.5 -27.5
t75 -53t57 -90.5t23.5 -132.5q0 -123 -82.5 -212t-196.5 -89q-116 0 -197.5 89.5t-81.5 216.5q0 126 82 215.5t197 89.5zM300 497q-73 0 -126 -60.5t-53 -144.5q0 -85 52.5 -145.5t126.5 -60.5q73 0 126 60t53 143q0 86 -52.5 147t-126.5 61z" />
    <glyph glyph-name="multiply" unicode="&#xd7;" 
d="M300 209l-103 -103q-27 -26 -47 -26t-35 15t-15 36q0 20 26 46l103 103l-103 103q-26 27 -26 47t15 35t35 15t47 -26l103 -103l103 103q27 26 47 26t35 -15t15 -35t-26 -47l-103 -103l103 -103q26 -26 26 -47q0 -20 -15 -35t-35 -15q-21 0 -47 26z" />
    <glyph glyph-name="Oslash" unicode="&#xd8;" 
d="M159 28l-54 -68q-15 -19 -24 -24.5t-23 -5.5q-20 0 -34.5 14t-14.5 33q0 16 21 42l57 73q-67 88 -67 200q0 126 82 215.5t198 89.5q77 0 149 -48l46 58q14 19 23.5 25t23.5 6q20 0 34 -14t14 -34q0 -16 -20 -42l-52 -65q61 -80 61 -192q0 -126 -82 -215.5t-197 -89.5
q-74 0 -141 42zM452 400l-231 -293q37 -21 79 -21q73 0 126 60.5t53 143.5q0 61 -27 110zM152 174l235 297q-44 26 -88 26q-73 0 -126 -60.5t-53 -144.5q0 -64 32 -118z" />
    <glyph glyph-name="Ugrave" unicode="&#xd9;" 
d="M259 784l95 -81q23 -20 23 -37q0 -14 -11 -25t-26 -11q-13 0 -32 16l-95 82q-23 18 -23 36q0 15 10.5 25.5t26.5 10.5q12 0 32 -16zM529 205q0 -97 -68 -158t-161 -61t-161 62t-68 157v278q-61 2 -61 50q0 29 17 39.5t49 10.5h130q32 0 49 -10t17 -40q0 -50 -66 -50h-35
v-287q0 -46 38 -78t91 -32t91 32t38 78v287h-35q-66 0 -66 50q0 29 17 39.5t49 10.5h130q33 0 49.5 -10.5t16.5 -39.5q0 -50 -61 -50v-278z" />
    <glyph glyph-name="Uacute" unicode="&#xda;" 
d="M377 728l-85 -76q-18 -16 -32 -16q-15 0 -26 11t-11 25q0 17 23 37l85 75q20 16 32 16q16 0 26.5 -10.5t10.5 -26.5q0 -15 -23 -35zM529 205q0 -97 -68 -158t-161 -61t-161 62t-68 157v278q-61 2 -61 50q0 29 17 39.5t49 10.5h130q32 0 49 -10t17 -40q0 -50 -66 -50h-35
v-287q0 -46 38 -78t91 -32t91 32t38 78v287h-35q-66 0 -66 50q0 29 17 39.5t49 10.5h130q33 0 49.5 -10.5t16.5 -39.5q0 -50 -61 -50v-278z" />
    <glyph glyph-name="Ucircumflex" unicode="&#xdb;" 
d="M301 703l-113 -62q-24 -13 -28 -13q-14 0 -24.5 10.5t-10.5 24.5q0 12 4 18.5t20 16.5l152 94l160 -101q15 -12 15 -28q0 -14 -10.5 -24.5t-23.5 -10.5q-6 0 -29 13zM529 205q0 -97 -68 -158t-161 -61t-161 62t-68 157v278q-61 2 -61 50q0 29 17 39.5t49 10.5h130
q32 0 49 -10t17 -40q0 -50 -66 -50h-35v-287q0 -46 38 -78t91 -32t91 32t38 78v287h-35q-66 0 -66 50q0 29 17 39.5t49 10.5h130q33 0 49.5 -10.5t16.5 -39.5q0 -50 -61 -50v-278z" />
    <glyph glyph-name="Udieresis" unicode="&#xdc;" 
d="M196 745q25 0 42.5 -17.5t17.5 -43.5q0 -24 -17.5 -41.5t-42.5 -17.5t-42.5 17.5t-17.5 42.5t17.5 42.5t42.5 17.5zM404 745q25 0 42.5 -17.5t17.5 -43.5q0 -24 -17.5 -41.5t-42.5 -17.5t-42.5 17.5t-17.5 42.5t17.5 42.5t42.5 17.5zM529 205q0 -97 -68 -158t-161 -61
t-161 62t-68 157v278q-61 2 -61 50q0 29 17 39.5t49 10.5h130q32 0 49 -10t17 -40q0 -50 -66 -50h-35v-287q0 -46 38 -78t91 -32t91 32t38 78v287h-35q-66 0 -66 50q0 29 17 39.5t49 10.5h130q33 0 49.5 -10.5t16.5 -39.5q0 -50 -61 -50v-278z" />
    <glyph glyph-name="Yacute" unicode="&#xdd;" 
d="M380 718l-85 -76q-18 -16 -32 -16q-15 0 -26 11t-11 25q0 17 23 37l85 75q20 16 32 16q16 0 26.5 -10.5t10.5 -26.5q0 -15 -23 -35zM118 50q0 30 17.5 40t49.5 10h65v145l-165 238q-64 0 -64 50t67 50h89q66 0 66 -50q0 -33 -38 -49l95 -136l94 136q-40 15 -40 49
q0 30 17.5 40t49.5 10h92q32 0 49 -10.5t17 -39.5q0 -50 -65 -50l-164 -238v-145h65q67 0 67 -50t-67 -50h-230q-67 0 -67 50z" />
    <glyph glyph-name="Thorn" unicode="&#xde;" 
d="M523 292q0 -28 -9 -52t-32 -48t-71.5 -38t-117.5 -14h-98v-40h99q66 0 66 -50t-66 -50h-214q-66 0 -66 50t66 50h15v383h-15q-66 0 -66 50t66 50h214q66 0 66 -50t-66 -50h-99v-40h98q69 0 117.5 -14t71.5 -38t32 -47.5t9 -51.5zM195 240h131q50 0 72.5 12t22.5 39
q0 28 -22.5 40t-72.5 12h-131v-103z" />
    <glyph glyph-name="germandbls" unicode="&#xdf;" 
d="M13 50q0 50 66 50h16v378q0 64 48.5 104.5t124.5 40.5t127 -48t51 -119q0 -50 -35 -91q118 -69 118 -200q0 -81 -42.5 -131t-112.5 -50q-52 0 -85.5 32t-33.5 81q0 28 13.5 43.5t36.5 15.5q22 0 32.5 -11t12 -25t9 -25t23.5 -11q21 0 34 22t13 58q0 41 -18 70t-47.5 43
t-47.5 18.5t-38 7.5q-55 6 -55 50q0 27 19 38.5t42.5 12t42.5 13.5t19 42q0 28 -22 46t-56 18q-73 0 -73 -62v-361q43 -8 43 -49q0 -51 -66 -51h-93q-66 0 -66 50z" />
    <glyph glyph-name="agrave" unicode="&#xe0;" 
d="M244 650l95 -81q23 -20 23 -37q0 -14 -11 -25t-26 -11q-13 0 -32 16l-95 82q-23 18 -23 36q0 15 10.5 25.5t26.5 10.5q12 0 32 -16zM42 119q0 68 67 118.5t175 50.5q45 0 104 -10v23q0 49 -93 49q-41 0 -93 -11.5t-63 -11.5q-21 0 -35 14.5t-14 36.5q0 32 30 42
q85 30 172 30q92 0 144.5 -39t52.5 -109v-202h16q66 0 66 -50t-66 -50h-117v23q-75 -39 -166 -39q-74 0 -127 39.5t-53 95.5zM389 135v50q-63 11 -111 11q-51 0 -90.5 -22t-39.5 -51q0 -17 22 -28t54 -11q82 0 165 51z" />
    <glyph glyph-name="aacute" unicode="&#xe1;" 
d="M371 588l-85 -76q-18 -16 -32 -16q-15 0 -26 11t-11 25q0 17 23 37l85 75q20 16 32 16q16 0 26.5 -10.5t10.5 -26.5q0 -15 -23 -35zM42 119q0 68 67 118.5t175 50.5q45 0 104 -10v23q0 49 -93 49q-41 0 -93 -11.5t-63 -11.5q-21 0 -35 14.5t-14 36.5q0 32 30 42
q85 30 172 30q92 0 144.5 -39t52.5 -109v-202h16q66 0 66 -50t-66 -50h-117v23q-75 -39 -166 -39q-74 0 -127 39.5t-53 95.5zM389 135v50q-63 11 -111 11q-51 0 -90.5 -22t-39.5 -51q0 -17 22 -28t54 -11q82 0 165 51z" />
    <glyph glyph-name="acircumflex" unicode="&#xe2;" 
d="M289 556l-113 -62q-24 -13 -28 -13q-14 0 -24.5 10.5t-10.5 24.5q0 12 4 18.5t20 16.5l152 94l160 -101q15 -12 15 -28q0 -14 -10.5 -24.5t-23.5 -10.5q-6 0 -29 13zM42 119q0 68 67 118.5t175 50.5q45 0 104 -10v23q0 49 -93 49q-41 0 -93 -11.5t-63 -11.5
q-21 0 -35 14.5t-14 36.5q0 32 30 42q85 30 172 30q92 0 144.5 -39t52.5 -109v-202h16q66 0 66 -50t-66 -50h-117v23q-75 -39 -166 -39q-74 0 -127 39.5t-53 95.5zM389 135v50q-63 11 -111 11q-51 0 -90.5 -22t-39.5 -51q0 -17 22 -28t54 -11q82 0 165 51z" />
    <glyph glyph-name="atilde" unicode="&#xe3;" 
d="M365 573q17 0 40 24t40 24q13 0 22.5 -8.5t9.5 -19.5q0 -21 -33.5 -55t-75.5 -34q-28 0 -81 24t-68 24q-21 0 -43 -22.5t-38 -22.5q-13 0 -22 9t-9 21q0 23 33 53.5t77 30.5q28 0 80.5 -24t67.5 -24zM42 119q0 68 67 118.5t175 50.5q45 0 104 -10v23q0 49 -93 49
q-41 0 -93 -11.5t-63 -11.5q-21 0 -35 14.5t-14 36.5q0 32 30 42q85 30 172 30q92 0 144.5 -39t52.5 -109v-202h16q66 0 66 -50t-66 -50h-117v23q-75 -39 -166 -39q-74 0 -127 39.5t-53 95.5zM389 135v50q-63 11 -111 11q-51 0 -90.5 -22t-39.5 -51q0 -17 22 -28t54 -11
q82 0 165 51z" />
    <glyph glyph-name="adieresis" unicode="&#xe4;" 
d="M188 606q25 0 42.5 -17.5t17.5 -43.5q0 -24 -17.5 -41.5t-42.5 -17.5t-42.5 17.5t-17.5 42.5t17.5 42.5t42.5 17.5zM396 606q25 0 42.5 -17.5t17.5 -43.5q0 -24 -17.5 -41.5t-42.5 -17.5t-42.5 17.5t-17.5 42.5t17.5 42.5t42.5 17.5zM42 119q0 68 67 118.5t175 50.5
q45 0 104 -10v23q0 49 -93 49q-41 0 -93 -11.5t-63 -11.5q-21 0 -35 14.5t-14 36.5q0 32 30 42q85 30 172 30q92 0 144.5 -39t52.5 -109v-202h16q66 0 66 -50t-66 -50h-117v23q-75 -39 -166 -39q-74 0 -127 39.5t-53 95.5zM389 135v50q-63 11 -111 11q-51 0 -90.5 -22
t-39.5 -51q0 -17 22 -28t54 -11q82 0 165 51z" />
    <glyph glyph-name="aring" unicode="&#xe5;" 
d="M289 657q39 0 66 -26.5t27 -65.5q0 -36 -27.5 -62.5t-65.5 -26.5t-65.5 27t-27.5 64t27.5 63.5t65.5 26.5zM289 595q-12 0 -21 -8.5t-9 -19.5q0 -12 9 -20.5t21 -8.5t21 8.5t9 19.5q0 12 -9 20.5t-21 8.5zM42 119q0 68 67 118.5t175 50.5q45 0 104 -10v23q0 49 -93 49
q-41 0 -93 -11.5t-63 -11.5q-21 0 -35 14.5t-14 36.5q0 32 30 42q85 30 172 30q92 0 144.5 -39t52.5 -109v-202h16q66 0 66 -50t-66 -50h-117v23q-75 -39 -166 -39q-74 0 -127 39.5t-53 95.5zM389 135v50q-63 11 -111 11q-51 0 -90.5 -22t-39.5 -51q0 -17 22 -28t54 -11
q82 0 165 51z" />
    <glyph glyph-name="ae" unicode="&#xe6;" 
d="M435 450q74 0 125 -64.5t51 -167.5v-46h-251q13 -47 31.5 -67.5t49.5 -20.5q26 0 69.5 17t55.5 17q20 0 33 -15t13 -37q0 -23 -21 -40.5t-51 -25.5t-55 -12t-43 -4q-53 0 -100 32q-14 -17 -37 -17q-21 0 -36 17q-51 -32 -110 -32q-78 0 -125 44t-47 117q0 39 25 69
t61.5 44.5t67.5 21t54 6.5q17 0 60 -5v20q0 21 -13.5 35t-34.5 14q-20 0 -61 -12.5t-52 -12.5q-20 0 -34 15t-14 36q0 22 20.5 38t51 23t52.5 10t37 3q66 0 116 -56q52 56 112 56zM199 197q-49 0 -80 -15t-31 -40q0 -26 19 -42t51 -16q43 0 97 46v59q-31 8 -56 8zM502 258
q-14 92 -70 92q-55 0 -70 -92h140z" />
    <glyph glyph-name="ccedilla" unicode="&#xe7;" 
d="M565 89q0 -29 -27 -51t-67.5 -32.5t-72 -15.5t-56.5 -6q39 -8 57 -28.5t18 -59.5q0 -41 -30 -68.5t-75 -27.5q-39 0 -80.5 16.5t-41.5 46.5q0 14 10.5 24.5t24.5 10.5q7 0 35 -14t51 -14q36 0 36 25q0 34 -56 34q-1 0 -19 -2v59q-20 2 -41 6.5t-55 19.5t-59 37t-44 63
t-19 94q0 108 71.5 176t185.5 68q85 0 143 -30q9 30 37 30q31 0 40 -16.5t9 -49.5v-77q0 -66 -50 -66q-27 0 -37 14.5t-16 37t-20 32.5q-41 25 -106 25q-71 0 -114 -39t-43 -104q0 -123 176 -123q52 0 87.5 9t48.5 19t25.5 19t23.5 9q20 0 35 -15t15 -36z" />
    <glyph glyph-name="egrave" unicode="&#xe8;" 
d="M256 650l95 -81q23 -20 23 -37q0 -14 -11 -25t-26 -11q-13 0 -32 16l-95 82q-23 18 -23 36q0 15 10.5 25.5t26.5 10.5q12 0 32 -16zM550 67q0 -32 -58 -52.5t-108.5 -25.5t-86.5 -5q-116 0 -190 65t-74 167q0 99 74.5 166.5t183.5 67.5q112 0 185.5 -68t73.5 -171v-39
h-408q34 -88 164 -88q53 0 118 16.5t78 16.5q20 0 34 -14.5t14 -35.5zM145 260h294q-12 41 -52 65.5t-95 24.5t-95.5 -25t-51.5 -65z" />
    <glyph glyph-name="eacute" unicode="&#xe9;" 
d="M383 587l-85 -76q-18 -16 -32 -16q-15 0 -26 11t-11 25q0 17 23 37l85 75q20 16 32 16q16 0 26.5 -10.5t10.5 -26.5q0 -15 -23 -35zM550 67q0 -32 -58 -52.5t-108.5 -25.5t-86.5 -5q-116 0 -190 65t-74 167q0 99 74.5 166.5t183.5 67.5q112 0 185.5 -68t73.5 -171v-39
h-408q34 -88 164 -88q53 0 118 16.5t78 16.5q20 0 34 -14.5t14 -35.5zM145 260h294q-12 41 -52 65.5t-95 24.5t-95.5 -25t-51.5 -65z" />
    <glyph glyph-name="ecircumflex" unicode="&#xea;" 
d="M291 555l-113 -62q-24 -13 -28 -13q-14 0 -24.5 10.5t-10.5 24.5q0 12 4 18.5t20 16.5l152 94l160 -101q15 -12 15 -28q0 -14 -10.5 -24.5t-23.5 -10.5q-6 0 -29 13zM550 67q0 -32 -58 -52.5t-108.5 -25.5t-86.5 -5q-116 0 -190 65t-74 167q0 99 74.5 166.5t183.5 67.5
q112 0 185.5 -68t73.5 -171v-39h-408q34 -88 164 -88q53 0 118 16.5t78 16.5q20 0 34 -14.5t14 -35.5zM145 260h294q-12 41 -52 65.5t-95 24.5t-95.5 -25t-51.5 -65z" />
    <glyph glyph-name="edieresis" unicode="&#xeb;" 
d="M187 604q25 0 42.5 -17.5t17.5 -43.5q0 -24 -17.5 -41.5t-42.5 -17.5t-42.5 17.5t-17.5 42.5t17.5 42.5t42.5 17.5zM395 604q25 0 42.5 -17.5t17.5 -43.5q0 -24 -17.5 -41.5t-42.5 -17.5t-42.5 17.5t-17.5 42.5t17.5 42.5t42.5 17.5zM550 67q0 -32 -58 -52.5
t-108.5 -25.5t-86.5 -5q-116 0 -190 65t-74 167q0 99 74.5 166.5t183.5 67.5q112 0 185.5 -68t73.5 -171v-39h-408q34 -88 164 -88q53 0 118 16.5t78 16.5q20 0 34 -14.5t14 -35.5zM145 260h294q-12 41 -52 65.5t-95 24.5t-95.5 -25t-51.5 -65z" />
    <glyph glyph-name="igrave" unicode="&#xec;" 
d="M244 650l95 -81q23 -20 23 -37q0 -14 -11 -25t-26 -11q-13 0 -32 16l-95 82q-23 18 -23 36q0 15 10.5 25.5t26.5 10.5q12 0 32 -16zM105 387q0 30 17.5 40t49.5 10h178v-337h122q66 0 66 -50t-66 -50h-344q-66 0 -66 50q0 29 17 39.5t49 10.5h122v237h-78q-67 0 -67 50z
" />
    <glyph glyph-name="iacute" unicode="&#xed;" 
d="M361 589l-85 -76q-18 -16 -32 -16q-15 0 -26 11t-11 25q0 17 23 37l85 75q20 16 32 16q16 0 26.5 -10.5t10.5 -26.5q0 -15 -23 -35zM105 387q0 30 17.5 40t49.5 10h178v-337h122q66 0 66 -50t-66 -50h-344q-66 0 -66 50q0 29 17 39.5t49 10.5h122v237h-78q-67 0 -67 50z
" />
    <glyph glyph-name="icircumflex" unicode="&#xee;" 
d="M301 557l-113 -62q-24 -13 -28 -13q-14 0 -24.5 10.5t-10.5 24.5q0 12 4 18.5t20 16.5l152 94l160 -101q15 -12 15 -28q0 -14 -10.5 -24.5t-23.5 -10.5q-6 0 -29 13zM105 387q0 30 17.5 40t49.5 10h178v-337h122q66 0 66 -50t-66 -50h-344q-66 0 -66 50q0 29 17 39.5
t49 10.5h122v237h-78q-67 0 -67 50z" />
    <glyph glyph-name="idieresis" unicode="&#xef;" 
d="M196 607q25 0 42.5 -17.5t17.5 -43.5q0 -24 -17.5 -41.5t-42.5 -17.5t-42.5 17.5t-17.5 42.5t17.5 42.5t42.5 17.5zM404 607q25 0 42.5 -17.5t17.5 -43.5q0 -24 -17.5 -41.5t-42.5 -17.5t-42.5 17.5t-17.5 42.5t17.5 42.5t42.5 17.5zM105 387q0 30 17.5 40t49.5 10h178
v-337h122q66 0 66 -50t-66 -50h-344q-66 0 -66 50q0 29 17 39.5t49 10.5h122v237h-78q-67 0 -67 50z" />
    <glyph glyph-name="eth" unicode="&#xf0;" 
d="M558 233q0 -57 -18 -102t-45.5 -72t-63.5 -44.5t-68 -24t-63 -6.5q-107 0 -182.5 66.5t-75.5 160.5q0 96 71.5 164t172.5 68q38 0 67.5 -9.5t76.5 -37.5q-63 79 -137 122l-92 -50q-21 -12 -32 -12q-13 0 -21.5 10.5t-8.5 26.5q0 10 4 15t20 14l50 29q-8 4 -21.5 9.5
t-17.5 7.5l-16 5q-26 9 -26 31q0 14 12 25t28 11q34 0 99 -31l28 -13l77 41q18 9 33 9q13 0 22 -9.5t9 -23.5q0 -17 -23 -30l-45 -25q97 -67 141.5 -145.5t44.5 -179.5zM300 350q-65 0 -110.5 -40t-45.5 -98q0 -53 45.5 -90.5t110.5 -37.5q64 0 110 37t46 89q0 59 -45 99.5
t-111 40.5z" />
    <glyph glyph-name="ntilde" unicode="&#xf1;" 
d="M370 587q17 0 40 24t40 24q13 0 22.5 -8.5t9.5 -19.5q0 -21 -33.5 -55t-75.5 -34q-28 0 -81 24t-68 24q-21 0 -43 -22.5t-38 -22.5q-13 0 -22 9t-9 21q0 23 33 53.5t77 30.5q28 0 80.5 -24t67.5 -24zM23 50q0 50 66 50h6v237q-61 2 -61 50q0 50 67 50h94v-48
q36 34 66 47.5t71 13.5q78 0 128 -44t50 -124v-182q61 0 61 -50t-66 -50h-89q-67 0 -67 50t61 50v178q0 72 -90 72q-35 0 -62.5 -15t-62.5 -53v-182h6q66 0 66 -50t-66 -50h-112q-66 0 -66 50z" />
    <glyph glyph-name="ograve" unicode="&#xf2;" 
d="M254 650l95 -81q23 -20 23 -37q0 -14 -11 -25t-26 -11q-13 0 -32 16l-95 82q-23 18 -23 36q0 15 10.5 25.5t26.5 10.5q12 0 32 -16zM303 450q106 0 180.5 -68t74.5 -165q0 -98 -75 -165.5t-183 -67.5t-183 67.5t-75 165.5q0 99 75 166t186 67zM302 350q-68 0 -114 -38
t-46 -95q0 -56 45.5 -94.5t112.5 -38.5t112.5 38.5t45.5 94.5t-45.5 94.5t-110.5 38.5z" />
    <glyph glyph-name="oacute" unicode="&#xf3;" 
d="M382 588l-85 -76q-18 -16 -32 -16q-15 0 -26 11t-11 25q0 17 23 37l85 75q20 16 32 16q16 0 26.5 -10.5t10.5 -26.5q0 -15 -23 -35zM303 450q106 0 180.5 -68t74.5 -165q0 -98 -75 -165.5t-183 -67.5t-183 67.5t-75 165.5q0 99 75 166t186 67zM302 350q-68 0 -114 -38
t-46 -95q0 -56 45.5 -94.5t112.5 -38.5t112.5 38.5t45.5 94.5t-45.5 94.5t-110.5 38.5z" />
    <glyph glyph-name="ocircumflex" unicode="&#xf4;" 
d="M303 554l-113 -62q-24 -13 -28 -13q-14 0 -24.5 10.5t-10.5 24.5q0 12 4 18.5t20 16.5l152 94l160 -101q15 -12 15 -28q0 -14 -10.5 -24.5t-23.5 -10.5q-6 0 -29 13zM303 450q106 0 180.5 -68t74.5 -165q0 -98 -75 -165.5t-183 -67.5t-183 67.5t-75 165.5q0 99 75 166
t186 67zM302 350q-68 0 -114 -38t-46 -95q0 -56 45.5 -94.5t112.5 -38.5t112.5 38.5t45.5 94.5t-45.5 94.5t-110.5 38.5z" />
    <glyph glyph-name="otilde" unicode="&#xf5;" 
d="M376 549q17 0 40 24t40 24q13 0 22.5 -8.5t9.5 -19.5q0 -21 -33.5 -55t-75.5 -34q-28 0 -81 24t-68 24q-21 0 -43 -22.5t-38 -22.5q-13 0 -22 9t-9 21q0 23 33 53.5t77 30.5q28 0 80.5 -24t67.5 -24zM303 450q106 0 180.5 -68t74.5 -165q0 -98 -75 -165.5t-183 -67.5
t-183 67.5t-75 165.5q0 99 75 166t186 67zM302 350q-68 0 -114 -38t-46 -95q0 -56 45.5 -94.5t112.5 -38.5t112.5 38.5t45.5 94.5t-45.5 94.5t-110.5 38.5z" />
    <glyph glyph-name="odieresis" unicode="&#xf6;" 
d="M199 604q25 0 42.5 -17.5t17.5 -43.5q0 -24 -17.5 -41.5t-42.5 -17.5t-42.5 17.5t-17.5 42.5t17.5 42.5t42.5 17.5zM407 604q25 0 42.5 -17.5t17.5 -43.5q0 -24 -17.5 -41.5t-42.5 -17.5t-42.5 17.5t-17.5 42.5t17.5 42.5t42.5 17.5zM303 450q106 0 180.5 -68t74.5 -165
q0 -98 -75 -165.5t-183 -67.5t-183 67.5t-75 165.5q0 99 75 166t186 67zM302 350q-68 0 -114 -38t-46 -95q0 -56 45.5 -94.5t112.5 -38.5t112.5 38.5t45.5 94.5t-45.5 94.5t-110.5 38.5z" />
    <glyph glyph-name="divide" unicode="&#xf7;" 
d="M42 280q0 50 66 50h384q66 0 66 -50t-66 -50h-384q-66 0 -66 50zM300 160q34 0 54.5 -18t20.5 -49q0 -29 -20.5 -47t-54.5 -18t-54.5 18.5t-20.5 47.5t20.5 47.5t54.5 18.5zM300 532q34 0 54.5 -18t20.5 -49q0 -29 -20.5 -47t-54.5 -18t-54.5 18.5t-20.5 47.5t20.5 47.5
t54.5 18.5z" />
    <glyph glyph-name="oslash" unicode="&#xf8;" 
d="M548 402l-42 -43q52 -66 52 -142q0 -98 -75 -165.5t-183 -67.5q-66 0 -128 30l-56 -58q-26 -26 -45 -26q-20 0 -34 14t-14 34q0 19 25 44l48 50q-54 67 -54 145q0 97 74.5 165t181.5 68q75 0 134 -31l48 49q26 26 46 26t33.5 -14t13.5 -33t-25 -45zM436 286l-189 -195
q25 -7 52 -7q67 0 113 38.5t46 94.5q0 34 -22 69zM167 145l190 197q-34 8 -57 8q-67 0 -112.5 -38.5t-45.5 -94.5q0 -38 25 -72z" />
    <glyph glyph-name="ugrave" unicode="&#xf9;" 
d="M252 650l95 -81q23 -20 23 -37q0 -14 -11 -25t-26 -11q-13 0 -32 16l-95 82q-23 18 -23 36q0 15 10.5 25.5t26.5 10.5q12 0 32 -16zM365 337q-30 0 -43 15.5t-13 34.5q0 50 66 50h135v-337q61 0 61 -50t-66 -50h-95v48q-37 -35 -66.5 -48t-70.5 -13q-79 0 -128.5 44.5
t-49.5 124.5v181h-27q-25 0 -40 14t-15 36q0 29 17 39.5t49 10.5h116v-278q0 -72 88 -72q38 0 63 13.5t64 54.5v182h-35h-10z" />
    <glyph glyph-name="uacute" unicode="&#xfa;" 
d="M368 589l-85 -76q-18 -16 -32 -16q-15 0 -26 11t-11 25q0 17 23 37l85 75q20 16 32 16q16 0 26.5 -10.5t10.5 -26.5q0 -15 -23 -35zM365 337q-30 0 -43 15.5t-13 34.5q0 50 66 50h135v-337q61 0 61 -50t-66 -50h-95v48q-37 -35 -66.5 -48t-70.5 -13q-79 0 -128.5 44.5
t-49.5 124.5v181h-27q-25 0 -40 14t-15 36q0 29 17 39.5t49 10.5h116v-278q0 -72 88 -72q38 0 63 13.5t64 54.5v182h-35h-10z" />
    <glyph glyph-name="ucircumflex" unicode="&#xfb;" 
d="M295 554l-113 -62q-24 -13 -28 -13q-14 0 -24.5 10.5t-10.5 24.5q0 12 4 18.5t20 16.5l152 94l160 -101q15 -12 15 -28q0 -14 -10.5 -24.5t-23.5 -10.5q-6 0 -29 13zM365 337q-30 0 -43 15.5t-13 34.5q0 50 66 50h135v-337q61 0 61 -50t-66 -50h-95v48q-37 -35 -66.5 -48
t-70.5 -13q-79 0 -128.5 44.5t-49.5 124.5v181h-27q-25 0 -40 14t-15 36q0 29 17 39.5t49 10.5h116v-278q0 -72 88 -72q38 0 63 13.5t64 54.5v182h-35h-10z" />
    <glyph glyph-name="udieresis" unicode="&#xfc;" 
d="M190 607q25 0 42.5 -17.5t17.5 -43.5q0 -24 -17.5 -41.5t-42.5 -17.5t-42.5 17.5t-17.5 42.5t17.5 42.5t42.5 17.5zM398 607q25 0 42.5 -17.5t17.5 -43.5q0 -24 -17.5 -41.5t-42.5 -17.5t-42.5 17.5t-17.5 42.5t17.5 42.5t42.5 17.5zM365 337q-30 0 -43 15.5t-13 34.5
q0 50 66 50h135v-337q61 0 61 -50t-66 -50h-95v48q-37 -35 -66.5 -48t-70.5 -13q-79 0 -128.5 44.5t-49.5 124.5v181h-27q-25 0 -40 14t-15 36q0 29 17 39.5t49 10.5h116v-278q0 -72 88 -72q38 0 63 13.5t64 54.5v182h-35h-10z" />
    <glyph glyph-name="yacute" unicode="&#xfd;" 
d="M417 602l-85 -76q-18 -16 -32 -16q-15 0 -26 11t-11 25q0 17 23 37l85 75q20 16 32 16q16 0 26.5 -10.5t10.5 -26.5q0 -15 -23 -35zM77 -200q-30 0 -43 15.5t-13 34.5q0 50 66 50h100l55 103l-172 334q-49 6 -49 50q0 50 66 50h90q32 0 49 -10.5t17 -39.5q0 -48 -59 -50
l114 -223l120 223q-64 0 -64 50t67 50h92q32 0 49 -10.5t17 -39.5q0 -45 -52 -50l-230 -437h5q32 0 49 -10.5t17 -39.5q0 -50 -66 -50h-215h-10z" />
    <glyph glyph-name="thorn" unicode="&#xfe;" 
d="M-8 574q0 50 66 50h116v-232q37 32 72 45t82 13q104 0 173.5 -64.5t69.5 -161.5q0 -92 -69 -153t-173 -61q-82 0 -155 56v-166h58q33 0 49.5 -10.5t16.5 -39.5q0 -50 -66 -50h-174q-66 0 -66 50t66 50h16v624h-16q-32 0 -49 10.5t-17 39.5zM471 230q0 52 -41 86t-107 34
q-67 0 -108 -34t-41 -85q0 -53 41.5 -87t107.5 -34q65 0 106.5 34t41.5 86z" />
    <glyph glyph-name="ydieresis" unicode="&#xff;" 
d="M196 605q25 0 42.5 -17.5t17.5 -43.5q0 -24 -17.5 -41.5t-42.5 -17.5t-42.5 17.5t-17.5 42.5t17.5 42.5t42.5 17.5zM404 605q25 0 42.5 -17.5t17.5 -43.5q0 -24 -17.5 -41.5t-42.5 -17.5t-42.5 17.5t-17.5 42.5t17.5 42.5t42.5 17.5zM77 -200q-30 0 -43 15.5t-13 34.5
q0 50 66 50h100l55 103l-172 334q-49 6 -49 50q0 50 66 50h90q32 0 49 -10.5t17 -39.5q0 -48 -59 -50l114 -223l120 223q-64 0 -64 50t67 50h92q32 0 49 -10.5t17 -39.5q0 -45 -52 -50l-230 -437h5q32 0 49 -10.5t17 -39.5q0 -50 -66 -50h-215h-10z" />
    <glyph glyph-name="Amacron" unicode="&#x100;" 
d="M124 657q-53 0 -53 40t53 40h244q53 0 53 -40t-53 -40h-244zM350 50q0 29 17 39.5t49 10.5h23l-23 58h-238l-23 -58h23q66 0 66 -50t-66 -50h-133q-66 0 -66 50q0 30 17.5 40t49.5 10l155 383h-63q-67 0 -67 50q0 30 17.5 40t49.5 10h216l199 -483q68 0 68 -50t-66 -50
h-139q-66 0 -66 50zM375 258l-78 192l-79 -192h157z" />
    <glyph glyph-name="amacron" unicode="&#x101;" 
d="M178 504q-53 0 -53 40t53 40h244q53 0 53 -40t-53 -40h-244zM42 119q0 68 67 118.5t175 50.5q45 0 104 -10v23q0 49 -93 49q-41 0 -93 -11.5t-63 -11.5q-21 0 -35 14.5t-14 36.5q0 32 30 42q85 30 172 30q92 0 144.5 -39t52.5 -109v-202h16q66 0 66 -50t-66 -50h-117v23
q-75 -39 -166 -39q-74 0 -127 39.5t-53 95.5zM389 135v50q-63 11 -111 11q-51 0 -90.5 -22t-39.5 -51q0 -17 22 -28t54 -11q82 0 165 51z" />
    <glyph glyph-name="Abreve" unicode="&#x102;" 
d="M105 769q15 0 22 -6.5t12 -25.5t36.5 -36t70.5 -17t70 17t37 36q6 20 12.5 26t21.5 6q34 0 34 -33q0 -46 -53.5 -83t-121.5 -37t-121.5 37.5t-53.5 83.5q0 32 34 32zM350 50q0 29 17 39.5t49 10.5h23l-23 58h-238l-23 -58h23q66 0 66 -50t-66 -50h-133q-66 0 -66 50
q0 30 17.5 40t49.5 10l155 383h-63q-67 0 -67 50q0 30 17.5 40t49.5 10h216l199 -483q68 0 68 -50t-66 -50h-139q-66 0 -66 50zM375 258l-78 192l-79 -192h157z" />
    <glyph glyph-name="abreve" unicode="&#x103;" 
d="M151 634q15 0 22 -6.5t12 -25.5t36.5 -36t70.5 -17t70 17t37 36q6 20 12.5 26t21.5 6q34 0 34 -33q0 -46 -53.5 -83t-121.5 -37t-121.5 37.5t-53.5 83.5q0 32 34 32zM42 119q0 68 67 118.5t175 50.5q45 0 104 -10v23q0 49 -93 49q-41 0 -93 -11.5t-63 -11.5
q-21 0 -35 14.5t-14 36.5q0 32 30 42q85 30 172 30q92 0 144.5 -39t52.5 -109v-202h16q66 0 66 -50t-66 -50h-117v23q-75 -39 -166 -39q-74 0 -127 39.5t-53 95.5zM389 135v50q-63 11 -111 11q-51 0 -90.5 -22t-39.5 -51q0 -17 22 -28t54 -11q82 0 165 51z" />
    <glyph glyph-name="Aogonek" unicode="&#x104;" 
d="M506 -124q15 0 38.5 12t34.5 12q16 0 27.5 -11t11.5 -27q0 -30 -39.5 -46t-79.5 -16q-44 0 -69 24t-25 65q0 36 17 58.5t62 52.5h-68q-66 0 -66 50q0 29 17 39.5t49 10.5h23l-23 58h-238l-23 -58h23q66 0 66 -50t-66 -50h-133q-66 0 -66 50q0 30 17.5 40t49.5 10l155 383
h-63q-67 0 -67 50q0 30 17.5 40t49.5 10h216l199 -483q33 0 50.5 -10.5t17.5 -39.5q0 -19 -21.5 -37.5t-48 -31.5t-48 -35.5t-21.5 -49.5q0 -20 24 -20zM375 258l-78 192l-79 -192h157z" />
    <glyph glyph-name="aogonek" unicode="&#x105;" 
d="M468 -125q15 0 38.5 12t34.5 12q16 0 27.5 -11t11.5 -27q0 -30 -39.5 -45.5t-79.5 -15.5q-44 0 -69 23.5t-25 64.5q0 36 17 59t62 53h-58v23q-75 -39 -166 -39q-74 0 -127 39.5t-53 95.5q0 68 67 118.5t175 50.5q45 0 104 -10v23q0 49 -93 49q-41 0 -93 -11.5t-63 -11.5
q-21 0 -35 14.5t-14 36.5q0 32 30 42q85 30 172 30q92 0 144.5 -39t52.5 -109v-202h16q32 0 49 -10.5t17 -39.5q0 -20 -20 -39.5t-43.5 -33t-43.5 -35.5t-20 -47q0 -20 24 -20zM389 135v50q-63 11 -111 11q-51 0 -90.5 -22t-39.5 -51q0 -17 22 -28t54 -11q82 0 165 51z" />
    <glyph glyph-name="Cacute" unicode="&#x106;" 
d="M422 728l-85 -76q-18 -16 -32 -16q-15 0 -26 11t-11 25q0 17 23 37l85 75q20 16 32 16q16 0 26.5 -10.5t10.5 -26.5q0 -15 -23 -35zM330 86q47 0 80.5 11.5t47.5 25t28.5 25t27.5 11.5q20 0 35 -15t15 -35q0 -43 -68.5 -83t-168.5 -40q-127 0 -210.5 74.5t-83.5 188.5v66
q0 120 78 201t194 81q70 0 142 -34l10 -4q17 24 42 24q29 0 39.5 -17t10.5 -49v-84q0 -66 -50 -66q-18 0 -29.5 10t-14 18.5t-5.5 24.5q-6 30 -36.5 48.5t-56.5 23.5t-48 5q-76 0 -126 -51.5t-50 -130.5v-64q0 -75 53.5 -120t143.5 -45z" />
    <glyph glyph-name="cacute" unicode="&#x107;" 
d="M404 589l-85 -76q-18 -16 -32 -16q-15 0 -26 11t-11 25q0 17 23 37l85 75q20 16 32 16q16 0 26.5 -10.5t10.5 -26.5q0 -15 -23 -35zM540 307q0 -66 -50 -66q-27 0 -37.5 15t-16.5 37t-20 32q-41 25 -106 25q-71 0 -113.5 -39.5t-42.5 -103.5q0 -123 176 -123q53 0 88 9
t47.5 19t25 19t24.5 9q20 0 35 -15t15 -36q0 -43 -66.5 -74t-175.5 -31q-62 0 -110.5 14t-77.5 36.5t-48 52.5t-26 59.5t-7 60.5q0 107 71.5 175t184.5 68q86 0 144 -30q9 30 38 30q48 0 48 -66v-77z" />
    <glyph glyph-name="Ccircumflex" unicode="&#x108;" 
d="M305 701l-113 -62q-24 -13 -28 -13q-14 0 -24.5 10.5t-10.5 24.5q0 12 4 18.5t20 16.5l152 94l160 -101q15 -12 15 -28q0 -14 -10.5 -24.5t-23.5 -10.5q-6 0 -29 13zM330 86q47 0 80.5 11.5t47.5 25t28.5 25t27.5 11.5q20 0 35 -15t15 -35q0 -43 -68.5 -83t-168.5 -40
q-127 0 -210.5 74.5t-83.5 188.5v66q0 120 78 201t194 81q70 0 142 -34l10 -4q17 24 42 24q29 0 39.5 -17t10.5 -49v-84q0 -66 -50 -66q-18 0 -29.5 10t-14 18.5t-5.5 24.5q-6 30 -36.5 48.5t-56.5 23.5t-48 5q-76 0 -126 -51.5t-50 -130.5v-64q0 -75 53.5 -120t143.5 -45z
" />
    <glyph glyph-name="ccircumflex" unicode="&#x109;" 
d="M311 569l-113 -62q-24 -13 -28 -13q-14 0 -24.5 10.5t-10.5 24.5q0 12 4 18.5t20 16.5l152 94l160 -101q15 -12 15 -28q0 -14 -10.5 -24.5t-23.5 -10.5q-6 0 -29 13zM540 307q0 -66 -50 -66q-27 0 -37.5 15t-16.5 37t-20 32q-41 25 -106 25q-71 0 -113.5 -39.5
t-42.5 -103.5q0 -123 176 -123q53 0 88 9t47.5 19t25 19t24.5 9q20 0 35 -15t15 -36q0 -43 -66.5 -74t-175.5 -31q-62 0 -110.5 14t-77.5 36.5t-48 52.5t-26 59.5t-7 60.5q0 107 71.5 175t184.5 68q86 0 144 -30q9 30 38 30q48 0 48 -66v-77z" />
    <glyph glyph-name="Cdotaccent" unicode="&#x10a;" 
d="M305 777q25 0 42.5 -17.5t17.5 -43.5q0 -24 -17.5 -41.5t-42.5 -17.5t-42.5 17.5t-17.5 42.5t17.5 42.5t42.5 17.5zM330 86q47 0 80.5 11.5t47.5 25t28.5 25t27.5 11.5q20 0 35 -15t15 -35q0 -43 -68.5 -83t-168.5 -40q-127 0 -210.5 74.5t-83.5 188.5v66q0 120 78 201
t194 81q70 0 142 -34l10 -4q17 24 42 24q29 0 39.5 -17t10.5 -49v-84q0 -66 -50 -66q-18 0 -29.5 10t-14 18.5t-5.5 24.5q-6 30 -36.5 48.5t-56.5 23.5t-48 5q-76 0 -126 -51.5t-50 -130.5v-64q0 -75 53.5 -120t143.5 -45z" />
    <glyph glyph-name="cdotaccent" unicode="&#x10b;" 
d="M321 605q25 0 42.5 -17.5t17.5 -43.5q0 -24 -17.5 -41.5t-42.5 -17.5t-42.5 17.5t-17.5 42.5t17.5 42.5t42.5 17.5zM540 307q0 -66 -50 -66q-27 0 -37.5 15t-16.5 37t-20 32q-41 25 -106 25q-71 0 -113.5 -39.5t-42.5 -103.5q0 -123 176 -123q53 0 88 9t47.5 19t25 19
t24.5 9q20 0 35 -15t15 -36q0 -43 -66.5 -74t-175.5 -31q-62 0 -110.5 14t-77.5 36.5t-48 52.5t-26 59.5t-7 60.5q0 107 71.5 175t184.5 68q86 0 144 -30q9 30 38 30q48 0 48 -66v-77z" />
    <glyph glyph-name="Ccaron" unicode="&#x10c;" 
d="M305 714l112 62q23 13 29 13q13 0 23.5 -10.5t10.5 -24.5q0 -16 -15 -28l-160 -101l-152 94q-16 10 -20 16.5t-4 18.5q0 14 10.5 24.5t24.5 10.5q4 0 28 -13zM330 95q47 0 80.5 11.5t47.5 25t28.5 25t27.5 11.5q20 0 35 -15t15 -35q0 -43 -68.5 -83t-168.5 -40
q-127 0 -210.5 74.5t-83.5 188.5v66q0 120 78 201t194 81q70 0 142 -34l10 -4q17 24 42 24q29 0 39.5 -17t10.5 -49v-84q0 -66 -50 -66q-18 0 -29.5 10t-14 18.5t-5.5 24.5q-6 30 -36.5 48.5t-56.5 23.5t-48 5q-76 0 -126 -51.5t-50 -130.5v-64q0 -75 53.5 -120t143.5 -45z
" />
    <glyph glyph-name="ccaron" unicode="&#x10d;" 
d="M319 570l112 62q23 13 29 13q13 0 23.5 -10.5t10.5 -24.5q0 -16 -15 -28l-160 -101l-152 94q-16 10 -20 16.5t-4 18.5q0 14 10.5 24.5t24.5 10.5q4 0 28 -13zM540 307q0 -66 -50 -66q-27 0 -37.5 15t-16.5 37t-20 32q-41 25 -106 25q-71 0 -113.5 -39.5t-42.5 -103.5
q0 -123 176 -123q53 0 88 9t47.5 19t25 19t24.5 9q20 0 35 -15t15 -36q0 -43 -66.5 -74t-175.5 -31q-62 0 -110.5 14t-77.5 36.5t-48 52.5t-26 59.5t-7 60.5q0 107 71.5 175t184.5 68q86 0 144 -30q9 30 38 30q48 0 48 -66v-77z" />
    <glyph glyph-name="Dcaron" unicode="&#x10e;" 
d="M246 684l112 62q23 13 29 13q13 0 23.5 -10.5t10.5 -24.5q0 -16 -15 -28l-160 -101l-152 94q-16 10 -20 16.5t-4 18.5q0 14 10.5 24.5t24.5 10.5q4 0 28 -13zM80 0q-67 0 -67 50q0 24 16 37t45 13v383q-61 0 -61 50q0 30 17.5 40t49.5 10h212q109 0 183.5 -80t74.5 -198
v-47q0 -117 -72.5 -187.5t-193.5 -70.5h-204zM450 307q0 75 -45.5 125.5t-120.5 50.5h-110v-383h111q50 0 84.5 15t51 41t23 51t6.5 54v46z" />
    <glyph glyph-name="dcaron" unicode="&#x10f;" 
d="M580 50q0 -50 -66 -50h-116v35q-72 -49 -151 -49q-112 0 -179.5 67t-67.5 166t67.5 165.5t180.5 66.5q87 0 150 -50v123h-16q-32 0 -49 10.5t-17 39.5q0 28 17 38.5t49 10.5h116v-523h16q66 0 66 -50zM398 217q0 60 -41 97t-109 37q-67 0 -107.5 -38.5t-40.5 -93.5
q0 -57 41.5 -95t107.5 -38t107.5 37.5t41.5 93.5zM674 528l-85 -76q-18 -16 -32 -16q-15 0 -26 11t-11 25q0 17 23 37l85 75q20 16 32 16q16 0 26.5 -10.5t10.5 -26.5q0 -15 -23 -35z" />
    <glyph glyph-name="Dcroat" unicode="&#x110;" 
d="M79 0q-66 0 -66 50q0 24 16 37t45 13v143h-8q-66 0 -66 50q0 30 17.5 40t49.5 10h7v140q-61 0 -61 50q0 30 17.5 40t49.5 10h212q109 0 183.5 -80t74.5 -198v-47q0 -117 -72.5 -187.5t-193.5 -70.5h-205zM248 343q32 0 49 -10.5t17 -39.5q0 -50 -66 -50h-74v-143h111
q50 0 84.5 15t51 41t23 51t6.5 54v46q0 75 -45.5 125.5t-120.5 50.5h-110v-140h74z" />
    <glyph glyph-name="dcroat" unicode="&#x111;" 
d="M349 575q0 28 17 38.5t49 10.5h116v-117h16q33 0 49.5 -10.5t16.5 -39.5q0 -50 -66 -50h-16v-307h16q66 0 66 -50t-66 -50h-116v24q-68 -40 -148 -40q-111 0 -180.5 62.5t-69.5 162.5q0 102 71.5 171.5t176.5 69.5q80 0 150 -46v121h-16q-66 0 -66 50zM282 350
q-63 0 -106 -41t-43 -102q0 -56 40.5 -89.5t108.5 -33.5t108.5 33t40.5 89q0 62 -42.5 103t-106.5 41z" />
    <glyph glyph-name="Emacron" unicode="&#x112;" 
d="M182 624q-53 0 -53 40t53 40h244q53 0 53 -40t-53 -40h-244zM500 219q50 0 50 -67v-152h-471q-66 0 -66 50t66 50h15v383h-15q-66 0 -66 50q0 29 17 39.5t49 10.5h449v-150q0 -67 -50 -67t-50 67v50h-234v-141h85v7q0 67 49 67q50 0 50 -67v-113q0 -66 -49 -66
q-50 0 -50 66v7h-85v-143h256v52q0 67 50 67z" />
    <glyph glyph-name="emacron" unicode="&#x113;" 
d="M169 510q-53 0 -53 40t53 40h244q53 0 53 -40t-53 -40h-244zM550 67q0 -32 -58 -52.5t-108.5 -25.5t-86.5 -5q-116 0 -190 65t-74 167q0 99 74.5 166.5t183.5 67.5q112 0 185.5 -68t73.5 -171v-39h-408q34 -88 164 -88q53 0 118 16.5t78 16.5q20 0 34 -14.5t14 -35.5z
M145 260h294q-12 41 -52 65.5t-95 24.5t-95.5 -25t-51.5 -65z" />
    <glyph glyph-name="Ebreve" unicode="&#x114;" 
d="M163 770q15 0 22 -6.5t12 -25.5t36.5 -36t70.5 -17t70 17t37 36q6 20 12.5 26t21.5 6q34 0 34 -33q0 -46 -53.5 -83t-121.5 -37t-121.5 37.5t-53.5 83.5q0 32 34 32zM500 219q50 0 50 -67v-152h-471q-66 0 -66 50t66 50h15v383h-15q-66 0 -66 50q0 29 17 39.5t49 10.5
h449v-150q0 -67 -50 -67t-50 67v50h-234v-141h85v7q0 67 49 67q50 0 50 -67v-113q0 -66 -49 -66q-50 0 -50 66v7h-85v-143h256v52q0 67 50 67z" />
    <glyph glyph-name="ebreve" unicode="&#x115;" 
d="M150 626q15 0 22 -6.5t12 -25.5t36.5 -36t70.5 -17t70 17t37 36q6 20 12.5 26t21.5 6q34 0 34 -33q0 -46 -53.5 -83t-121.5 -37t-121.5 37.5t-53.5 83.5q0 32 34 32zM550 67q0 -32 -58 -52.5t-108.5 -25.5t-86.5 -5q-116 0 -190 65t-74 167q0 99 74.5 166.5t183.5 67.5
q112 0 185.5 -68t73.5 -171v-39h-408q34 -88 164 -88q53 0 118 16.5t78 16.5q20 0 34 -14.5t14 -35.5zM145 260h294q-12 41 -52 65.5t-95 24.5t-95.5 -25t-51.5 -65z" />
    <glyph glyph-name="Edotaccent" unicode="&#x116;" 
d="M304 747q25 0 42.5 -17.5t17.5 -43.5q0 -24 -17.5 -41.5t-42.5 -17.5t-42.5 17.5t-17.5 42.5t17.5 42.5t42.5 17.5zM500 219q50 0 50 -67v-152h-471q-66 0 -66 50t66 50h15v383h-15q-66 0 -66 50q0 29 17 39.5t49 10.5h449v-150q0 -67 -50 -67t-50 67v50h-234v-141h85v7
q0 67 49 67q50 0 50 -67v-113q0 -66 -49 -66q-50 0 -50 66v7h-85v-143h256v52q0 67 50 67z" />
    <glyph glyph-name="edotaccent" unicode="&#x117;" 
d="M291 607q25 0 42.5 -17.5t17.5 -43.5q0 -24 -17.5 -41.5t-42.5 -17.5t-42.5 17.5t-17.5 42.5t17.5 42.5t42.5 17.5zM550 67q0 -32 -58 -52.5t-108.5 -25.5t-86.5 -5q-116 0 -190 65t-74 167q0 99 74.5 166.5t183.5 67.5q112 0 185.5 -68t73.5 -171v-39h-408
q34 -88 164 -88q53 0 118 16.5t78 16.5q20 0 34 -14.5t14 -35.5zM145 260h294q-12 41 -52 65.5t-95 24.5t-95.5 -25t-51.5 -65z" />
    <glyph glyph-name="Eogonek" unicode="&#x118;" 
d="M474 -124q16 0 39.5 12t34.5 12q16 0 27.5 -11t11.5 -27q0 -30 -40 -46t-80 -16q-44 0 -69 24t-25 65q0 36 17 58.5t62 52.5h-373q-66 0 -66 50t66 50h15v383h-15q-66 0 -66 50q0 29 17 39.5t49 10.5h449v-150q0 -67 -50 -67t-50 67v50h-234v-141h85v7q0 67 49 67
q50 0 50 -67v-113q0 -66 -49 -66q-50 0 -50 66v7h-85v-143h256v52q0 67 50 67t50 -67v-152q-58 -39 -79 -60t-21 -44q0 -20 24 -20z" />
    <glyph glyph-name="eogonek" unicode="&#x119;" 
d="M384 -124q15 0 38.5 12t34.5 12q16 0 27.5 -11t11.5 -27q0 -30 -39.5 -46t-79.5 -16q-44 0 -69 24t-25 65q0 54 58 97q-20 -2 -42 -2q-118 0 -192 64.5t-74 167.5q0 99 74.5 166.5t183.5 67.5q112 0 185.5 -68t73.5 -171v-39h-408q34 -88 164 -88q53 0 118 16.5t78 16.5
q20 0 34 -14.5t14 -35.5q0 -30 -42 -48q-148 -59 -148 -123q0 -20 24 -20zM145 260h294q-12 41 -52 65.5t-95 24.5t-95.5 -25t-51.5 -65z" />
    <glyph glyph-name="Ecaron" unicode="&#x11a;" 
d="M301 683l112 62q23 13 29 13q13 0 23.5 -10.5t10.5 -24.5q0 -16 -15 -28l-160 -101l-152 94q-16 10 -20 16.5t-4 18.5q0 14 10.5 24.5t24.5 10.5q4 0 28 -13zM500 219q50 0 50 -67v-152h-471q-66 0 -66 50t66 50h15v383h-15q-66 0 -66 50q0 29 17 39.5t49 10.5h449v-150
q0 -67 -50 -67t-50 67v50h-234v-141h85v7q0 67 49 67q50 0 50 -67v-113q0 -66 -49 -66q-50 0 -50 66v7h-85v-143h256v52q0 67 50 67z" />
    <glyph glyph-name="ecaron" unicode="&#x11b;" 
d="M299 568l112 62q23 13 29 13q13 0 23.5 -10.5t10.5 -24.5q0 -16 -15 -28l-160 -101l-152 94q-16 10 -20 16.5t-4 18.5q0 14 10.5 24.5t24.5 10.5q4 0 28 -13zM550 67q0 -32 -58 -52.5t-108.5 -25.5t-86.5 -5q-116 0 -190 65t-74 167q0 99 74.5 166.5t183.5 67.5
q112 0 185.5 -68t73.5 -171v-39h-408q34 -88 164 -88q53 0 118 16.5t78 16.5q20 0 34 -14.5t14 -35.5zM145 260h294q-12 41 -52 65.5t-95 24.5t-95.5 -25t-51.5 -65z" />
    <glyph glyph-name="Gcircumflex" unicode="&#x11c;" 
d="M313 704l-113 -62q-24 -13 -28 -13q-14 0 -24.5 10.5t-10.5 24.5q0 12 4 18.5t20 16.5l152 94l160 -101q15 -12 15 -28q0 -14 -10.5 -24.5t-23.5 -10.5q-6 0 -29 13zM525 280q67 0 67 -50q0 -38 -42 -50v-132q-67 -35 -114 -48.5t-105 -13.5q-68 0 -122 16.5t-86 42.5
t-53 61.5t-29 69.5t-8 70v71q0 117 79.5 198.5t204.5 81.5q81 0 145 -32q16 32 41 32q27 0 37 -16.5t10 -49.5v-78q0 -32 -10.5 -49t-39.5 -17q-7 0 -13.5 1.5t-10.5 4t-7.5 6.5t-6 7.5t-4.5 9t-3 8.5t-2.5 8.5t-1.5 7.5q-8 26 -43 41.5t-90 15.5q-84 0 -134.5 -49.5
t-50.5 -130.5v-64q0 -167 192 -167q69 0 125 25v69h-100q-66 0 -66 50q0 29 17 39.5t49 10.5h175z" />
    <glyph glyph-name="gcircumflex" unicode="&#x11d;" 
d="M313 552l-113 -62q-24 -13 -28 -13q-14 0 -24.5 10.5t-10.5 24.5q0 12 4 18.5t20 16.5l152 94l160 -101q15 -12 15 -28q0 -14 -10.5 -24.5t-23.5 -10.5q-6 0 -29 13zM141 -150q0 29 17 39.5t49 10.5h109q44 0 69 21t25 59v55q-66 -49 -141 -49q-101 0 -168.5 66.5
t-67.5 165.5q0 100 67.5 166.5t168.5 66.5q82 0 141 -50v36h116q66 0 66 -50t-66 -50h-16v-357q0 -79 -54.5 -129.5t-136.5 -50.5h-112q-66 0 -66 50zM271 351q-57 0 -97.5 -38.5t-40.5 -93.5t40.5 -94t97.5 -39t98 38.5t41 92.5q0 56 -40.5 95t-98.5 39z" />
    <glyph glyph-name="Gbreve" unicode="&#x11e;" 
d="M173 769q15 0 22 -6.5t12 -25.5t36.5 -36t70.5 -17t70 17t37 36q6 20 12.5 26t21.5 6q34 0 34 -33q0 -46 -53.5 -83t-121.5 -37t-121.5 37.5t-53.5 83.5q0 32 34 32zM525 280q67 0 67 -50q0 -38 -42 -50v-132q-67 -35 -114 -48.5t-105 -13.5q-68 0 -122 16.5t-86 42.5
t-53 61.5t-29 69.5t-8 70v71q0 117 79.5 198.5t204.5 81.5q81 0 145 -32q16 32 41 32q27 0 37 -16.5t10 -49.5v-78q0 -32 -10.5 -49t-39.5 -17q-7 0 -13.5 1.5t-10.5 4t-7.5 6.5t-6 7.5t-4.5 9t-3 8.5t-2.5 8.5t-1.5 7.5q-8 26 -43 41.5t-90 15.5q-84 0 -134.5 -49.5
t-50.5 -130.5v-64q0 -167 192 -167q69 0 125 25v69h-100q-66 0 -66 50q0 29 17 39.5t49 10.5h175z" />
    <glyph glyph-name="gbreve" unicode="&#x11f;" 
d="M161 625q15 0 22 -6.5t12 -25.5t36.5 -36t70.5 -17t70 17t37 36q6 20 12.5 26t21.5 6q34 0 34 -33q0 -46 -53.5 -83t-121.5 -37t-121.5 37.5t-53.5 83.5q0 32 34 32zM141 -150q0 29 17 39.5t49 10.5h109q44 0 69 21t25 59v55q-66 -49 -141 -49q-101 0 -168.5 66.5
t-67.5 165.5q0 100 67.5 166.5t168.5 66.5q82 0 141 -50v36h116q66 0 66 -50t-66 -50h-16v-357q0 -79 -54.5 -129.5t-136.5 -50.5h-112q-66 0 -66 50zM271 351q-57 0 -97.5 -38.5t-40.5 -93.5t40.5 -94t97.5 -39t98 38.5t41 92.5q0 56 -40.5 95t-98.5 39z" />
    <glyph glyph-name="Gdotaccent" unicode="&#x120;" 
d="M300 761q25 0 42.5 -17.5t17.5 -43.5q0 -24 -17.5 -41.5t-42.5 -17.5t-42.5 17.5t-17.5 42.5t17.5 42.5t42.5 17.5zM525 280q67 0 67 -50q0 -38 -42 -50v-132q-67 -35 -114 -48.5t-105 -13.5q-68 0 -122 16.5t-86 42.5t-53 61.5t-29 69.5t-8 70v71q0 117 79.5 198.5
t204.5 81.5q81 0 145 -32q16 32 41 32q27 0 37 -16.5t10 -49.5v-78q0 -32 -10.5 -49t-39.5 -17q-7 0 -13.5 1.5t-10.5 4t-7.5 6.5t-6 7.5t-4.5 9t-3 8.5t-2.5 8.5t-1.5 7.5q-8 26 -43 41.5t-90 15.5q-84 0 -134.5 -49.5t-50.5 -130.5v-64q0 -167 192 -167q69 0 125 25v69
h-100q-66 0 -66 50q0 29 17 39.5t49 10.5h175z" />
    <glyph glyph-name="gdotaccent" unicode="&#x121;" 
d="M299 607q25 0 42.5 -17.5t17.5 -43.5q0 -24 -17.5 -41.5t-42.5 -17.5t-42.5 17.5t-17.5 42.5t17.5 42.5t42.5 17.5zM141 -150q0 29 17 39.5t49 10.5h109q44 0 69 21t25 59v55q-66 -49 -141 -49q-101 0 -168.5 66.5t-67.5 165.5q0 100 67.5 166.5t168.5 66.5q82 0 141 -50
v36h116q66 0 66 -50t-66 -50h-16v-357q0 -79 -54.5 -129.5t-136.5 -50.5h-112q-66 0 -66 50zM271 351q-57 0 -97.5 -38.5t-40.5 -93.5t40.5 -94t97.5 -39t98 38.5t41 92.5q0 56 -40.5 95t-98.5 39z" />
    <glyph glyph-name="Gcedilla" unicode="&#x122;" 
d="M275 -29h118l-87 -150q-11 -20 -28 -20q-32 0 -32 34q0 7 1 10zM525 280q67 0 67 -50q0 -38 -42 -50v-132q-67 -35 -114 -48.5t-105 -13.5q-68 0 -122 16.5t-86 42.5t-53 61.5t-29 69.5t-8 70v71q0 117 79.5 198.5t204.5 81.5q81 0 145 -32q16 32 41 32q27 0 37 -16.5
t10 -49.5v-78q0 -32 -10.5 -49t-39.5 -17q-7 0 -13.5 1.5t-10.5 4t-7.5 6.5t-6 7.5t-4.5 9t-3 8.5t-2.5 8.5t-1.5 7.5q-8 26 -43 41.5t-90 15.5q-84 0 -134.5 -49.5t-50.5 -130.5v-64q0 -167 192 -167q69 0 125 25v69h-100q-66 0 -66 50q0 29 17 39.5t49 10.5h175z" />
    <glyph glyph-name="gcommaaccent" unicode="&#x123;" 
d="M233 568l85 76q18 16 32 16q15 0 26 -11t11 -25q0 -17 -23 -37l-85 -75q-20 -16 -32 -16q-16 0 -26.5 10.5t-10.5 26.5q0 15 23 35zM141 -150q0 29 17 39.5t49 10.5h109q44 0 69 21t25 59v55q-66 -49 -141 -49q-101 0 -168.5 66.5t-67.5 165.5q0 100 67.5 166.5
t168.5 66.5q82 0 141 -50v36h116q66 0 66 -50t-66 -50h-16v-357q0 -79 -54.5 -129.5t-136.5 -50.5h-112q-66 0 -66 50zM271 351q-57 0 -97.5 -38.5t-40.5 -93.5t40.5 -94t97.5 -39t98 38.5t41 92.5q0 56 -40.5 95t-98.5 39z" />
    <glyph glyph-name="Hcircumflex" unicode="&#x124;" 
d="M303 700l-113 -62q-24 -13 -28 -13q-14 0 -24.5 10.5t-10.5 24.5q0 12 4 18.5t20 16.5l152 94l160 -101q15 -12 15 -28q0 -14 -10.5 -24.5t-23.5 -10.5q-6 0 -29 13zM328 50q0 50 66 50h15v141h-214v-141h15q66 0 66 -50t-66 -50h-121q-66 0 -66 50q0 29 17 39.5t49 10.5
h6v383q-52 5 -52 50q0 29 17 39.5t49 10.5h101q66 0 66 -50t-66 -50h-15v-142h214v142h-15q-66 0 -66 50q0 29 17 39.5t49 10.5h101q66 0 66 -50q0 -45 -52 -50v-383h6q66 0 66 -50t-66 -50h-121q-66 0 -66 50z" />
    <glyph glyph-name="hcircumflex" unicode="&#x125;" 
d="M328 711l-113 -62q-24 -13 -28 -13q-14 0 -24.5 10.5t-10.5 24.5q0 12 4 18.5t20 16.5l152 94l160 -101q15 -12 15 -28q0 -14 -10.5 -24.5t-23.5 -10.5q-6 0 -29 13zM13 573q0 50 66 50h116v-234q60 61 137 61q80 0 128.5 -45.5t48.5 -120.5v-184h6q66 0 66 -50t-66 -50
h-112q-67 0 -67 50t67 50h6v171q0 38 -17.5 58.5t-70.5 20.5q-35 0 -59 -13t-67 -54v-183h6q67 0 67 -50t-67 -50h-112q-66 0 -66 50t66 50h6v423h-16q-32 0 -49 10.5t-17 39.5z" />
    <glyph glyph-name="Hbar" unicode="&#x126;" 
d="M576 390q0 -50 -67 -50v-240h6q66 0 66 -50t-66 -50h-121q-66 0 -66 50t66 50h15v141h-214v-141h15q66 0 66 -50t-66 -50h-121q-66 0 -66 50q0 29 17 39.5t49 10.5h6v240q-65 0 -65 50t65 50v43q-52 5 -52 50q0 29 17 39.5t49 10.5h101q66 0 66 -50t-66 -50h-15v-142h214
v142h-15q-66 0 -66 50q0 29 17 39.5t49 10.5h101q66 0 66 -50q0 -45 -52 -50v-43q32 0 49.5 -10t17.5 -40z" />
    <glyph glyph-name="hbar" unicode="&#x127;" 
d="M13 574q0 50 66 50h228q66 0 66 -50t-66 -50h-112v-135q60 61 137 61q80 0 128.5 -45.5t48.5 -120.5v-184h6q66 0 66 -50t-66 -50h-112q-67 0 -67 50t67 50h6v171q0 38 -17.5 58.5t-70.5 20.5q-35 0 -59 -13t-67 -54v-183h6q67 0 67 -50t-67 -50h-112q-66 0 -66 50t66 50
h6v424h-16q-32 0 -49 10.5t-17 39.5z" />
    <glyph glyph-name="Itilde" unicode="&#x128;" 
d="M373 701q17 0 40 24t40 24q13 0 22.5 -8.5t9.5 -19.5q0 -21 -33.5 -55t-75.5 -34q-28 0 -81 24t-68 24q-21 0 -43 -22.5t-38 -22.5q-13 0 -22 9t-9 21q0 23 33 53.5t77 30.5q28 0 80.5 -24t67.5 -24zM451 100q32 0 49 -10.5t17 -39.5q0 -50 -66 -50h-302q-66 0 -66 50
q0 29 17 39.5t49 10.5h101v383h-101q-66 0 -66 50q0 29 17 39.5t49 10.5h302q32 0 49 -10.5t17 -39.5q0 -50 -66 -50h-101v-383h101z" />
    <glyph glyph-name="itilde" unicode="&#x129;" 
d="M373 587q17 0 40 24t40 24q13 0 22.5 -8.5t9.5 -19.5q0 -21 -33.5 -55t-75.5 -34q-28 0 -81 24t-68 24q-21 0 -43 -22.5t-38 -22.5q-13 0 -22 9t-9 21q0 23 33 53.5t77 30.5q28 0 80.5 -24t67.5 -24zM105 387q0 30 17.5 40t49.5 10h178v-337h122q66 0 66 -50t-66 -50
h-344q-66 0 -66 50q0 29 17 39.5t49 10.5h122v237h-78q-67 0 -67 50z" />
    <glyph glyph-name="Imacron" unicode="&#x12a;" 
d="M178 643q-53 0 -53 40t53 40h244q53 0 53 -40t-53 -40h-244zM451 100q32 0 49 -10.5t17 -39.5q0 -50 -66 -50h-302q-66 0 -66 50q0 29 17 39.5t49 10.5h101v383h-101q-66 0 -66 50q0 29 17 39.5t49 10.5h302q32 0 49 -10.5t17 -39.5q0 -50 -66 -50h-101v-383h101z" />
    <glyph glyph-name="imacron" unicode="&#x12b;" 
d="M178 506q-53 0 -53 40t53 40h244q53 0 53 -40t-53 -40h-244zM105 387q0 30 17.5 40t49.5 10h178v-337h122q66 0 66 -50t-66 -50h-344q-66 0 -66 50q0 29 17 39.5t49 10.5h122v237h-78q-67 0 -67 50z" />
    <glyph glyph-name="Ibreve" unicode="&#x12c;" 
d="M159 769q15 0 22 -6.5t12 -25.5t36.5 -36t70.5 -17t70 17t37 36q6 20 12.5 26t21.5 6q34 0 34 -33q0 -46 -53.5 -83t-121.5 -37t-121.5 37.5t-53.5 83.5q0 32 34 32zM451 100q32 0 49 -10.5t17 -39.5q0 -50 -66 -50h-302q-66 0 -66 50q0 29 17 39.5t49 10.5h101v383h-101
q-66 0 -66 50q0 29 17 39.5t49 10.5h302q32 0 49 -10.5t17 -39.5q0 -50 -66 -50h-101v-383h101z" />
    <glyph glyph-name="ibreve" unicode="&#x12d;" 
d="M159 623q15 0 22 -6.5t12 -25.5t36.5 -36t70.5 -17t70 17t37 36q6 20 12.5 26t21.5 6q34 0 34 -33q0 -46 -53.5 -83t-121.5 -37t-121.5 37.5t-53.5 83.5q0 32 34 32zM105 387q0 30 17.5 40t49.5 10h178v-337h122q66 0 66 -50t-66 -50h-344q-66 0 -66 50q0 29 17 39.5
t49 10.5h122v237h-78q-67 0 -67 50z" />
    <glyph glyph-name="Iogonek" unicode="&#x12e;" 
d="M404 -124q15 0 38.5 12t34.5 12q16 0 27.5 -11t11.5 -27q0 -30 -39.5 -46t-79.5 -16q-44 0 -69 24t-25 65q0 36 16.5 59t62.5 52h-233q-66 0 -66 50q0 29 17 39.5t49 10.5h101v383h-101q-66 0 -66 50q0 29 17 39.5t49 10.5h302q32 0 49 -10.5t17 -39.5q0 -50 -66 -50
h-101v-383h101q32 0 49 -10.5t17 -39.5q0 -19 -21.5 -37.5t-47 -32t-47 -36t-21.5 -48.5q0 -20 24 -20z" />
    <glyph glyph-name="iogonek" unicode="&#x12f;" 
d="M428 -124q15 0 38.5 12t34.5 12q16 0 27.5 -11t11.5 -27q0 -30 -39.5 -46t-79.5 -16q-44 0 -69 24t-25 65q0 36 17 58.5t62 52.5h-278q-66 0 -66 50q0 29 17 39.5t49 10.5h122v237h-78q-67 0 -67 50q0 30 17.5 40t49.5 10h178v-337h122q66 0 66 -50q0 -19 -21 -37.5
t-46 -31.5t-46 -35.5t-21 -49.5q0 -20 24 -20zM336 623v-105h-118v105h118z" />
    <glyph glyph-name="Idotaccent" unicode="&#x130;" 
d="M300 777q25 0 42.5 -17.5t17.5 -43.5q0 -24 -17.5 -41.5t-42.5 -17.5t-42.5 17.5t-17.5 42.5t17.5 42.5t42.5 17.5zM451 100q32 0 49 -10.5t17 -39.5q0 -50 -66 -50h-302q-66 0 -66 50q0 29 17 39.5t49 10.5h101v383h-101q-66 0 -66 50q0 29 17 39.5t49 10.5h302
q32 0 49 -10.5t17 -39.5q0 -50 -66 -50h-101v-383h101z" />
    <glyph glyph-name="dotlessi" unicode="&#x131;" 
d="M105 387q0 30 17.5 40t49.5 10h178v-337h122q66 0 66 -50t-66 -50h-344q-66 0 -66 50q0 29 17 39.5t49 10.5h122v237h-78q-67 0 -67 50z" />
    <glyph glyph-name="IJ" unicode="&#x132;" 
d="M237 533q0 -50 -66 -50h-11v-383h11q20 0 33 -4v117q0 67 50 67q30 0 40 -17.5t10 -49.5v-96q19 -19 34.5 -25t42.5 -6q37 0 58 28.5t21 83.5v285h-69q-66 0 -66 50q0 29 17 39.5t49 10.5h176q66 0 66 -50t-66 -50h-7v-296q0 -91 -50.5 -146t-130.5 -55q-70 0 -145 46
q-11 -32 -63 -32h-122q-66 0 -66 50q0 29 17 39.5t49 10.5h11v383h-11q-66 0 -66 50q0 29 17 39.5t49 10.5h122q32 0 49 -10.5t17 -39.5z" />
    <glyph glyph-name="ij" unicode="&#x133;" 
d="M408 50q0 -50 -66 -50h-264q-66 0 -66 50q0 29 17 39.5t49 10.5h82v237h-58q-67 0 -67 50q0 30 17.5 40t49.5 10h158v-337h82q66 0 66 -50zM246 623v-105h-118v105h118zM197 -150q0 29 17.5 39.5t48.5 10.5h111q44 0 69 21t25 59v357h-92q-66 0 -66 50q0 29 17 39.5
t49 10.5h192v-457q0 -78 -54.5 -129t-136.5 -51h-114q-66 0 -66 50zM510 623v-105h-119v105h119z" />
    <glyph glyph-name="Jcircumflex" unicode="&#x134;" 
d="M409 701l-113 -62q-24 -13 -28 -13q-14 0 -24.5 10.5t-10.5 24.5q0 12 4 18.5t20 16.5l152 94l160 -101q15 -12 15 -28q0 -14 -10.5 -24.5t-23.5 -10.5q-6 0 -29 13zM613 533q0 -50 -66 -50h-57v-296q0 -90 -63.5 -145.5t-157.5 -55.5q-84 0 -215 65v162q0 67 50 67
q30 0 40 -17.5t10 -49.5v-96q69 -31 117 -31q57 0 95 36q16 16 20 29t4 47v285h-119q-66 0 -66 50q0 29 17 39.5t49 10.5h276q66 0 66 -50z" />
    <glyph glyph-name="jcircumflex" unicode="&#x135;" 
d="M117 -150q0 29 17.5 39.5t48.5 10.5h111q43 0 68.5 23t25.5 62v352h-202q-66 0 -66 50q0 29 17 39.5t49 10.5h302v-452q0 -79 -54.5 -132t-136.5 -53h-114q-66 0 -66 50zM319 555l-113 -62q-24 -13 -28 -13q-14 0 -24.5 10.5t-10.5 24.5q0 12 4 18.5t20 16.5l152 94
l160 -101q15 -12 15 -28q0 -14 -10.5 -24.5t-23.5 -10.5q-6 0 -29 13z" />
    <glyph glyph-name="Kcommaaccent" unicode="&#x136;" 
d="M241 -27h118l-87 -150q-11 -20 -28 -20q-32 0 -32 34q0 7 1 10zM295 533q0 -50 -66 -50h-35v-149l178 153q-31 12 -31 45q0 51 66 51h100q66 0 66 -50t-62 -50l-176 -153q97 -51 169 -230h32q66 0 66 -50t-66 -50h-110q-35 107 -80.5 176t-91.5 83l-60 -51v-108h35
q66 0 66 -50t-66 -50h-150q-66 0 -66 50t66 50h15v383h-15q-66 0 -66 50q0 29 17 39.5t49 10.5h150q66 0 66 -50z" />
    <glyph glyph-name="kcommaaccent" unicode="&#x137;" 
d="M221 -29h118l-87 -150q-11 -20 -28 -20q-32 0 -32 34q0 7 1 10zM571 50q0 -50 -67 -50h-118q-66 0 -66 50q0 20 16 37l-103 91l-18 -14v-164h-116q-66 0 -66 50q0 29 17 39.5t49 10.5h16v423h-16q-32 0 -49 10.5t-17 39.5q0 50 66 50h116v-336l79 63q-16 19 -16 37
q0 50 67 50h112q33 0 49.5 -11t16.5 -39q0 -50 -66 -50h-28l-118 -96l160 -141h33q67 0 67 -50z" />
    <glyph glyph-name="kgreenlandic" unicode="&#x138;" 
d="M548 50q0 -50 -68 -50h-118q-66 0 -66 50q0 20 16 37l-78 77v-164h-116q-66 0 -66 50t66 50h16v237h-16q-32 0 -49 10.5t-17 39.5q0 50 66 50h116v-150l80 63q-16 19 -16 37q0 50 66 50h112q32 0 49 -10.5t17 -39.5q0 -50 -66 -50h-28l-136 -110l136 -127h32q68 0 68 -50
z" />
    <glyph glyph-name="Lacute" unicode="&#x139;" 
d="M323 728l-85 -76q-18 -16 -32 -16q-15 0 -26 11t-11 25q0 17 23 37l85 75q20 16 32 16q16 0 26.5 -10.5t10.5 -26.5q0 -15 -23 -35zM521 259q29 0 39.5 -17t10.5 -50v-192h-472q-66 0 -66 50q0 29 17 39.5t49 10.5h57v383h-57q-66 0 -66 50q0 29 17 39.5t49 10.5h214
q66 0 66 -50t-66 -50h-57v-383h215v92q0 67 50 67z" />
    <glyph glyph-name="lacute" unicode="&#x13a;" 
d="M417 728l-85 -76q-18 -16 -32 -16q-15 0 -26 11t-11 25q0 17 23 37l85 75q20 16 32 16q16 0 26.5 -10.5t10.5 -26.5q0 -15 -23 -35zM105 573q0 29 17 39.5t50 10.5h178v-523h122q66 0 66 -50t-66 -50h-344q-66 0 -66 50q0 29 17 39.5t49 10.5h122v423h-78q-67 0 -67 50z
" />
    <glyph glyph-name="Lcommaaccent" unicode="&#x13b;" 
d="M263 -29h118l-87 -150q-11 -20 -28 -20q-32 0 -32 34q0 7 1 10zM521 259q29 0 39.5 -17t10.5 -50v-192h-472q-66 0 -66 50q0 29 17 39.5t49 10.5h57v383h-57q-66 0 -66 50q0 29 17 39.5t49 10.5h214q66 0 66 -50t-66 -50h-57v-383h215v92q0 67 50 67z" />
    <glyph glyph-name="lcommaaccent" unicode="&#x13c;" 
d="M241 -30h118l-87 -150q-11 -20 -28 -20q-32 0 -32 34q0 7 1 10zM105 573q0 29 17 39.5t50 10.5h178v-523h122q66 0 66 -50t-66 -50h-344q-66 0 -66 50q0 29 17 39.5t49 10.5h122v423h-78q-67 0 -67 50z" />
    <glyph glyph-name="Lcaron" unicode="&#x13d;" 
d="M550 528l-85 -76q-18 -16 -32 -16q-15 0 -26 11t-11 25q0 17 23 37l85 75q20 16 32 16q16 0 26.5 -10.5t10.5 -26.5q0 -15 -23 -35zM521 259q29 0 39.5 -17t10.5 -50v-192h-472q-66 0 -66 50q0 29 17 39.5t49 10.5h57v383h-57q-66 0 -66 50q0 29 17 39.5t49 10.5h214
q66 0 66 -50t-66 -50h-57v-383h215v92q0 67 50 67z" />
    <glyph glyph-name="lcaron" unicode="&#x13e;" 
d="M550 528l-85 -76q-18 -16 -32 -16q-15 0 -26 11t-11 25q0 17 23 37l85 75q20 16 32 16q16 0 26.5 -10.5t10.5 -26.5q0 -15 -23 -35zM105 573q0 29 17 39.5t50 10.5h178v-523h122q66 0 66 -50t-66 -50h-344q-66 0 -66 50q0 29 17 39.5t49 10.5h122v423h-78q-67 0 -67 50z
" />
    <glyph glyph-name="Ldot" unicode="&#x13f;" 
d="M438 442q25 0 42.5 -17.5t17.5 -43.5q0 -24 -17.5 -41.5t-42.5 -17.5t-42.5 17.5t-17.5 42.5t17.5 42.5t42.5 17.5zM521 259q29 0 39.5 -17t10.5 -50v-192h-472q-66 0 -66 50q0 29 17 39.5t49 10.5h57v383h-57q-66 0 -66 50q0 29 17 39.5t49 10.5h214q66 0 66 -50
t-66 -50h-57v-383h215v92q0 67 50 67z" />
    <glyph glyph-name="ldot" unicode="&#x140;" 
d="M506 442q25 0 42.5 -17.5t17.5 -43.5q0 -24 -17.5 -41.5t-42.5 -17.5t-42.5 17.5t-17.5 42.5t17.5 42.5t42.5 17.5zM105 573q0 29 17 39.5t50 10.5h178v-523h122q66 0 66 -50t-66 -50h-344q-66 0 -66 50q0 29 17 39.5t49 10.5h122v423h-78q-67 0 -67 50z" />
    <glyph glyph-name="Lslash" unicode="&#x141;" 
d="M379 533q0 -50 -66 -50h-57v-124l88 52q26 15 41 15q19 0 33 -15t14 -35q0 -17 -8 -27t-31 -24l-137 -81v-144h215v91q0 33 10.5 50t39.5 17q50 0 50 -67v-191h-472q-66 0 -66 50q0 29 17 39.5t49 10.5h57v103l-54 -32q-24 -15 -42 -15q-19 0 -33.5 15.5t-14.5 35.5
q0 17 8 27.5t32 23.5l104 60v165h-57q-32 0 -49 10.5t-17 39.5t17 39.5t49 10.5h214q66 0 66 -50z" />
    <glyph glyph-name="lslash" unicode="&#x142;" 
d="M108 574q0 30 17.5 40t49.5 10h175v-225q59 36 75 36q20 0 34.5 -15.5t14.5 -36.5q0 -16 -8.5 -27.5t-30.5 -23.5l-85 -49v-183h122q32 0 49 -10.5t17 -39.5q0 -50 -66 -50h-344q-66 0 -66 50t66 50h122v143q-59 -34 -74 -34q-19 0 -34 15.5t-15 35.5q0 17 8.5 28
t31.5 24l83 47v165h-75q-67 0 -67 50z" />
    <glyph glyph-name="Nacute" unicode="&#x143;" 
d="M409 719l-85 -76q-18 -16 -32 -16q-15 0 -26 11t-11 25q0 17 23 37l85 75q20 16 32 16q16 0 26.5 -10.5t10.5 -26.5q0 -15 -23 -35zM526 583q66 0 66 -50t-61 -50v-483h-99l-259 394v-294h35q32 0 49 -10.5t17 -39.5q0 -50 -66 -50h-129q-67 0 -67 50t61 50v383h-15
q-66 0 -66 50q0 29 17 39.5t49 10.5h115l258 -392v292h-35q-66 0 -66 50q0 29 17 39.5t49 10.5h130z" />
    <glyph glyph-name="nacute" unicode="&#x144;" 
d="M414 602l-85 -76q-18 -16 -32 -16q-15 0 -26 11t-11 25q0 17 23 37l85 75q20 16 32 16q16 0 26.5 -10.5t10.5 -26.5q0 -15 -23 -35zM23 50q0 50 66 50h6v237q-61 2 -61 50q0 50 67 50h94v-48q36 34 66 47.5t71 13.5q78 0 128 -44t50 -124v-182q61 0 61 -50t-66 -50h-89
q-67 0 -67 50t61 50v178q0 72 -90 72q-35 0 -62.5 -15t-62.5 -53v-182h6q66 0 66 -50t-66 -50h-112q-66 0 -66 50z" />
    <glyph glyph-name="Ncommaaccent" unicode="&#x145;" 
d="M245 -29h118l-87 -150q-11 -20 -28 -20q-32 0 -32 34q0 7 1 10zM526 583q66 0 66 -50t-61 -50v-483h-99l-259 394v-294h35q32 0 49 -10.5t17 -39.5q0 -50 -66 -50h-129q-67 0 -67 50t61 50v383h-15q-66 0 -66 50q0 29 17 39.5t49 10.5h115l258 -392v292h-35q-66 0 -66 50
q0 29 17 39.5t49 10.5h130z" />
    <glyph glyph-name="ncommaaccent" unicode="&#x146;" 
d="M251 -30h118l-87 -150q-11 -20 -28 -20q-32 0 -32 34q0 7 1 10zM23 50q0 50 66 50h6v237q-61 2 -61 50q0 50 67 50h94v-48q36 34 66 47.5t71 13.5q78 0 128 -44t50 -124v-182q61 0 61 -50t-66 -50h-89q-67 0 -67 50t61 50v178q0 72 -90 72q-35 0 -62.5 -15t-62.5 -53
v-182h6q66 0 66 -50t-66 -50h-112q-66 0 -66 50z" />
    <glyph glyph-name="Ncaron" unicode="&#x147;" 
d="M293 684l112 62q23 13 29 13q13 0 23.5 -10.5t10.5 -24.5q0 -16 -15 -28l-160 -101l-152 94q-16 10 -20 16.5t-4 18.5q0 14 10.5 24.5t24.5 10.5q4 0 28 -13zM526 583q66 0 66 -50t-61 -50v-483h-99l-259 394v-294h35q32 0 49 -10.5t17 -39.5q0 -50 -66 -50h-129
q-67 0 -67 50t61 50v383h-15q-66 0 -66 50q0 29 17 39.5t49 10.5h115l258 -392v292h-35q-66 0 -66 50q0 29 17 39.5t49 10.5h130z" />
    <glyph glyph-name="ncaron" unicode="&#x148;" 
d="M297 575l112 62q23 13 29 13q13 0 23.5 -10.5t10.5 -24.5q0 -16 -15 -28l-160 -101l-152 94q-16 10 -20 16.5t-4 18.5q0 14 10.5 24.5t24.5 10.5q4 0 28 -13zM23 50q0 50 66 50h6v237q-61 2 -61 50q0 50 67 50h94v-48q36 34 66 47.5t71 13.5q78 0 128 -44t50 -124v-182
q61 0 61 -50t-66 -50h-89q-67 0 -67 50t61 50v178q0 72 -90 72q-35 0 -62.5 -15t-62.5 -53v-182h6q66 0 66 -50t-66 -50h-112q-66 0 -66 50z" />
    <glyph glyph-name="napostrophe" unicode="&#x149;" 
d="M154 588l-85 -76q-18 -16 -32 -16q-15 0 -26 11t-11 25q0 17 23 37l85 75q20 16 32 16q16 0 26.5 -10.5t10.5 -26.5q0 -15 -23 -35zM23 50q0 50 66 50h6v237q-61 2 -61 50q0 50 67 50h94v-48q36 34 66 47.5t71 13.5q78 0 128 -44t50 -124v-182q61 0 61 -50t-66 -50h-89
q-67 0 -67 50t61 50v178q0 72 -90 72q-35 0 -62.5 -15t-62.5 -53v-182h6q66 0 66 -50t-66 -50h-112q-66 0 -66 50z" />
    <glyph glyph-name="Eng" unicode="&#x14a;" 
d="M466 264q0 273 -136 273q-72 0 -135 -68v-369q39 0 55.5 -9.5t16.5 -40.5q0 -50 -66 -50h-112q-66 0 -66 50t72 50v424q-61 2 -61 50q0 50 67 50h94v-48q64 61 147 61q31 0 59 -7.5t59.5 -31.5t53.5 -63t37 -107.5t15 -159.5q0 -120 -14 -201t-40.5 -120.5t-55 -54.5
t-65.5 -15q-58 0 -90 17t-32 47q0 20 14.5 35t33.5 15q4 0 27 -7t44 -7q35 0 56.5 80t21.5 207z" />
    <glyph glyph-name="eng" unicode="&#x14b;" 
d="M23 50q0 50 66 50h6v237q-61 2 -61 50q0 50 67 50h94v-48q36 34 66 47.5t71 13.5q78 0 128 -44t50 -124v-296q0 -80 -50 -133t-125 -53q-58 0 -90 17t-32 47q0 20 14.5 35t33.5 15q4 0 27 -7t44 -7q35 0 56.5 23.5t21.5 62.5v292q0 72 -90 72q-35 0 -62.5 -15t-62.5 -53
v-182h6q66 0 66 -50t-66 -50h-112q-66 0 -66 50z" />
    <glyph glyph-name="Omacron" unicode="&#x14c;" 
d="M178 657q-53 0 -53 40t53 40h244q53 0 53 -40t-53 -40h-244zM300 597q22 0 52 -6.5t71.5 -27.5t75 -53t57 -90.5t23.5 -132.5q0 -123 -82.5 -212t-196.5 -89q-116 0 -197.5 89.5t-81.5 216.5q0 126 82 215.5t197 89.5zM300 497q-73 0 -126 -60.5t-53 -144.5
q0 -85 52.5 -145.5t126.5 -60.5q73 0 126 60t53 143q0 86 -52.5 147t-126.5 61z" />
    <glyph glyph-name="omacron" unicode="&#x14d;" 
d="M181 506q-53 0 -53 40t53 40h244q53 0 53 -40t-53 -40h-244zM303 450q106 0 180.5 -68t74.5 -165q0 -98 -75 -165.5t-183 -67.5t-183 67.5t-75 165.5q0 99 75 166t186 67zM302 350q-68 0 -114 -38t-46 -95q0 -56 45.5 -94.5t112.5 -38.5t112.5 38.5t45.5 94.5t-45.5 94.5
t-110.5 38.5z" />
    <glyph glyph-name="Obreve" unicode="&#x14e;" 
d="M159 776q15 0 22 -6.5t12 -25.5t36.5 -36t70.5 -17t70 17t37 36q6 20 12.5 26t21.5 6q34 0 34 -33q0 -46 -53.5 -83t-121.5 -37t-121.5 37.5t-53.5 83.5q0 32 34 32zM300 597q22 0 52 -6.5t71.5 -27.5t75 -53t57 -90.5t23.5 -132.5q0 -123 -82.5 -212t-196.5 -89
q-116 0 -197.5 89.5t-81.5 216.5q0 126 82 215.5t197 89.5zM300 497q-73 0 -126 -60.5t-53 -144.5q0 -85 52.5 -145.5t126.5 -60.5q73 0 126 60t53 143q0 86 -52.5 147t-126.5 61z" />
    <glyph glyph-name="obreve" unicode="&#x14f;" 
d="M162 623q15 0 22 -6.5t12 -25.5t36.5 -36t70.5 -17t70 17t37 36q6 20 12.5 26t21.5 6q34 0 34 -33q0 -46 -53.5 -83t-121.5 -37t-121.5 37.5t-53.5 83.5q0 32 34 32zM303 450q106 0 180.5 -68t74.5 -165q0 -98 -75 -165.5t-183 -67.5t-183 67.5t-75 165.5q0 99 75 166
t186 67zM302 350q-68 0 -114 -38t-46 -95q0 -56 45.5 -94.5t112.5 -38.5t112.5 38.5t45.5 94.5t-45.5 94.5t-110.5 38.5z" />
    <glyph glyph-name="Ohungarumlaut" unicode="&#x150;" 
d="M510 720l-85 -76q-18 -16 -32 -16q-15 0 -26 11t-11 25q0 17 23 37l85 75q20 16 32 16q16 0 26.5 -10.5t10.5 -26.5q0 -15 -23 -35zM337 720l-85 -76q-18 -16 -32 -16q-15 0 -26 11t-11 25q0 17 23 37l85 75q20 16 32 16q16 0 26.5 -10.5t10.5 -26.5q0 -15 -23 -35z
M300 597q22 0 52 -6.5t71.5 -27.5t75 -53t57 -90.5t23.5 -132.5q0 -123 -82.5 -212t-196.5 -89q-116 0 -197.5 89.5t-81.5 216.5q0 126 82 215.5t197 89.5zM300 497q-73 0 -126 -60.5t-53 -144.5q0 -85 52.5 -145.5t126.5 -60.5q73 0 126 60t53 143q0 86 -52.5 147
t-126.5 61z" />
    <glyph glyph-name="ohungarumlaut" unicode="&#x151;" 
d="M513 602l-85 -76q-18 -16 -32 -16q-15 0 -26 11t-11 25q0 17 23 37l85 75q20 16 32 16q16 0 26.5 -10.5t10.5 -26.5q0 -15 -23 -35zM340 602l-85 -76q-18 -16 -32 -16q-15 0 -26 11t-11 25q0 17 23 37l85 75q20 16 32 16q16 0 26.5 -10.5t10.5 -26.5q0 -15 -23 -35z
M303 450q106 0 180.5 -68t74.5 -165q0 -98 -75 -165.5t-183 -67.5t-183 67.5t-75 165.5q0 99 75 166t186 67zM302 350q-68 0 -114 -38t-46 -95q0 -56 45.5 -94.5t112.5 -38.5t112.5 38.5t45.5 94.5t-45.5 94.5t-110.5 38.5z" />
    <glyph glyph-name="OE" unicode="&#x152;" 
d="M484 253q0 -66 -50 -66q-22 0 -35 15t-14 41h-19v-143h147v22q0 66 50 66q29 0 39 -17t10 -49v-122h-353q-122 0 -200.5 82.5t-78.5 209.5t78.5 209t200.5 82h334v-165q0 -66 -50 -66t-50 66v65h-127v-141h19q3 55 49 55q29 0 39.5 -17t10.5 -49v-78zM266 483
q-54 -1 -93 -21t-58 -51t-27 -60.5t-8 -59.5q0 -24 5.5 -49t19.5 -51t34 -46t53 -32.5t74 -12.5v383z" />
    <glyph glyph-name="oe" unicode="&#x153;" 
d="M436 450q74 0 125 -64.5t51 -169.5v-45h-252q20 -87 84 -87q29 0 69.5 16.5t50.5 16.5q20 0 34.5 -15t14.5 -37q0 -24 -22 -41.5t-54.5 -25t-57.5 -11t-41 -3.5q-83 0 -135 74q-54 -74 -132 -74q-76 0 -129 66.5t-53 161.5q0 100 52.5 169t128.5 69q77 0 133 -80
q53 80 133 80zM172 349q-34 0 -58.5 -39t-24.5 -94q0 -54 24.5 -93t58.5 -39q35 0 59.5 38.5t24.5 92.5q0 56 -24.5 95t-59.5 39zM363 257h141q-18 92 -70 92q-21 0 -36.5 -16t-22 -32.5t-12.5 -43.5z" />
    <glyph glyph-name="Racute" unicode="&#x154;" 
d="M322 728l-85 -76q-18 -16 -32 -16q-15 0 -26 11t-11 25q0 17 23 37l85 75q20 16 32 16q16 0 26.5 -10.5t10.5 -26.5q0 -15 -23 -35zM619 50q0 -50 -66 -50h-79q-37 72 -94.5 141.5t-89.5 80.5h-96v-122h35q66 0 66 -50t-66 -50h-150q-66 0 -66 50t66 50h15v383h-15
q-66 0 -66 50q0 29 17 39.5t49 10.5h223q97 0 158.5 -49.5t61.5 -128.5q0 -92 -108 -151q65 -57 126 -154h13q66 0 66 -50zM194 322h76q63 0 104.5 24.5t41.5 61.5q0 32 -31 53.5t-79 21.5h-112v-161z" />
    <glyph glyph-name="racute" unicode="&#x155;" 
d="M430 602l-85 -76q-18 -16 -32 -16q-15 0 -26 11t-11 25q0 17 23 37l85 75q20 16 32 16q16 0 26.5 -10.5t10.5 -26.5q0 -15 -23 -35zM445 449q42 0 84 -26t42 -59q0 -21 -15 -36t-35 -15q-17 0 -39 18t-39 18q-24 0 -58.5 -21.5t-106.5 -80.5v-147h139q67 0 67 -50
t-67 -50h-297q-66 0 -66 50q0 29 17 39.5t49 10.5h58v237h-35q-66 0 -66 50t66 50h135v-65q60 45 95 61t72 16z" />
    <glyph glyph-name="Rcommaaccent" unicode="&#x156;" 
d="M226 -29h118l-87 -150q-11 -20 -28 -20q-32 0 -32 34q0 7 1 10zM619 50q0 -50 -66 -50h-79q-37 72 -94.5 141.5t-89.5 80.5h-96v-122h35q66 0 66 -50t-66 -50h-150q-66 0 -66 50t66 50h15v383h-15q-66 0 -66 50q0 29 17 39.5t49 10.5h223q97 0 158.5 -49.5t61.5 -128.5
q0 -92 -108 -151q65 -57 126 -154h13q66 0 66 -50zM194 322h76q63 0 104.5 24.5t41.5 61.5q0 32 -31 53.5t-79 21.5h-112v-161z" />
    <glyph glyph-name="rcommaaccent" unicode="&#x157;" 
d="M220 -21h118l-87 -150q-11 -20 -28 -20q-32 0 -32 34q0 7 1 10zM445 449q42 0 84 -26t42 -59q0 -21 -15 -36t-35 -15q-17 0 -39 18t-39 18q-24 0 -58.5 -21.5t-106.5 -80.5v-147h139q67 0 67 -50t-67 -50h-297q-66 0 -66 50q0 29 17 39.5t49 10.5h58v237h-35
q-66 0 -66 50t66 50h135v-65q60 45 95 61t72 16z" />
    <glyph glyph-name="Rcaron" unicode="&#x158;" 
d="M299 684l112 62q23 13 29 13q13 0 23.5 -10.5t10.5 -24.5q0 -16 -15 -28l-160 -101l-152 94q-16 10 -20 16.5t-4 18.5q0 14 10.5 24.5t24.5 10.5q4 0 28 -13zM619 50q0 -50 -66 -50h-79q-37 72 -94.5 141.5t-89.5 80.5h-96v-122h35q66 0 66 -50t-66 -50h-150
q-66 0 -66 50t66 50h15v383h-15q-66 0 -66 50q0 29 17 39.5t49 10.5h223q97 0 158.5 -49.5t61.5 -128.5q0 -92 -108 -151q65 -57 126 -154h13q66 0 66 -50zM194 322h76q63 0 104.5 24.5t41.5 61.5q0 32 -31 53.5t-79 21.5h-112v-161z" />
    <glyph glyph-name="rcaron" unicode="&#x159;" 
d="M322 577l112 62q23 13 29 13q13 0 23.5 -10.5t10.5 -24.5q0 -16 -15 -28l-160 -101l-152 94q-16 10 -20 16.5t-4 18.5q0 14 10.5 24.5t24.5 10.5q4 0 28 -13zM445 449q42 0 84 -26t42 -59q0 -21 -15 -36t-35 -15q-17 0 -39 18t-39 18q-24 0 -58.5 -21.5t-106.5 -80.5
v-147h139q67 0 67 -50t-67 -50h-297q-66 0 -66 50q0 29 17 39.5t49 10.5h58v237h-35q-66 0 -66 50t66 50h135v-65q60 45 95 61t72 16z" />
    <glyph glyph-name="Sacute" unicode="&#x15a;" 
d="M402 728l-85 -76q-18 -16 -32 -16q-15 0 -26 11t-11 25q0 17 23 37l85 75q20 16 32 16q16 0 26.5 -10.5t10.5 -26.5q0 -15 -23 -35zM468 597q30 0 39.5 -17t9.5 -49v-88q0 -67 -49 -67q-8 0 -14.5 1.5t-11 4t-8.5 7t-6 7.5t-4 9t-2.5 8.5t-2 9t-1.5 7.5q-7 30 -39.5 48.5
t-79.5 18.5t-80 -22t-33 -54q0 -34 33 -52.5t77 -24t98 -20t85 -39.5q59 -47 59 -125t-63 -126t-166 -48q-83 0 -156 39q-20 -24 -40 -24q-51 0 -51 66v66q0 33 11 49.5t39 16.5q9 0 16.5 -2t12.5 -6t8.5 -7.5t6 -9.5t3.5 -9t2.5 -8t1.5 -6q7 -27 48 -46t91 -19q56 0 94 22
t38 54q0 30 -29.5 48t-68 24t-90 18t-82.5 29q-38 22 -60 59t-22 80q0 76 62 126.5t155 50.5q77 0 130 -33q8 19 16 26t23 7z" />
    <glyph glyph-name="sacute" unicode="&#x15b;" 
d="M402 588l-85 -76q-18 -16 -32 -16q-15 0 -26 11t-11 25q0 17 23 37l85 75q20 16 32 16q16 0 26.5 -10.5t10.5 -26.5q0 -15 -23 -35zM506 347q0 -32 -10.5 -49t-39.5 -17q-18 0 -30 11t-19.5 23.5t-34 23.5t-71.5 11q-38 0 -68.5 -10.5t-30.5 -24.5q0 -20 44 -28.5
t110 -18.5t101 -30q33 -18 51.5 -48t18.5 -65q0 -61 -63 -101t-160 -40q-87 0 -148 29q-15 -12 -32 -12q-51 0 -51 66v33q0 67 51 67q38 0 51 -44q43 -39 125 -39q48 0 82.5 13t34.5 30q0 39 -126 52q-105 11 -152 43t-47 91q0 60 58 98.5t148 38.5q73 0 129 -26
q11 26 32 26q47 0 47 -66v-37z" />
    <glyph glyph-name="Scircumflex" unicode="&#x15c;" 
d="M282 701l-113 -62q-24 -13 -28 -13q-14 0 -24.5 10.5t-10.5 24.5q0 12 4 18.5t20 16.5l152 94l160 -101q15 -12 15 -28q0 -14 -10.5 -24.5t-23.5 -10.5q-6 0 -29 13zM468 597q30 0 39.5 -17t9.5 -49v-88q0 -67 -49 -67q-8 0 -14.5 1.5t-11 4t-8.5 7t-6 7.5t-4 9t-2.5 8.5
t-2 9t-1.5 7.5q-7 30 -39.5 48.5t-79.5 18.5t-80 -22t-33 -54q0 -34 33 -52.5t77 -24t98 -20t85 -39.5q59 -47 59 -125t-63 -126t-166 -48q-83 0 -156 39q-20 -24 -40 -24q-51 0 -51 66v66q0 33 11 49.5t39 16.5q9 0 16.5 -2t12.5 -6t8.5 -7.5t6 -9.5t3.5 -9t2.5 -8t1.5 -6
q7 -27 48 -46t91 -19q56 0 94 22t38 54q0 30 -29.5 48t-68 24t-90 18t-82.5 29q-38 22 -60 59t-22 80q0 76 62 126.5t155 50.5q77 0 130 -33q8 19 16 26t23 7z" />
    <glyph glyph-name="scircumflex" unicode="&#x15d;" 
d="M299 554l-113 -62q-24 -13 -28 -13q-14 0 -24.5 10.5t-10.5 24.5q0 12 4 18.5t20 16.5l152 94l160 -101q15 -12 15 -28q0 -14 -10.5 -24.5t-23.5 -10.5q-6 0 -29 13zM506 347q0 -32 -10.5 -49t-39.5 -17q-18 0 -30 11t-19.5 23.5t-34 23.5t-71.5 11q-38 0 -68.5 -10.5
t-30.5 -24.5q0 -20 44 -28.5t110 -18.5t101 -30q33 -18 51.5 -48t18.5 -65q0 -61 -63 -101t-160 -40q-87 0 -148 29q-15 -12 -32 -12q-51 0 -51 66v33q0 67 51 67q38 0 51 -44q43 -39 125 -39q48 0 82.5 13t34.5 30q0 39 -126 52q-105 11 -152 43t-47 91q0 60 58 98.5
t148 38.5q73 0 129 -26q11 26 32 26q47 0 47 -66v-37z" />
    <glyph glyph-name="Scedilla" unicode="&#x15e;" 
d="M517 443q0 -67 -50 -67q-8 0 -14.5 2t-11 4t-8.5 6.5t-6 7.5t-4 9t-2.5 8.5t-2 9t-1.5 7.5q-6 30 -39 48.5t-80 18.5t-80 -22t-33 -54t33.5 -51t77.5 -25t98.5 -21t84.5 -39q59 -47 59 -125q0 -74 -55 -120t-151 -53q75 -15 75 -90q0 -43 -30.5 -70t-77.5 -27
q-36 0 -77.5 17t-41.5 46q0 14 10.5 24.5t24.5 10.5q7 0 35.5 -14t50.5 -14q36 0 36 25q0 34 -53 34q-10 0 -22 -2v62q-54 7 -109 36q-20 -24 -41 -24q-50 0 -50 66v66q0 33 11 49.5t39 16.5q14 0 23.5 -3.5t15 -14.5t6.5 -13.5t5 -16.5q8 -27 49 -46t90 -19q56 0 94.5 22
t38.5 54q0 30 -29.5 48t-68 24t-90 18t-82.5 29q-38 22 -60 59t-22 80q0 76 62 126.5t154 50.5q78 0 131 -33q8 19 16 26t23 7q30 0 39.5 -17t9.5 -49v-88z" />
    <glyph glyph-name="scedilla" unicode="&#x15f;" 
d="M506 347q0 -32 -10.5 -49t-39.5 -17q-18 0 -28 8t-24 32q-41 29 -103 29q-38 0 -68.5 -10.5t-30.5 -24.5q0 -19 44 -28t110 -19t101 -30q70 -40 70 -113q0 -56 -53 -94t-142 -45q75 -15 75 -89q0 -43 -30 -70t-77 -27q-37 0 -78.5 17t-41.5 46q0 14 10.5 24.5t24.5 10.5
q7 0 35.5 -14t50.5 -14q36 0 36 25q0 34 -53 34q-10 0 -22 -2v59q-64 6 -106 27q-16 -12 -32 -12q-51 0 -51 66v33q0 67 50 67q39 0 51 -44q45 -39 126 -39q48 0 82.5 13t34.5 30q0 40 -127 52q-104 11 -151 43t-47 91q0 60 58 98.5t148 38.5q72 0 128 -26q12 26 33 26
q47 0 47 -66v-37z" />
    <glyph glyph-name="Scaron" unicode="&#x160;" 
d="M314 718l112 62q23 13 29 13q13 0 23.5 -10.5t10.5 -24.5q0 -16 -15 -28l-160 -101l-152 94q-16 10 -20 16.5t-4 18.5q0 14 10.5 24.5t24.5 10.5q4 0 28 -13zM468 597q30 0 39.5 -17t9.5 -49v-88q0 -67 -49 -67q-8 0 -14.5 1.5t-11 4t-8.5 7t-6 7.5t-4 9t-2.5 8.5t-2 9
t-1.5 7.5q-7 30 -39.5 48.5t-79.5 18.5t-80 -22t-33 -54q0 -34 33 -52.5t77 -24t98 -20t85 -39.5q59 -47 59 -125t-63 -126t-166 -48q-83 0 -156 39q-20 -24 -40 -24q-51 0 -51 66v66q0 33 11 49.5t39 16.5q9 0 16.5 -2t12.5 -6t8.5 -7.5t6 -9.5t3.5 -9t2.5 -8t1.5 -6
q7 -27 48 -46t91 -19q56 0 94 22t38 54q0 30 -29.5 48t-68 24t-90 18t-82.5 29q-38 22 -60 59t-22 80q0 76 62 126.5t155 50.5q77 0 130 -33q8 19 16 26t23 7z" />
    <glyph glyph-name="scaron" unicode="&#x161;" 
d="M310 558l112 62q23 13 29 13q13 0 23.5 -10.5t10.5 -24.5q0 -16 -15 -28l-160 -101l-152 94q-16 10 -20 16.5t-4 18.5q0 14 10.5 24.5t24.5 10.5q4 0 28 -13zM506 347q0 -32 -10.5 -49t-39.5 -17q-18 0 -30 11t-19.5 23.5t-34 23.5t-71.5 11q-38 0 -68.5 -10.5
t-30.5 -24.5q0 -20 44 -28.5t110 -18.5t101 -30q33 -18 51.5 -48t18.5 -65q0 -61 -63 -101t-160 -40q-87 0 -148 29q-15 -12 -32 -12q-51 0 -51 66v33q0 67 51 67q38 0 51 -44q43 -39 125 -39q48 0 82.5 13t34.5 30q0 39 -126 52q-105 11 -152 43t-47 91q0 60 58 98.5
t148 38.5q73 0 129 -26q11 26 32 26q47 0 47 -66v-37z" />
    <glyph glyph-name="uni0162" unicode="&#x162;" 
d="M221 -102q7 0 35 -14t51 -14q36 0 36 25q0 34 -53 34q-9 0 -22 -2v73h-84q-66 0 -66 50q0 29 17 39.5t49 10.5h65v383h-107v-93q0 -66 -50 -66t-50 66v193h516v-193q0 -32 -10.5 -49t-39.5 -17q-50 0 -50 66v93h-109v-383h66q66 0 66 -50t-66 -50h-77v-12q75 -16 75 -91
q0 -43 -30 -70t-77 -27q-37 0 -78.5 17t-41.5 46q0 14 10.5 24.5t24.5 10.5z" />
    <glyph glyph-name="uni0163" unicode="&#x163;" 
d="M193 -102q7 0 35 -14t51 -14q36 0 36 25q0 34 -53 34q-9 0 -22 -2v62q-60 12 -93 46.5t-33 86.5v215h-35q-66 0 -66 50q0 29 17 39.5t49 10.5h35v88q0 66 50 66q29 0 39.5 -17t10.5 -49v-88h181q32 0 49 -10.5t17 -39.5q0 -50 -66 -50h-181v-196q0 -31 17 -44t69 -13
q39 0 71.5 7t49 15.5t33 15.5t27.5 7q20 0 34 -15t14 -36q0 -27 -39.5 -48.5t-87.5 -32t-92 -11.5q39 -9 57 -30t18 -59q0 -43 -30 -70t-77 -27q-37 0 -78.5 17t-41.5 46q0 14 10.5 24.5t24.5 10.5z" />
    <glyph glyph-name="Tcaron" unicode="&#x164;" 
d="M301 694l112 62q23 13 29 13q13 0 23.5 -10.5t10.5 -24.5q0 -16 -15 -28l-160 -101l-152 94q-16 10 -20 16.5t-4 18.5q0 14 10.5 24.5t24.5 10.5q4 0 28 -13zM481 50q0 -50 -66 -50h-231q-66 0 -66 50q0 29 17 39.5t49 10.5h65v383h-107v-93q0 -66 -50 -66t-50 66v193
h516v-193q0 -32 -10.5 -49t-39.5 -17q-50 0 -50 66v93h-109v-383h66q66 0 66 -50z" />
    <glyph glyph-name="tcaron" unicode="&#x165;" 
d="M568 568l-85 -76q-18 -16 -32 -16q-15 0 -26 11t-11 25q0 17 23 37l85 75q20 16 32 16q16 0 26.5 -10.5t10.5 -26.5q0 -15 -23 -35zM214 141q0 -31 17 -44t69 -13q39 0 71.5 7t49 15.5t33 15.5t27.5 7q20 0 34 -15t14 -36q0 -28 -42.5 -50.5t-94 -33t-93.5 -10.5
q-85 0 -135 37t-50 101v215h-35q-66 0 -66 50q0 29 17 39.5t49 10.5h35v88q0 66 50 66q29 0 39.5 -17t10.5 -49v-88h181q32 0 49 -10.5t17 -39.5q0 -50 -66 -50h-181v-196z" />
    <glyph glyph-name="Tbar" unicode="&#x166;" 
d="M508 324q-50 0 -50 66v93h-109v-206h66q32 0 49 -10.5t17 -39.5q0 -50 -66 -50h-66v-77h66q66 0 66 -50t-66 -50h-231q-66 0 -66 50q0 29 17 39.5t49 10.5h65v77h-65q-66 0 -66 50q0 29 17 39.5t49 10.5h65v206h-107v-93q0 -66 -50 -66t-50 66v193h516v-193
q0 -32 -10.5 -49t-39.5 -17z" />
    <glyph glyph-name="tbar" unicode="&#x167;" 
d="M461 387q0 -50 -66 -50h-181v-60h36q32 0 49 -10.5t17 -39.5q0 -50 -66 -50h-36v-36q0 -31 17 -44t69 -13q39 0 71.5 7t49 15.5t33 15.5t27.5 7q20 0 34 -15t14 -36q0 -28 -42.5 -50.5t-94 -33t-93.5 -10.5q-85 0 -135 37t-50 101v55h-35q-66 0 -66 50q0 29 17 39.5
t49 10.5h35v60h-35q-66 0 -66 50q0 29 17 39.5t49 10.5h35v88q0 66 50 66q29 0 39.5 -17t10.5 -49v-88h181q32 0 49 -10.5t17 -39.5z" />
    <glyph glyph-name="Utilde" unicode="&#x168;" 
d="M373 679q17 0 40 24t40 24q13 0 22.5 -8.5t9.5 -19.5q0 -21 -33.5 -55t-75.5 -34q-28 0 -81 24t-68 24q-21 0 -43 -22.5t-38 -22.5q-13 0 -22 9t-9 21q0 23 33 53.5t77 30.5q28 0 80.5 -24t67.5 -24zM529 205q0 -97 -68 -158t-161 -61t-161 62t-68 157v278q-61 2 -61 50
q0 29 17 39.5t49 10.5h130q32 0 49 -10t17 -40q0 -50 -66 -50h-35v-287q0 -46 38 -78t91 -32t91 32t38 78v287h-35q-66 0 -66 50q0 29 17 39.5t49 10.5h130q33 0 49.5 -10.5t16.5 -39.5q0 -50 -61 -50v-278z" />
    <glyph glyph-name="utilde" unicode="&#x169;" 
d="M367 549q17 0 40 24t40 24q13 0 22.5 -8.5t9.5 -19.5q0 -21 -33.5 -55t-75.5 -34q-28 0 -81 24t-68 24q-21 0 -43 -22.5t-38 -22.5q-13 0 -22 9t-9 21q0 23 33 53.5t77 30.5q28 0 80.5 -24t67.5 -24zM365 337q-30 0 -43 15.5t-13 34.5q0 50 66 50h135v-337q61 0 61 -50
t-66 -50h-95v48q-37 -35 -66.5 -48t-70.5 -13q-79 0 -128.5 44.5t-49.5 124.5v181h-27q-25 0 -40 14t-15 36q0 29 17 39.5t49 10.5h116v-278q0 -72 88 -72q38 0 63 13.5t64 54.5v182h-35h-10z" />
    <glyph glyph-name="Umacron" unicode="&#x16a;" 
d="M178 657q-53 0 -53 40t53 40h244q53 0 53 -40t-53 -40h-244zM529 205q0 -97 -68 -158t-161 -61t-161 62t-68 157v278q-61 2 -61 50q0 29 17 39.5t49 10.5h130q32 0 49 -10t17 -40q0 -50 -66 -50h-35v-287q0 -46 38 -78t91 -32t91 32t38 78v287h-35q-66 0 -66 50
q0 29 17 39.5t49 10.5h130q33 0 49.5 -10.5t16.5 -39.5q0 -50 -61 -50v-278z" />
    <glyph glyph-name="umacron" unicode="&#x16b;" 
d="M172 510q-53 0 -53 40t53 40h244q53 0 53 -40t-53 -40h-244zM365 337q-30 0 -43 15.5t-13 34.5q0 50 66 50h135v-337q61 0 61 -50t-66 -50h-95v48q-37 -35 -66.5 -48t-70.5 -13q-79 0 -128.5 44.5t-49.5 124.5v181h-27q-25 0 -40 14t-15 36q0 29 17 39.5t49 10.5h116
v-278q0 -72 88 -72q38 0 63 13.5t64 54.5v182h-35h-10z" />
    <glyph glyph-name="Ubreve" unicode="&#x16c;" 
d="M159 770q15 0 22 -6.5t12 -25.5t36.5 -36t70.5 -17t70 17t37 36q6 20 12.5 26t21.5 6q34 0 34 -33q0 -46 -53.5 -83t-121.5 -37t-121.5 37.5t-53.5 83.5q0 32 34 32zM529 205q0 -97 -68 -158t-161 -61t-161 62t-68 157v278q-61 2 -61 50q0 29 17 39.5t49 10.5h130
q32 0 49 -10t17 -40q0 -50 -66 -50h-35v-287q0 -46 38 -78t91 -32t91 32t38 78v287h-35q-66 0 -66 50q0 29 17 39.5t49 10.5h130q33 0 49.5 -10.5t16.5 -39.5q0 -50 -61 -50v-278z" />
    <glyph glyph-name="ubreve" unicode="&#x16d;" 
d="M153 663q15 0 22 -6.5t12 -25.5t36.5 -36t70.5 -17t70 17t37 36q6 20 12.5 26t21.5 6q34 0 34 -33q0 -46 -53.5 -83t-121.5 -37t-121.5 37.5t-53.5 83.5q0 32 34 32zM365 337q-30 0 -43 15.5t-13 34.5q0 50 66 50h135v-337q61 0 61 -50t-66 -50h-95v48q-37 -35 -66.5 -48
t-70.5 -13q-79 0 -128.5 44.5t-49.5 124.5v181h-27q-25 0 -40 14t-15 36q0 29 17 39.5t49 10.5h116v-278q0 -72 88 -72q38 0 63 13.5t64 54.5v182h-35h-10z" />
    <glyph glyph-name="Uring" unicode="&#x16e;" 
d="M300 800q39 0 66 -26.5t27 -65.5q0 -36 -27.5 -62.5t-65.5 -26.5t-65.5 27t-27.5 64t27.5 63.5t65.5 26.5zM300 738q-12 0 -21 -8.5t-9 -19.5q0 -12 9 -20.5t21 -8.5t21 8.5t9 19.5q0 12 -9 20.5t-21 8.5zM529 205q0 -97 -68 -158t-161 -61t-161 62t-68 157v278
q-61 2 -61 50q0 29 17 39.5t49 10.5h130q32 0 49 -10t17 -40q0 -50 -66 -50h-35v-287q0 -46 38 -78t91 -32t91 32t38 78v287h-35q-66 0 -66 50q0 29 17 39.5t49 10.5h130q33 0 49.5 -10.5t16.5 -39.5q0 -50 -61 -50v-278z" />
    <glyph glyph-name="uring" unicode="&#x16f;" 
d="M298 676q39 0 66 -26.5t27 -65.5q0 -36 -27.5 -62.5t-65.5 -26.5t-65.5 27t-27.5 64t27.5 63.5t65.5 26.5zM298 614q-12 0 -21 -8.5t-9 -19.5q0 -12 9 -20.5t21 -8.5t21 8.5t9 19.5q0 12 -9 20.5t-21 8.5zM365 337q-30 0 -43 15.5t-13 34.5q0 50 66 50h135v-337
q61 0 61 -50t-66 -50h-95v48q-37 -35 -66.5 -48t-70.5 -13q-79 0 -128.5 44.5t-49.5 124.5v181h-27q-25 0 -40 14t-15 36q0 29 17 39.5t49 10.5h116v-278q0 -72 88 -72q38 0 63 13.5t64 54.5v182h-35h-10z" />
    <glyph glyph-name="Uhungarumlaut" unicode="&#x170;" 
d="M507 717l-85 -76q-18 -16 -32 -16q-15 0 -26 11t-11 25q0 17 23 37l85 75q20 16 32 16q16 0 26.5 -10.5t10.5 -26.5q0 -15 -23 -35zM334 717l-85 -76q-18 -16 -32 -16q-15 0 -26 11t-11 25q0 17 23 37l85 75q20 16 32 16q16 0 26.5 -10.5t10.5 -26.5q0 -15 -23 -35z
M529 205q0 -97 -68 -158t-161 -61t-161 62t-68 157v278q-61 2 -61 50q0 29 17 39.5t49 10.5h130q32 0 49 -10t17 -40q0 -50 -66 -50h-35v-287q0 -46 38 -78t91 -32t91 32t38 78v287h-35q-66 0 -66 50q0 29 17 39.5t49 10.5h130q33 0 49.5 -10.5t16.5 -39.5q0 -50 -61 -50
v-278z" />
    <glyph glyph-name="uhungarumlaut" unicode="&#x171;" 
d="M504 592l-85 -76q-18 -16 -32 -16q-15 0 -26 11t-11 25q0 17 23 37l85 75q20 16 32 16q16 0 26.5 -10.5t10.5 -26.5q0 -15 -23 -35zM331 592l-85 -76q-18 -16 -32 -16q-15 0 -26 11t-11 25q0 17 23 37l85 75q20 16 32 16q16 0 26.5 -10.5t10.5 -26.5q0 -15 -23 -35z
M365 337q-30 0 -43 15.5t-13 34.5q0 50 66 50h135v-337q61 0 61 -50t-66 -50h-95v48q-37 -35 -66.5 -48t-70.5 -13q-79 0 -128.5 44.5t-49.5 124.5v181h-27q-25 0 -40 14t-15 36q0 29 17 39.5t49 10.5h116v-278q0 -72 88 -72q38 0 63 13.5t64 54.5v182h-35h-10z" />
    <glyph glyph-name="Uogonek" unicode="&#x172;" 
d="M379 -124q15 0 38.5 12t34.5 12q16 0 27 -11t11 -27q0 -30 -41.5 -46t-77.5 -16q-44 0 -69 24t-25 65q0 31 12 50t49 50q-23 -4 -38 -4q-24 0 -57.5 9.5t-74.5 31t-69 68.5t-28 111v278q-61 2 -61 50q0 29 17 39.5t49 10.5h130q32 0 49 -10t17 -40q0 -50 -66 -50h-35
v-287q0 -46 38 -78.5t91 -32.5t91 32.5t38 78.5v287h-35q-66 0 -66 50q0 29 17 39.5t49 10.5h130q33 0 49.5 -10.5t16.5 -39.5q0 -50 -61 -50v-278q0 -49 -18 -88t-43.5 -64.5t-51 -48t-43.5 -50t-18 -59.5q0 -19 24 -19z" />
    <glyph glyph-name="uogonek" unicode="&#x173;" 
d="M458 -124q15 0 38.5 12t34.5 12q16 0 27.5 -11t11.5 -27q0 -30 -39.5 -46t-79.5 -16q-44 0 -69 24t-25 65q0 36 17 58.5t62 52.5h-26v48q-37 -35 -66.5 -48t-70.5 -13q-79 0 -128.5 44.5t-49.5 124.5v182h-16l-11 -1h-4q-21 0 -36 14.5t-15 35.5q0 29 17 39.5t49 10.5
h116v-278q0 -72 88 -72q38 0 63 13.5t64 54.5v182h-35q-66 0 -66 50t66 50h135v-337q61 0 61 -50q0 -17 -7.5 -27t-29.5 -22q-42 -23 -71 -52.5t-29 -52.5q0 -20 24 -20z" />
    <glyph glyph-name="Wcircumflex" unicode="&#x174;" 
d="M301 704l-113 -62q-24 -13 -28 -13q-14 0 -24.5 10.5t-10.5 24.5q0 12 4 18.5t20 16.5l152 94l160 -101q15 -12 15 -28q0 -14 -10.5 -24.5t-23.5 -10.5q-6 0 -29 13zM544 583q66 0 66 -50q0 -42 -47 -50l-60 -483h-110l-93 277l-91 -277h-111l-62 483q-46 6 -46 48
q0 30 16.5 41t49.5 11h131q67 0 67 -50t-67 -50h-48l36 -272l76 226h104l76 -226l35 272h-53q-66 0 -66 50q0 29 17 39.5t49 10.5h131z" />
    <glyph glyph-name="wcircumflex" unicode="&#x175;" 
d="M301 553l-113 -62q-24 -13 -28 -13q-14 0 -24.5 10.5t-10.5 24.5q0 12 4 18.5t20 16.5l152 94l160 -101q15 -12 15 -28q0 -14 -10.5 -24.5t-23.5 -10.5q-6 0 -29 13zM441 338q-66 0 -66 49q0 50 66 50h93q66 0 66 -50q0 -46 -52 -49l-84 -338h-92l-71 181l-68 -181h-94
l-85 338q-26 2 -40 14.5t-14 34.5q0 50 66 50h92q32 0 49 -10.5t17 -39.5q0 -49 -64 -49l39 -153l60 158h88l61 -158l40 153h-7z" />
    <glyph glyph-name="Ycircumflex" unicode="&#x176;" 
d="M301 699l-113 -62q-24 -13 -28 -13q-14 0 -24.5 10.5t-10.5 24.5q0 12 4 18.5t20 16.5l152 94l160 -101q15 -12 15 -28q0 -14 -10.5 -24.5t-23.5 -10.5q-6 0 -29 13zM118 50q0 30 17.5 40t49.5 10h65v145l-165 238q-64 0 -64 50t67 50h89q66 0 66 -50q0 -33 -38 -49
l95 -136l94 136q-40 15 -40 49q0 30 17.5 40t49.5 10h92q32 0 49 -10.5t17 -39.5q0 -50 -65 -50l-164 -238v-145h65q67 0 67 -50t-67 -50h-230q-67 0 -67 50z" />
    <glyph glyph-name="ycircumflex" unicode="&#x177;" 
d="M301 556l-113 -62q-24 -13 -28 -13q-14 0 -24.5 10.5t-10.5 24.5q0 12 4 18.5t20 16.5l152 94l160 -101q15 -12 15 -28q0 -14 -10.5 -24.5t-23.5 -10.5q-6 0 -29 13zM77 -200q-30 0 -43 15.5t-13 34.5q0 50 66 50h100l55 103l-172 334q-49 6 -49 50q0 50 66 50h90
q32 0 49 -10.5t17 -39.5q0 -48 -59 -50l114 -223l120 223q-64 0 -64 50t67 50h92q32 0 49 -10.5t17 -39.5q0 -45 -52 -50l-230 -437h5q32 0 49 -10.5t17 -39.5q0 -50 -66 -50h-215h-10z" />
    <glyph glyph-name="Ydieresis" unicode="&#x178;" 
d="M196 746q25 0 42.5 -17.5t17.5 -43.5q0 -24 -17.5 -41.5t-42.5 -17.5t-42.5 17.5t-17.5 42.5t17.5 42.5t42.5 17.5zM404 746q25 0 42.5 -17.5t17.5 -43.5q0 -24 -17.5 -41.5t-42.5 -17.5t-42.5 17.5t-17.5 42.5t17.5 42.5t42.5 17.5zM118 50q0 30 17.5 40t49.5 10h65v145
l-165 238q-64 0 -64 50t67 50h89q66 0 66 -50q0 -33 -38 -49l95 -136l94 136q-40 15 -40 49q0 30 17.5 40t49.5 10h92q32 0 49 -10.5t17 -39.5q0 -50 -65 -50l-164 -238v-145h65q67 0 67 -50t-67 -50h-230q-67 0 -67 50z" />
    <glyph glyph-name="Zacute" unicode="&#x179;" 
d="M402 728l-85 -76q-18 -16 -32 -16q-15 0 -26 11t-11 25q0 17 23 37l85 75q20 16 32 16q16 0 26.5 -10.5t10.5 -26.5q0 -15 -23 -35zM146 347q-50 0 -50 66v170h408v-97l-303 -386h226v72q0 32 10.5 49t39.5 17t39.5 -17t10.5 -49v-172h-454v100l302 383h-179v-70
q0 -66 -50 -66z" />
    <glyph glyph-name="zacute" unicode="&#x17a;" 
d="M404 590l-85 -76q-18 -16 -32 -16q-15 0 -26 11t-11 25q0 17 23 37l85 75q20 16 32 16q16 0 26.5 -10.5t10.5 -26.5q0 -15 -23 -35zM147 262q-50 0 -50 66v109h409v-81l-262 -256h175q3 54 50 54q29 0 39.5 -17t10.5 -49v-88h-434v83l261 254h-149v-9q0 -66 -50 -66z" />
    <glyph glyph-name="Zdotaccent" unicode="&#x17b;" 
d="M299 766q25 0 42.5 -17.5t17.5 -43.5q0 -24 -17.5 -41.5t-42.5 -17.5t-42.5 17.5t-17.5 42.5t17.5 42.5t42.5 17.5zM146 347q-50 0 -50 66v170h408v-97l-303 -386h226v72q0 32 10.5 49t39.5 17t39.5 -17t10.5 -49v-172h-454v100l302 383h-179v-70q0 -66 -50 -66z" />
    <glyph glyph-name="zdotaccent" unicode="&#x17c;" 
d="M302 606q25 0 42.5 -17.5t17.5 -43.5q0 -24 -17.5 -41.5t-42.5 -17.5t-42.5 17.5t-17.5 42.5t17.5 42.5t42.5 17.5zM147 262q-50 0 -50 66v109h409v-81l-262 -256h175q3 54 50 54q29 0 39.5 -17t10.5 -49v-88h-434v83l261 254h-149v-9q0 -66 -50 -66z" />
    <glyph glyph-name="Zcaron" unicode="&#x17d;" 
d="M301 694l112 62q23 13 29 13q13 0 23.5 -10.5t10.5 -24.5q0 -16 -15 -28l-160 -101l-152 94q-16 10 -20 16.5t-4 18.5q0 14 10.5 24.5t24.5 10.5q4 0 28 -13zM146 347q-50 0 -50 66v170h408v-97l-303 -386h226v72q0 32 10.5 49t39.5 17t39.5 -17t10.5 -49v-172h-454v100
l302 383h-179v-70q0 -66 -50 -66z" />
    <glyph glyph-name="zcaron" unicode="&#x17e;" 
d="M302 551l112 62q23 13 29 13q13 0 23.5 -10.5t10.5 -24.5q0 -16 -15 -28l-160 -101l-152 94q-16 10 -20 16.5t-4 18.5q0 14 10.5 24.5t24.5 10.5q4 0 28 -13zM147 262q-50 0 -50 66v109h409v-81l-262 -256h175q3 54 50 54q29 0 39.5 -17t10.5 -49v-88h-434v83l261 254
h-149v-9q0 -66 -50 -66z" />
    <glyph glyph-name="longs" unicode="&#x17f;" 
d="M524 509q-5 0 -54.5 7t-86.5 7q-84 0 -84 -49v-374h139q66 0 66 -50t-66 -50h-297q-66 0 -66 50q0 29 17 39.5t49 10.5h58v237h-47q-66 0 -66 50q0 30 17.5 40t49.5 10h46v37q0 69 52 109t141 40q179 0 179 -63q0 -22 -13.5 -36.5t-33.5 -14.5z" />
    <glyph glyph-name="uni0180" unicode="&#x180;" 
d="M323 351q-68 0 -108.5 -37.5t-40.5 -93.5q0 -59 41.5 -96.5t107.5 -37.5q65 0 106.5 37.5t41.5 95.5q0 56 -41 94t-107 38zM-8 574q0 50 66 50h215q33 0 49.5 -10.5t16.5 -39.5q0 -50 -66 -50h-99v-123q63 50 150 50q113 0 180 -66.5t67 -166.5t-68 -166t-178 -66
q-80 0 -151 49v-35h-116q-66 0 -66 50q0 29 17 39.5t49 10.5h16v424h-16q-32 0 -49 10.5t-17 39.5z" />
    <glyph glyph-name="uni0181" unicode="&#x181;" 
d="M194 342h113q54 0 87.5 21.5t33.5 55.5q0 30 -27 47t-74 17h-133v-141zM471 154q0 40 -39 64t-103 24h-135v-142h175q102 0 102 54zM13 50q0 50 66 50h15v383h-15q-45 0 -45 -9q0 -4 14.5 -19t14.5 -35q0 -22 -15.5 -36.5t-36.5 -14.5q-25 0 -51 31.5t-26 73.5
q0 58 42 83.5t103 25.5h253q85 0 140.5 -47t55.5 -118q0 -64 -63 -113q106 -53 106 -145q0 -72 -54 -116t-143 -44h-295q-66 0 -66 50z" />
    <glyph glyph-name="uni0182" unicode="&#x182;" 
d="M508 366q-50 0 -50 66v51h-256v-141h179q100 0 149 -47t49 -119q0 -86 -46.5 -131t-150.5 -45h-295q-66 0 -66 50t66 50h15v383h-15q-66 0 -66 50q0 29 17.5 39.5t48.5 10.5h471v-151q0 -66 -50 -66zM475 171q0 71 -104 71h-169v-142h171q102 0 102 71z" />
    <glyph glyph-name="uni0183" unicode="&#x183;" 
d="M323 351q-68 0 -108.5 -37.5t-40.5 -93.5q0 -59 41.5 -96.5t107.5 -37.5q65 0 106.5 37.5t41.5 95.5q0 56 -41 94t-107 38zM-8 574q0 50 66 50h415q33 0 49.5 -10.5t16.5 -39.5q0 -50 -66 -50h-299v-123q63 50 150 50q113 0 180 -66.5t67 -166.5t-68 -166t-178 -66
q-80 0 -151 49v-35h-116q-66 0 -66 50q0 29 17 39.5t49 10.5h16v424h-16q-32 0 -49 10.5t-17 39.5z" />
    <glyph glyph-name="uni0184" unicode="&#x184;" 
d="M107 563q5 52 45 52q16 0 29.5 -9.5t15.5 -32.5l36 25q17 10 31 10q19 0 31.5 -13t12.5 -32q0 -1 -0.5 -5.5t-1 -6t-1.5 -5.5t-3 -6.5t-4.5 -5.5t-7 -6.5t-10.5 -6.5l-82 -58v-100h122q71 0 123.5 -17.5t79.5 -46t39 -59t12 -62.5q0 -74 -56 -126t-134 -52h-306
q-28 0 -40 14t-12 32v4q1 5 1.5 7t2.5 7t4 8t6 7t9 6.5t12.5 4t16.5 1.5h29v309l-11 -7q-17 -11 -31 -11q-19 0 -31.5 15t-12.5 31q0 1 0.5 5.5t1 6t1.5 5.5t3 6.5t4.5 5.5t7 6.5t10.5 6.5l58 40v53zM483 178q0 37 -36 65.5t-125 28.5h-124v-181h183q44 0 73 26t29 61z" />
    <glyph glyph-name="uni0185" unicode="&#x185;" 
d="M82 563q5 52 45 52q16 0 29.5 -10t16.5 -33l40 28q17 10 31 10q19 0 31.5 -13t12.5 -32q0 -1 -0.5 -5.5t-1 -6t-1.5 -5.5t-3 -6.5t-4.5 -5.5t-7 -6.5t-10.5 -6.5l-87 -61v-67q65 61 155 61q103 0 172.5 -64.5t69.5 -166.5q0 -103 -70 -172t-172 -69q-89 0 -155 61v-45
h-120q-28 0 -40 14t-12 32l1 4q0 5 0.5 7t2.5 7t4 8t6 7t9 6.5t12.5 4t16.5 1.5h29v307q-21 -14 -37 -14q-19 0 -31.5 15t-12.5 31q0 1 0.5 5.5t1 6t1.5 5.5t3 6.5t4.5 5.5t7 6.5t10.5 6.5l53 37v54zM173 223q0 -65 44 -106.5t109 -41.5q63 0 108 41.5t45 103.5
q0 66 -43.5 105.5t-109.5 39.5q-65 0 -109 -39t-44 -103z" />
    <glyph glyph-name="uni0186" unicode="&#x186;" 
d="M267 497q-47 0 -80.5 -11.5t-47.5 -25t-28.5 -25t-27.5 -11.5q-20 0 -35 15t-15 35q0 43 68.5 83t168.5 40q127 0 210.5 -74.5t83.5 -188.5v-66q0 -120 -78 -201t-194 -81q-70 0 -142 34l-10 4q-17 -24 -42 -24q-29 0 -39.5 17t-10.5 49v84q0 66 50 66q18 0 29.5 -10
t14 -18.5t5.5 -24.5q6 -30 36.5 -48.5t56.5 -23.5t48 -5q76 0 126 51.5t50 130.5v64q0 75 -53.5 120t-143.5 45z" />
    <glyph glyph-name="uni0187" unicode="&#x187;" 
d="M564 109q0 -43 -68.5 -83t-168.5 -40q-127 0 -210.5 74.5t-83.5 188.5v66q0 120 78 201t194 81q75 0 144 -35q4 47 31.5 82t77.5 35q43 0 74 -25.5t31 -51.5q0 -21 -14.5 -36.5t-36.5 -15.5q-19 0 -34.5 14.5t-19.5 14.5q-9 0 -9 -45v-101q0 -66 -50 -66q-24 0 -34 11
t-11 26t-12.5 35.5t-35.5 33.5q-43 24 -97 24q-76 0 -126 -51.5t-50 -130.5v-64q0 -75 53.5 -120t143.5 -45q47 0 81 11.5t47.5 25t28 25t27.5 11.5q20 0 35 -15t15 -35z" />
    <glyph glyph-name="uni0188" unicode="&#x188;" 
d="M540 307q0 -66 -50 -66q-27 0 -37 15t-16.5 37t-20.5 32q-41 25 -106 25q-71 0 -113.5 -39.5t-42.5 -103.5q0 -123 176 -123q52 0 87.5 9t48.5 19t25.5 19t23.5 9q20 0 35 -15t15 -36q0 -43 -66.5 -74t-175.5 -31q-62 0 -110.5 14t-77.5 36.5t-48 52.5t-26 59.5t-7 60.5
q0 107 71.5 175t184.5 68q75 0 130 -23q3 47 31 83t78 36q43 0 74 -25.5t31 -51.5q0 -21 -14.5 -36.5t-36.5 -15.5q-19 0 -34.5 14.5t-19.5 14.5q-9 0 -9 -45v-94z" />
    <glyph glyph-name="uni0189" unicode="&#x189;" 
d="M79 0q-66 0 -66 50q0 24 16 37t45 13v143h-8q-66 0 -66 50q0 30 17.5 40t49.5 10h7v140q-61 0 -61 50q0 30 17.5 40t49.5 10h212q109 0 183.5 -80t74.5 -198v-47q0 -117 -72.5 -187.5t-193.5 -70.5h-205zM248 343q32 0 49 -10.5t17 -39.5q0 -50 -66 -50h-74v-143h111
q50 0 84.5 15t51 41t23 51t6.5 54v46q0 75 -45.5 125.5t-120.5 50.5h-110v-140h74z" />
    <glyph glyph-name="uni018A" unicode="&#x18a;" 
d="M450 307q0 75 -45.5 125.5t-120.5 50.5h-110v-383h111q50 0 84.5 15t51 41t23 51t6.5 54v46zM-11 369q-25 0 -51 31.5t-26 73.5q0 57 45.5 83t99.5 26h235q109 0 183.5 -80t74.5 -198v-47q0 -117 -72.5 -187.5t-193.5 -70.5h-204q-67 0 -67 50q0 24 16 37t45 13v383h-17
q-45 0 -45 -9q0 -4 14.5 -19t14.5 -35q0 -22 -15.5 -36.5t-36.5 -14.5z" />
    <glyph glyph-name="uni018B" unicode="&#x18b;" 
d="M92 366q-50 0 -50 66v151h471q31 0 48.5 -10.5t17.5 -39.5q0 -50 -66 -50h-15v-383h15q66 0 66 -50t-66 -50h-295q-104 0 -150.5 45t-46.5 131q0 72 49 119t149 47h179v141h-256v-51q0 -66 -50 -66zM125 171q0 -71 102 -71h171v142h-169q-104 0 -104 -71z" />
    <glyph glyph-name="uni018C" unicode="&#x18c;" 
d="M431 217q0 60 -41 97t-109 37q-67 0 -107.5 -38.5t-40.5 -93.5q0 -57 41.5 -95t107.5 -38t107.5 37.5t41.5 93.5zM33 219q0 99 67.5 165.5t180.5 66.5q87 0 150 -50v123h-300q-66 0 -66 50t66 50h400v-524h16q66 0 66 -50t-66 -50h-116v35q-72 -49 -151 -49
q-112 0 -179.5 67t-67.5 166z" />
    <glyph glyph-name="uni018D" unicode="&#x18d;" 
d="M298 88q68 0 114 38t46 95q0 56 -45.5 94.5t-112.5 38.5t-112.5 -38.5t-45.5 -94.5t45.5 -94.5t110.5 -38.5zM49 -91q0 32 10.5 49t39.5 17t52 -40q6 -1 41 -9.5t54.5 -12.5t50.5 -8.5t55 -4.5q51 0 69.5 11t18.5 35q0 39 -110 42h-33q-106 0 -180.5 68t-74.5 165
q0 98 75 165.5t183 67.5t183 -67.5t75 -165.5q0 -101 -77 -168q59 -39 59 -107q0 -50 -30 -84.5t-70.5 -48t-87.5 -13.5q-26 0 -60.5 4.5t-54 8.5t-61.5 13.5t-47 10.5q-7 -31 -33 -31q-47 0 -47 66v37z" />
    <glyph glyph-name="uni018E" unicode="&#x18e;" 
d="M63 364q-50 0 -50 67v152h471q66 0 66 -50t-66 -50h-15v-383h15q66 0 66 -50q0 -29 -17 -39.5t-49 -10.5h-449v150q0 67 50 67t50 -67v-50h234v141h-85v-7q0 -67 -49 -67q-50 0 -50 67v113q0 66 49 66q50 0 50 -66v-7h85v143h-256v-52q0 -67 -50 -67z" />
    <glyph glyph-name="uni018f" unicode="&#x18f;" 
d="M25 259v83h443q-2 76 -58 122t-135 46q-47 0 -82.5 -19t-72.5 -62q-16 -19 -37 -19q-20 0 -32.5 13t-12.5 31q0 7 3 15q7 16 26.5 37t48.5 43t71.5 37t87.5 15q114 0 199 -74.5t85 -184.5v-83q0 -24 -7 -55.5t-26 -71.5t-47.5 -72t-77 -54.5t-109.5 -22.5
q-60 0 -108.5 22t-77 54.5t-48 72t-26.5 71.5t-7 56zM468 252l-352 -1q5 -75 56 -126t120 -51t120 51.5t56 126.5z" />
    <glyph glyph-name="uni0190" unicode="&#x190;" 
d="M187 421q0 -34 36.5 -57t100.5 -23h42q66 0 66 -51q0 -50 -66 -50h-59q-63 0 -102 -22t-39 -56q0 -32 38 -54t94 -22q50 0 91 19t48 46l1 5q1 5 2 7.5l3 7.5t4.5 8t6.5 7.5t8.5 7t11 4t14.5 1.5q29 0 39.5 -17t10.5 -49v-66q0 -66 -51 -66q-20 0 -40 24q-73 -39 -156 -39
q-103 0 -166 48t-63 126q0 88 77 138q-25 15 -40.5 47.5t-15.5 74.5q0 76 62 126.5t155 50.5q78 0 130 -33q8 19 16 26t23 7q30 0 39.5 -17t9.5 -49v-88q0 -67 -49 -67q-8 0 -14.5 1.5t-11 4t-8.5 7t-6 7.5t-4 9t-2.5 8.5t-2 9t-1.5 7.5q-7 30 -39.5 48.5t-79.5 18.5
t-80 -22t-33 -54z" />
    <glyph glyph-name="uni0191" unicode="&#x191;" 
d="M329 169q-50 0 -50 67v7h-85v-177q0 -80 -50.5 -134.5t-124.5 -54.5q-58 0 -90 17t-32 47q0 20 14.5 35t33.5 15q4 0 27 -7t44 -7q35 0 56.5 24.5t21.5 64.5v417h-15q-66 0 -66 50q0 29 17 39.5t49 10.5h471v-151q0 -66 -50 -66t-50 66v51h-256v-141h85v7q0 66 50 66
q49 0 49 -66v-113q0 -67 -49 -67z" />
    <glyph glyph-name="florin" unicode="&#x192;" 
d="M500 524q-10 0 -29.5 7t-43.5 7q-30 0 -51.5 -24t-21.5 -58v-52h57q32 0 49.5 -10t17.5 -40q0 -50 -67 -50h-57v-238q0 -80 -50.5 -134.5t-124.5 -54.5q-58 0 -90 17t-32 47q0 20 14.5 35t33.5 15q4 0 27 -7t44 -7q35 0 56.5 24.5t21.5 64.5v238h-57q-67 0 -67 50
q0 30 17.5 40t49.5 10h57v55q0 74 51 126.5t123 52.5q56 0 88 -16t32 -45q0 -22 -14 -37.5t-34 -15.5z" />
    <glyph glyph-name="uni0193" unicode="&#x193;" 
d="M33 317q0 117 79.5 198.5t204.5 81.5q75 0 135 -27q7 44 34 75t73 31q43 0 74 -25.5t31 -51.5q0 -21 -14.5 -36.5t-36.5 -15.5q-19 0 -34.5 14.5t-19.5 14.5q-9 0 -9 -45v-78q0 -32 -10.5 -49t-39.5 -17q-7 0 -13.5 1.5t-10.5 4t-7.5 6.5t-6 7.5t-4.5 9t-3 8.5t-2.5 8.5
t-1.5 7.5q-8 26 -43 41.5t-90 15.5q-84 0 -134.5 -49.5t-50.5 -130.5v-64q0 -167 192 -167q69 0 125 25v69h-100q-66 0 -66 50q0 29 17 39.5t49 10.5h175q67 0 67 -50q0 -38 -42 -50v-132q-67 -35 -114 -48.5t-105 -13.5q-68 0 -122 16.5t-86 42.5t-53 61.5t-29 69.5t-8 70
v71z" />
    <glyph glyph-name="uni0194" unicode="&#x194;" 
d="M86 497h-11q-23 0 -37.5 15t-14.5 31q0 18 13 31.5t39 13.5h111q52 0 52 -45q0 -19 -12.5 -32.5t-30.5 -13.5l105 -138l103 138q-21 0 -34 13.5t-13 32.5q0 18 13.5 31.5t39.5 13.5h110q52 0 52 -45q0 -46 -52 -46h-11l-154 -215q1 -2 5 -6q18 -23 29.5 -39t24.5 -47
t13 -59q0 -71 -34.5 -112t-91.5 -41q-56 0 -91 43.5t-35 109.5q0 14 2.5 27.5t5 23.5t8.5 22t10 19t12 18t11.5 14.5t12 14t10.5 11.5zM300 202q-5 -6 -13 -16.5t-10.5 -14t-6 -10.5t-4.5 -13.5t-1 -16.5q0 -32 10.5 -47t24.5 -15q17 0 26 18t9 44q0 7 -1.5 14t-6 15
t-7 12.5t-10 15t-10.5 14.5z" />
    <glyph glyph-name="uni0195" unicode="&#x195;" 
d="M-27 574q0 50 66 50h116v-203q26 29 73 29q78 0 119.5 -44.5t41.5 -121.5v-125q0 -72 62 -72t62 72v178h-27q-25 0 -40 14t-15 36q0 29 17 39.5t49 10.5h116v-281q0 -51 -15.5 -86.5t-42 -52.5t-51.5 -23.5t-53 -6.5t-53 6.5t-51.5 23.5t-42 52.5t-15.5 86.5v115
q0 40 -14.5 59.5t-57.5 19.5q-39 0 -62 -35v-215h6q67 0 67 -50t-67 -50h-112q-66 0 -66 50t66 50h6v424h-16q-32 0 -49 10.5t-17 39.5z" />
    <glyph glyph-name="uni0196" unicode="&#x196;" 
d="M105 533q0 30 17.5 40t49.5 10h178v-410q0 -40 21.5 -64.5t56.5 -24.5q22 0 44.5 7t26.5 7q19 0 33.5 -15t14.5 -35q0 -30 -32 -47t-90 -17q-74 0 -124.5 54.5t-50.5 134.5v310h-78q-67 0 -67 50z" />
    <glyph glyph-name="uni0197" unicode="&#x197;" 
d="M83 284q0 50 66 50h101v149h-101q-66 0 -66 50q0 29 17 39.5t49 10.5h302q32 0 49 -10.5t17 -39.5q0 -50 -66 -50h-101v-149h101q33 0 49.5 -10.5t16.5 -39.5q0 -50 -66 -50h-101v-134h101q32 0 49 -10.5t17 -39.5q0 -50 -66 -50h-302q-66 0 -66 50q0 29 17 39.5t49 10.5
h101v134h-101q-66 0 -66 50z" />
    <glyph glyph-name="uni0198" unicode="&#x198;" 
d="M315 331q42 -23 67.5 -45t54 -68t59.5 -126h39q52 -5 52 -45q0 -18 -12 -32t-40 -14h-105l-6 17q-32 91 -60.5 141t-54 70t-67.5 36l-62 -55v-118h50q52 -5 52 -45q0 -18 -12 -32t-40 -14h-170q-28 0 -40 14t-12 32v5l1.5 6t2.5 7t4 8t6 7t9 6.5t12.5 4t16.5 1.5h29v405
h-29q-28 0 -40 14t-12 32v5l1.5 6t2.5 7t4 8t6 7t9 6.5t12.5 4t16.5 1.5h170q52 -5 52 -45q0 -18 -12 -32t-40 -14h-50v-168l192 170q-15 4 -25 15t-10 29l1 4q0 4 0.5 6.5t2 7.5t4 8t6.5 7t9 6.5t13 4t17 1.5h118q45 0 83 -33t38 -85q0 -51 -35.5 -86t-83.5 -35
q-19 0 -32 13t-13 32t13 32.5t32 13.5q13 0 20 8t7 19q0 12 -7.5 21t-21.5 9h-6z" />
    <glyph glyph-name="uni0199" unicode="&#x199;" 
d="M33 50q0 29 17 39.5t49 10.5h16v359q0 74 51 126.5t123 52.5q56 0 88 -16t32 -45q0 -22 -14 -37.5t-34 -15.5q-10 0 -29.5 7t-43.5 7q-30 0 -51.5 -24t-21.5 -58v-169l79 63q-16 19 -16 37q0 50 67 50h112q33 0 49.5 -11t16.5 -39q0 -50 -66 -50h-28l-118 -96l160 -141
h33q67 0 67 -50t-67 -50h-118q-66 0 -66 50q0 20 16 37l-103 91l-18 -14v-164h-116q-66 0 -66 50z" />
    <glyph glyph-name="uni019A" unicode="&#x19a;" 
d="M83 284q0 50 66 50h101v190h-78q-67 0 -67 50q0 29 17 39.5t50 10.5h178v-290h101q33 0 49.5 -10.5t16.5 -39.5q0 -50 -66 -50h-101v-134h122q66 0 66 -50t-66 -50h-344q-66 0 -66 50q0 29 17 39.5t49 10.5h122v134h-101q-66 0 -66 50z" />
    <glyph glyph-name="uni019B" unicode="&#x19b;" 
d="M243 50q0 -50 -66 -50h-90q-66 0 -66 50q0 44 49 50l171 332l-85 -45q-13 -5 -24 -5q-19 0 -34.5 14.5t-15.5 35.5q0 30 27 44l88 46l-1 2h-100q-66 0 -66 50q0 18 13.5 34t42.5 16h10h97q62 0 92 -56l82 42q11 6 23 6q19 0 34.5 -14.5t15.5 -35.5q0 -30 -27 -44l-83 -44
l197 -378q52 -5 52 -50q0 -50 -66 -50h-92q-67 0 -67 50t64 50l-120 223l-114 -223q59 -2 59 -50z" />
    <glyph glyph-name="uni019C" unicode="&#x19c;" 
d="M556 583q67 0 67 -50t-60 -50v-383q60 -2 60 -50q0 -50 -67 -50h-93v24q-46 -37 -85 -37q-57 0 -102 49q-45 -49 -104 -49q-56 0 -93.5 37.5t-37.5 93.5v365q-60 0 -60 50t66 50h94v-457q0 -22 7.5 -30.5t27.5 -8.5t35.5 9t40.5 36v351q-28 0 -44 13.5t-16 36.5
q0 50 66 50h94v-457q0 -21 8 -30t27 -9q36 0 76 45v351q-61 0 -61 50t66 50h88z" />
    <glyph glyph-name="uni019D" unicode="&#x19d;" 
d="M526 583q66 0 66 -50t-61 -50v-483h-99l-259 394v-328q0 -80 -50.5 -134.5t-124.5 -54.5q-58 0 -90 17t-32 47q0 20 14.5 35t33.5 15q4 0 27 -7t44 -7q35 0 56.5 24.5t21.5 64.5v417h-15q-66 0 -66 50q0 29 17 39.5t49 10.5h115l258 -392v292h-35q-66 0 -66 50
q0 29 17 39.5t49 10.5h130z" />
    <glyph glyph-name="uni019E" unicode="&#x19e;" 
d="M23 50q0 50 66 50h6v237q-61 2 -61 50q0 50 67 50h94v-48q36 34 66 47.5t71 13.5q78 0 128 -44t50 -124v-382q61 0 61 -50t-66 -50h-89q-67 0 -67 50t61 50v378q0 72 -90 72q-35 0 -62.5 -15t-62.5 -53v-182h6q66 0 66 -50t-66 -50h-112q-66 0 -66 50z" />
    <glyph glyph-name="uni019F" unicode="&#x19f;" 
d="M300 597q22 0 52 -6.5t71.5 -27.5t75 -53t57 -90.5t23.5 -132.5q0 -123 -82.5 -212t-196.5 -89q-116 0 -197.5 89.5t-81.5 216.5q0 126 82 215.5t197 89.5zM476 329q-12 72 -61.5 120t-114.5 48t-115 -48t-61 -120h352zM471 229h-341q17 -63 64 -103t106 -40
q58 0 105.5 40.5t65.5 102.5z" />
    <glyph glyph-name="Ohorn" unicode="&#x1a0;" 
d="M300 497q-73 0 -126 -60.5t-53 -144.5q0 -85 52.5 -145.5t126.5 -60.5q73 0 126 60t53 143q0 86 -52.5 147t-126.5 61zM523 664q25 0 51 -31.5t26 -73.5q0 -70 -67 -97q46 -73 46 -175q0 -123 -82.5 -212t-196.5 -89q-116 0 -197.5 89.5t-81.5 216.5q0 126 82 215.5
t197 89.5q80 0 148 -47h8q44 0 44 9q0 11 -14.5 23.5t-14.5 30.5q0 22 15.5 36.5t36.5 14.5z" />
    <glyph glyph-name="ohorn" unicode="&#x1a1;" 
d="M302 350q-68 0 -114 -38t-46 -95q0 -56 45.5 -94.5t112.5 -38.5t112.5 38.5t45.5 94.5t-45.5 94.5t-110.5 38.5zM526 520q25 0 51 -31.5t26 -73.5q0 -69 -70 -98q25 -47 25 -100q0 -98 -75 -165.5t-183 -67.5t-183 67.5t-75 165.5q0 99 75 166t186 67q83 0 149 -44h6
q45 0 45 9q0 5 -14.5 20t-14.5 34q0 22 15.5 36.5t36.5 14.5z" />
    <glyph glyph-name="uni01A2" unicode="&#x1a2;" 
d="M103 325v-68q0 -78 32 -125t85 -47t85 47t32 125v68q0 78 -32 125t-85 47t-85 -47t-32 -125zM407 50q0 50 66 50h7v358q0 70 -30 70q-27 0 -59 -28q46 -75 46 -182v-54q0 -75 -22.5 -136.5t-73 -102t-121.5 -40.5q-106 0 -161.5 81t-55.5 198v54q0 75 22.5 136.5t73 102
t121.5 40.5q56 0 101 -25q65 56 137 56q61 0 91.5 -48.5t30.5 -121.5v-358h5q66 0 66 -50t-66 -50h-112q-66 0 -66 50z" />
    <glyph glyph-name="uni01A3" unicode="&#x1a3;" 
d="M206 350q-67 -1 -102 -36.5t-37 -96.5q2 -60 37 -96t100 -37q65 1 100 37t37 96q-2 59 -37.5 95.5t-97.5 37.5zM-33 213v8q0 95 66.5 162t166.5 67h6q55 0 104 -22l8.5 8.5l9.5 9.5t9.5 8.5t12 8.5t13 7t16 7t18.5 4.5t23 3.5t26 1q57 0 95 -36.5t38 -91.5v-258h6
q66 0 66 -50t-66 -50h-112q-66 0 -66 50t66 50h6v258q0 18 -4.5 23t-16.5 5h-12q-40 0 -58 -20q53 -64 53 -149v-4q0 -94 -67 -161.5t-166 -67.5h-8q-99 0 -166 67.5t-67 161.5z" />
    <glyph glyph-name="uni01A4" unicode="&#x1a4;" 
d="M194 483v-183h118q52 0 81.5 24.5t29.5 66.5q0 43 -29.5 67.5t-81.5 24.5h-118zM13 50q0 50 66 50h15v383h-32q-45 0 -45 -9q0 -4 14.5 -19t14.5 -35q0 -22 -15.5 -36.5t-36.5 -14.5q-25 0 -51 31.5t-26 73.5q0 57 45 83t100 26h250q95 0 156 -53t61 -136q0 -27 -6 -52
t-23 -51.5t-42.5 -46t-68 -32t-97.5 -12.5h-98v-100h99q66 0 66 -50t-66 -50h-214q-66 0 -66 50z" />
    <glyph glyph-name="uni01A5" unicode="&#x1a5;" 
d="M323 350q-77 0 -113 -39t-36 -80q0 -53 41.5 -87t107.5 -34q65 0 106.5 34t41.5 86q0 43 -36.5 81.5t-111.5 38.5zM320 524q-10 0 -29.5 7t-43.5 7q-30 0 -51.5 -24t-21.5 -58v-64q68 58 153 58q105 0 174.5 -64.5t69.5 -161.5q0 -92 -69 -153t-173 -61q-82 0 -155 56
v-166h58q33 0 49.5 -10.5t16.5 -39.5q0 -50 -66 -50h-174q-66 0 -66 50t66 50h16v559q0 74 51 126.5t123 52.5q56 0 88 -16t32 -45q0 -22 -14 -37.5t-34 -15.5z" />
    <glyph glyph-name="uni01A6" unicode="&#x1a6;" 
d="M207 337v-86h82q63 0 82 8t19 35q0 14 -2.5 21.5t-17.5 14.5t-45 7h-118zM284 50q0 -50 -66 -50h-127q-66 0 -66 50t66 50h16v383h-18q-66 0 -66 50q0 29 17 39.5t49 10.5h124q32 0 49 -10.5t17 -39.5q0 -50 -66 -50h-6v-46h114q90 0 132.5 -42.5t42.5 -103.5
q-3 -82 -70 -108q44 -83 70 -283h12q66 0 66 -50t-66 -50h-87q-1 8 -5.5 38t-7 44.5t-7.5 44t-8.5 46.5t-9.5 43t-11.5 43.5t-12 36.5t-14.5 32.5t-16 22.5h-122v-51h11q33 0 49.5 -10.5t16.5 -39.5z" />
    <glyph glyph-name="uni01A7" unicode="&#x1a7;" 
d="M132 597q15 0 23 -7t16 -26q53 33 130 33q93 0 155 -50.5t62 -126.5q0 -43 -22 -80t-60 -59q-31 -17 -82.5 -29t-90 -18t-68 -24t-29.5 -48q0 -32 38 -54t94 -22q50 0 91 19t48 46q0 1 1.5 6t2.5 8t3.5 9t6 9.5t8.5 7.5t12.5 6t16.5 2q28 0 39 -16.5t11 -49.5v-66
q0 -66 -51 -66q-20 0 -40 24q-73 -39 -156 -39q-103 0 -166 48t-63 126t59 125q31 25 85 39.5t98 20t77 24t33 52.5q0 32 -33 54t-80 22t-79.5 -18.5t-39.5 -48.5q0 -1 -1.5 -7.5t-2 -9t-2.5 -8.5t-4 -9t-6 -7.5t-8.5 -7t-11 -4t-14.5 -1.5q-49 0 -49 67v88q0 32 9.5 49
t39.5 17z" />
    <glyph glyph-name="uni01A8" unicode="&#x1a8;" 
d="M94 347v37q0 66 47 66q21 0 32 -26q56 26 129 26q90 0 148 -38.5t58 -98.5q0 -59 -47 -91t-152 -43q-126 -13 -126 -52q0 -17 34.5 -30t82.5 -13q82 0 125 39q13 44 51 44q51 0 51 -67v-33q0 -66 -51 -66q-17 0 -32 12q-61 -29 -148 -29q-97 0 -160 40t-63 101
q0 35 18.5 65t51.5 48q35 20 101 30t110 18.5t44 28.5q0 14 -30.5 24.5t-68.5 10.5q-45 0 -71.5 -11t-34 -23.5t-19.5 -23.5t-30 -11q-29 0 -39.5 17t-10.5 49z" />
    <glyph glyph-name="uni01A9" unicode="&#x1a9;" 
d="M477 238q29 0 39.5 -17t10.5 -49v-172h-454v100l152 193l-152 193v97h454v-170q0 -66 -50 -66t-50 66v70h-225l150 -190l-151 -193h226v72q0 32 10.5 49t39.5 17z" />
    <glyph glyph-name="uni01aa" unicode="&#x1aa;" 
d="M431 -118q-72 0 -122 51.5t-50 124.5v352q-35 -35 -85 -35q-49 0 -83.5 34t-34.5 82t35 81.5t83 33.5q74 0 125 -53t51 -128v-361q0 -40 22 -65.5t58 -25.5q23 0 42 6.5t28 6.5q19 0 31 -13.5t12 -31.5q0 -19 -16 -33q-12 -10 -35 -16.5t-37 -8t-24 -1.5zM174 523
q-15 0 -25 -10t-10 -22q0 -13 10 -23t25 -10t25 10t10 22q0 13 -10 23t-25 10z" />
    <glyph glyph-name="uni01AB" unicode="&#x1ab;" 
d="M280 -86q4 0 27 -7t44 -7q35 0 56.5 23.5t21.5 62.5v19q-69 -21 -130 -21q-85 0 -135 37t-50 101v215h-35q-66 0 -66 50q0 29 17 39.5t49 10.5h35v88q0 66 50 66q29 0 39.5 -17t10.5 -49v-88h181h17q22 0 35.5 -14.5t13.5 -35.5q0 -50 -66 -50h-181v-196q0 -31 17 -44
t69 -13q39 0 71.5 7t49 15.5t33 15.5t27.5 7q20 0 34 -15t14 -36v-92q0 -80 -50 -133t-125 -53q-58 0 -90 17t-32 47q0 20 14.5 35t33.5 15z" />
    <glyph glyph-name="uni01AC" unicode="&#x1ac;" 
d="M118 50q0 29 17 39.5t49 10.5h65v383h-107q-45 0 -45 -9q0 -5 14.5 -20t14.5 -34q0 -22 -15.5 -36.5t-36.5 -14.5q-25 0 -51 31.5t-26 73.5q0 57 44.5 83t100.5 26h416v-193q0 -32 -10.5 -49t-39.5 -17q-50 0 -50 66v93h-109v-383h66q66 0 66 -50t-66 -50h-231
q-66 0 -66 50z" />
    <glyph glyph-name="uni01AD" unicode="&#x1ad;" 
d="M13 387q0 29 17 39.5t49 10.5h35v22q0 74 51 126.5t123 52.5q56 0 88 -16t32 -45q0 -22 -14 -37.5t-34 -15.5q-10 0 -29.5 7t-43.5 7q-30 0 -51.5 -24t-21.5 -58v-19h181h17q22 0 35.5 -14.5t13.5 -35.5q0 -50 -66 -50h-181v-196q0 -31 17 -44t69 -13q39 0 71.5 7
t49 15.5t33 15.5t27.5 7q20 0 34 -15t14 -36q0 -28 -42.5 -50.5t-94 -33t-93.5 -10.5q-85 0 -135 37t-50 101v215h-35q-66 0 -66 50z" />
    <glyph glyph-name="uni01AE" unicode="&#x1ae;" 
d="M508 324q-50 0 -50 66v93h-109v-417q0 -40 21.5 -64.5t56.5 -24.5q22 0 44.5 7t26.5 7q19 0 33.5 -15t14.5 -35q0 -30 -32 -47t-90 -17q-74 0 -124.5 54.5t-50.5 134.5v417h-107v-93q0 -66 -50 -66t-50 66v193h516v-193q0 -32 -10.5 -49t-39.5 -17z" />
    <glyph glyph-name="Uhorn" unicode="&#x1af;" 
d="M522 697q25 0 51 -31.5t26 -73.5q0 -50 -20 -79.5t-60 -29.5v-278q0 -97 -68 -158t-161 -61t-161 62t-68 157v278q-61 2 -61 50q0 29 17 39.5t49 10.5h130q32 0 49 -10t17 -40q0 -50 -66 -50h-35v-287q0 -46 38 -78t91 -32t91 32t38 78v287h-35q-66 0 -66 50
q0 29 17 39.5t49 10.5h80q35 0 35 9q0 11 -14.5 23.5t-14.5 30.5q0 22 15.5 36.5t36.5 14.5z" />
    <glyph glyph-name="uhorn" unicode="&#x1b0;" 
d="M558 50q0 -50 -66 -50h-95v48q-37 -35 -66.5 -48t-70.5 -13q-79 0 -128.5 44.5t-49.5 124.5v181h-27q-25 0 -40 14t-15 36q0 29 17 39.5t49 10.5h116v-278q0 -72 88 -72q38 0 63 13.5t64 54.5v182h-35h-10q-30 0 -43 15.5t-13 34.5q0 50 66 50h115q23 0 23 9
q0 11 -14.5 23.5t-14.5 30.5q0 22 15.5 36.5t36.5 14.5q25 0 51 -31.5t26 -73.5q0 -109 -103 -109v-237q61 0 61 -50z" />
    <glyph glyph-name="uni01b1" unicode="&#x1b1;" 
d="M210 444v59h-67v-48q-5 -52 -44 -52q-1 0 -4.5 0.5t-5.5 1t-6.5 2t-7.5 3t-6.5 4t-6 6.5t-5 9t-3.5 11.5t-1 14.5v141h237v-224q-16 -2 -32 -6.5t-36 -15.5t-35 -26t-25.5 -41.5t-10.5 -59.5q0 -68 36 -109.5t72 -41.5h90q37 0 76 45.5t39 105.5q0 40 -13.5 69.5
t-35.5 45t-41 23t-40 10.5v225h231v-139q-7 -52 -47 -52q-1 0 -5 0.5t-7 1.5t-8 3t-9 6t-7.5 9t-5.5 13.5t-2 18.5v46h-71v-58q68 -21 110 -77t42 -140q0 -57 -16.5 -102.5t-41 -71.5t-54 -43t-52.5 -23t-41 -6h-93q-21 3 -42.5 9.5t-50 24t-50 42t-37 67.5t-15.5 96
q0 46 10 83t25 60t36.5 40.5t39 26t37.5 13.5z" />
    <glyph glyph-name="uni01b2" unicode="&#x1b2;" 
d="M406 162v426h119q53 0 53 -47q0 -44 -53 -44h-27v-335q0 -87 -49.5 -134t-146.5 -47q-96 0 -149.5 46.5t-53.5 136.5v333h-28q-22 0 -37.5 13t-15.5 33q0 19 14 32t39 13h141q56 0 56 -45q0 -21 -15 -33.5t-39 -12.5h-24v-331q0 -51 33.5 -72.5t76.5 -21.5q106 0 106 90z
" />
    <glyph glyph-name="uni01B3" unicode="&#x1b3;" 
d="M17 369q-25 0 -51 31.5t-26 73.5q0 57 45 83t100 26h92q66 0 66 -50q0 -33 -38 -49l95 -136l94 136q-40 15 -40 49q0 30 17.5 40t49.5 10h92q32 0 49 -10.5t17 -39.5q0 -22 -16 -36t-39 -14h-8h-2l-164 -238v-145h65q67 0 67 -50t-67 -50h-230q-67 0 -67 50q0 30 17.5 40
t49.5 10h65v145l-165 238q-45 0 -45 -9q0 -4 14.5 -19t14.5 -35q0 -22 -15.5 -36.5t-36.5 -14.5z" />
    <glyph glyph-name="uni01B4" unicode="&#x1b4;" 
d="M177 437q32 0 49 -10.5t17 -39.5q0 -48 -59 -50l114 -223l120 223q-64 0 -64 50t67 50h106q45 0 45 9q0 11 -14.5 23.5t-14.5 30.5q0 22 15.5 36.5t36.5 14.5q25 0 51 -31.5t26 -73.5q0 -54 -41 -82t-91 -28q-3 0 -7 0.5t-6 0.5l-230 -437h5q32 0 49 -10.5t17 -39.5
q0 -50 -66 -50h-215h-10q-30 0 -43 15.5t-13 34.5q0 50 66 50h100l55 103l-172 334q-49 6 -49 50q0 50 66 50h90z" />
    <glyph glyph-name="uni01B5" unicode="&#x1b5;" 
d="M481 284q0 -50 -66 -50h-109l-105 -134h226v24q0 32 10.5 49t39.5 17t39.5 -17t10.5 -49v-124h-454v100l106 134h-34q-66 0 -66 50t66 50h113l117 149h-179v-22q0 -66 -50 -66t-50 66v122h408v-97l-119 -152h30q33 0 49.5 -10.5t16.5 -39.5z" />
    <glyph glyph-name="uni01B6" unicode="&#x1b6;" 
d="M453 204q0 -50 -66 -50h-88l-55 -54h175q3 54 50 54q29 0 39.5 -17t10.5 -49v-88h-434v83l74 72q-18 3 -29 17t-11 32q0 50 66 50h76l85 83h-149v-9q0 -66 -50 -66t-50 66v109h409v-81l-105 -102q52 -3 52 -50z" />
    <glyph glyph-name="uni01B7" unicode="&#x1b7;" 
d="M146 395q-50 0 -50 66v122h408v-97l-119 -152h7q74 0 122.5 -53.5t48.5 -126.5q0 -69 -40.5 -117t-95 -67.5t-113.5 -19.5q-81 0 -151.5 35t-108.5 83q-10 13 -10 30q0 8 3 18t15.5 21t31.5 11q13 0 34 -15.5t42.5 -33.5t60.5 -33.5t83 -15.5q68 0 108.5 26.5t40.5 77.5
q0 41 -19 60.5t-60 19.5h-126q-21 0 -35.5 14.5t-14.5 35.5t14.5 35.5t35.5 14.5l117 149h-179v-22q0 -66 -50 -66z" />
    <glyph glyph-name="uni01B8" unicode="&#x1b8;" 
d="M461 395q-50 0 -50 66v22h-179l117 -149q21 0 35.5 -14.5t14.5 -35.5t-14.5 -35.5t-35.5 -14.5h-126q-41 0 -60 -19.5t-19 -60.5q0 -51 40.5 -77.5t108.5 -26.5q44 0 83 15.5t60.5 33.5t42.5 33.5t34 15.5q27 0 38.5 -18t11.5 -32q0 -17 -10 -30q-38 -48 -108.5 -83
t-151.5 -35q-59 0 -113.5 19.5t-95 67.5t-40.5 117q0 73 48.5 126.5t122.5 53.5h7l-119 152v97h408v-122q0 -66 -50 -66z" />
    <glyph glyph-name="uni01b9" unicode="&#x1b9;" 
d="M260 185q-35 0 -61 -36.5t-26 -90.5q0 -62 30 -106.5t69 -44.5q32 0 55 14t41.5 33t33.5 24q8 3 16 3q15 0 29.5 -12t14.5 -33q-6 -25 -15 -33q-89 -86 -175 -86q-83 0 -136 72t-53 169q0 73 35.5 133.5t97.5 77.5l-87 82h-6q-20 0 -36.5 12.5t-16.5 33.5q4 34 31 42
q9 3 22 3h273q21 0 35 -12.5t14 -33.5q0 -20 -14.5 -32.5t-34.5 -12.5h-138l136 -130q0 -1 4 -5.5t4 -5.5q6 -12 6 -22q0 -18 -12.5 -31t-31.5 -13q-27 0 -47 20q-8 8 -11.5 11t-15.5 6.5t-30 3.5z" />
    <glyph glyph-name="uni01ba" unicode="&#x1ba;" 
d="M263 -200q-30 0 -55 2.5t-53.5 10.5t-47.5 22t-31.5 38.5t-12.5 57.5q0 38 17 65.5t46 41.5t59 20t65 6q66 0 87.5 19.5t21.5 52.5q0 28 -16.5 38.5t-62.5 10.5q-32 0 -41.5 -3.5t-23.5 -17.5q-20 -20 -47 -20q-20 0 -32 13.5t-12 30.5v3t1 5.5t2 6.5t4 9t7 9l136 130
h-138q-21 0 -35 13.5t-14 31.5q0 20 14 33t35 13h273q53 -5 53 -45v-5q-1 -4 -1.5 -5.5t-1.5 -6.5t-3 -7t-4.5 -6t-6.5 -6.5t-9 -5t-12 -3.5t-15 -1h-6l-84 -79q61 -7 95.5 -37t34.5 -99q0 -66 -46.5 -114t-152.5 -48q-97 0 -97 -42q0 -12 5 -19.5t33 -15t81 -7.5q28 0 52 9
t34.5 18t14.5 15q2 13 13.5 23.5t29.5 10.5t31.5 -13t13.5 -32q0 -36 -33 -65t-77.5 -42.5t-87.5 -13.5z" />
    <glyph glyph-name="uni01BB" unicode="&#x1bb;" 
d="M74 430q0 58 62.5 113t153.5 55t152 -55.5t61 -138.5q0 -47 -13 -77q23 -14 23 -43q0 -50 -66 -50h-44q-35 -27 -102.5 -74t-85.5 -60h209q4 54 50 54q50 0 50 -66v-88h-470v105l180 129h-57q-66 0 -66 50t66 50h187q39 35 39 74q0 38 -33 64t-82 26q-37 0 -61.5 -12
t-34.5 -29t-17.5 -34t-19.5 -29t-31 -12q-20 0 -35 14.5t-15 33.5z" />
    <glyph glyph-name="uni01bc" unicode="&#x1bc;" 
d="M168 288q-18 0 -31 13.5t-13 33.5v162h-20q-21 0 -35 13.5t-14 31.5q0 21 14 33.5t35 12.5h327q19 0 36 -10.5t17 -34.5v-5q-1 -4 -2 -7t-3 -8.5t-5.5 -9.5t-9 -8t-14 -6t-19.5 -2h-216v-96q54 19 107 19q88 0 145 -59t57 -153q0 -104 -64 -167t-165 -63
q-84 0 -144.5 36.5t-75.5 68.5q-4 8 -4 17q0 19 13 32t32 13q8 0 18 -5q7 -3 31 -23.5t55 -34t73 -13.5q65 0 102.5 37t37.5 104q0 56 -32 87.5t-85 31.5q-34 0 -56 -5.5t-42 -17t-28 -14.5q-12 -4 -22 -4z" />
    <glyph glyph-name="uni01bd" unicode="&#x1bd;" 
d="M97 226v129q-27 11 -27 42v4q1 4 1.5 6.5t2 7.5t4 8t6.5 7t9 6.5t13 4t17 1.5h273q21 0 35 -13t14 -33t-15 -32.5t-34 -12.5h-208v-62q19 4 44 4q46 0 81.5 -7t66 -24t47 -48.5t16.5 -76.5q0 -71 -46 -116.5t-127 -45.5h-4q-83 1 -126 27t-49 53q-1 5 -1 10
q0 19 14.5 32.5t31.5 13.5q18 -3 28 -12q1 0 6.5 -5.5t7 -6.5t8 -5.5t10 -5.5t11.5 -4t16 -4t19 -2t24 -1q43 0 65 21t22 51q0 32 -20.5 49t-78.5 17q-35 0 -55 -4.5t-33 -12t-20 -9.5q-5 -1 -10 -1q-18 0 -28.5 14t-10.5 36z" />
    <glyph glyph-name="uni01be" unicode="&#x1be;" 
d="M109 112q0 28 14 40t32 12q17 0 31 -12.5t14 -39.5v-25q58 -28 104 -28q51 0 84 24.5t33 63.5q0 30 -32 56.5t-118 62.5l-15 6v73h-80q-19 0 -35.5 10.5t-16.5 34.5q0 18 12 32t40 14h80v61h-20q-19 0 -35.5 10.5t-16.5 34.5q0 18 12 32t40 14h131q20 0 36.5 -10.5
t16.5 -35.5v-4q-1 -3 -1.5 -5.5t-2 -7t-4 -8t-6.5 -7.5t-9 -6.5t-13 -4.5t-17 -2h-20v-61h80q20 0 36.5 -10.5t16.5 -35.5v-4q-1 -3 -1.5 -5.5t-2 -7t-4 -8t-6.5 -7.5t-9 -6.5t-13 -4.5t-17 -2h-80v-13q93 -45 129 -84.5t36 -100.5q0 -79 -56.5 -124t-146.5 -45q-33 0 -64 5
t-48.5 11t-40.5 15t-30 11l-17 6v86z" />
    <glyph glyph-name="uni01bf" unicode="&#x1bf;" 
d="M172 39l236 180q64 49 64 111q0 17 -16.5 30t-55.5 13q-103 0 -161 -45l-67 -52v-237zM172 -109h73q19 0 35.5 -10.5t16.5 -34.5q0 -18 -12 -32t-40 -14h-193q-28 0 -40 15t-12 31q0 8 1.5 15.5t14.5 18.5t36 11h29v454h-29q-52 0 -52 46q0 14 11.5 29.5t40.5 15.5h120
v-45l11 9q37 29 82 44t70 17t63 2q83 0 123.5 -37.5t40.5 -95.5q0 -51 -27.5 -100.5t-68.5 -80.5l-294 -228v-30z" />
    <glyph glyph-name="uni01C0" unicode="&#x1c0;" 
d="M300 623q50 0 50 -66v-644q0 -66 -50 -66t-50 66v644q0 32 10.5 49t39.5 17z" />
    <glyph glyph-name="uni01C1" unicode="&#x1c1;" 
d="M396 622q50 0 50 -66v-643q0 -66 -50 -66t-50 66v643q0 32 10.5 49t39.5 17zM204 622q50 0 50 -66v-643q0 -66 -50 -66t-50 66v643q0 32 10.5 49t39.5 17z" />
    <glyph glyph-name="uni01c2" unicode="&#x1c2;" 
d="M522 400q16 -1 16 -2q15 -3 25.5 -14t10.5 -29t-12 -32t-40 -14h-177v-53h177q16 -1 16 -2q15 -3 25.5 -14t10.5 -29t-12 -32t-40 -14h-177v-262q-1 -16 -2 -16q-3 -15 -14 -25.5t-29 -10.5l-4.5 0.5t-7 1t-7 2t-7.5 4t-7 6.5t-6.5 9.5t-4 12.5t-1.5 16v262h-177
q-28 0 -40 14t-12 32l0.5 4.5t1 7t2 7t4 7.5t6.5 7t9.5 6.5t12.5 4t16 1.5h177v53h-177q-28 0 -40 14t-12 32l0.5 4.5t1 7t2 7t4 7.5t6.5 7t9.5 6.5t12.5 4t16 1.5h177v177q1 16 2 16q3 15 14 25.5t29 10.5l4.5 -0.5t7 -1t7 -2t7.5 -4t7 -6.5t6.5 -9.5t4 -12.5t1.5 -16v-177
h177z" />
    <glyph glyph-name="uni01C3" unicode="&#x1c3;" 
d="M379 525l-29 -297q-5 -49 -49 -49q-21 0 -34.5 13t-15.5 36l-29 297q-2 24 -2 33q0 35 23 57.5t58 22.5t57.5 -23t22.5 -57q0 -7 -2 -33zM309 -15h-17q-28 0 -47.5 19.5t-19.5 46.5t19.5 46.5t47.5 19.5h17q28 0 47 -19t19 -47t-19 -47t-47 -19z" />
    <glyph glyph-name="uni01c4" unicode="&#x1c4;" 
d="M419 694l112 62q23 13 29 13q13 0 23.5 -10.5t10.5 -24.5q0 -16 -15 -28l-160 -101l-152 94q-16 10 -20 16.5t-4 18.5q0 14 10.5 24.5t24.5 10.5q4 0 28 -13zM136 92q25 0 41.5 6t33 23t25 54.5t8.5 95.5v55q0 32 -3 56.5t-13 53t-33.5 44.5t-58.5 16v-404zM588 0h-284
v90l176 406h-67v-93q-5 -53 -45 -53q-26 4 -35 16q2 -27 2 -57v-29q0 -280 -191 -280h-92q-28 0 -40 14.5t-12 32.5q0 41 45 45v404q-24 2 -34.5 16t-10.5 30v4q1 5 1.5 7t2.5 7t4 8t6 7t9 6.5t12.5 4t16.5 1.5h92q141 0 178 -153v153h258v-88l-176 -407h93v116q0 28 14 40
t31 12q18 0 32 -12t14 -40v-208z" />
    <glyph glyph-name="uni01c5" unicode="&#x1c5;" 
d="M421 587l112 62q23 13 29 13q13 0 23.5 -10.5t10.5 -24.5q0 -16 -15 -28l-160 -101l-152 94q-16 10 -20 16.5t-4 18.5q0 14 10.5 24.5t24.5 10.5q4 0 28 -13zM136 91q63 0 85.5 30.5t22.5 123.5v82q0 95 -22.5 132.5t-85.5 37.5v-406zM581 442v-67l-159 -284h83v31
q0 28 14 40t32 12q45 0 45 -52v-122h-296v67l157 284h-49v-30q-5 -52 -45 -52q-16 0 -28 9v-24q0 -143 -48.5 -198.5t-142.5 -55.5h-92q-28 0 -40 14t-12 32l1 5t1 6.5t2 6.5t3.5 7.5t5 6.5t8 6t10.5 4t14 3v406q-24 2 -34.5 16t-10.5 30v5l1.5 6t2.5 7t4 8t6 7t9 6.5
t12.5 4t16.5 1.5h92q138 0 176 -146h261z" />
    <glyph glyph-name="uni01c6" unicode="&#x1c6;" 
d="M425 644l112 62q23 13 29 13q13 0 23.5 -10.5t10.5 -24.5q0 -16 -15 -28l-160 -101l-152 94q-16 10 -20 16.5t-4 18.5q0 14 10.5 24.5t24.5 10.5q4 0 28 -13zM191 439v99h-29q-28 0 -40 14t-12 32l1 5q1 5 1.5 8t3 8.5t6 9t8.5 7t13.5 5.5t18.5 2h120v-538h16l144 260
h-57v-30q0 -18 -12 -35t-33 -17q-18 0 -32 12t-14 40v121h272v-67l-159 -284h83v31q0 28 14 40t32 12l5 -1q5 -1 8 -1.5t8.5 -3t9 -6t7 -8.5t5.5 -13.5t2 -18.5v-122h-382q-24 -16 -75 -16q-34 0 -59 21.5t-38 58t-18.5 75.5t-5.5 83q0 47 4 83t16 73t37 57.5t63 20.5
q41 0 68 -17zM128 75q63 2 63 145q0 68 -17.5 106.5t-46.5 38.5q-7 0 -14 -11.5t-13 -46.5t-6 -87q0 -60 11 -99.5t23 -45.5z" />
    <glyph glyph-name="uni01C7" unicode="&#x1c7;" 
d="M598 533q0 -21 -14 -35.5t-38 -14.5v-296q0 -95 -41 -145q-17 -21 -47.5 -38.5t-61.5 -17.5q-28 0 -73 14h-255q-66 0 -66 50q0 19 13 34.5t46 15.5v383q-32 0 -45.5 15t-13.5 35q0 29 17 39.5t49 10.5h99q66 0 66 -50t-66 -50h-6v-383h74v103q0 67 50 67q30 0 40 -17.5
t10 -49.5v-86q17 -31 54 -31q27 0 47 26q10 13 10 66v20v285h-19q-66 0 -66 50q0 29 17 39.5t49 10.5h105q66 0 66 -50z" />
    <glyph glyph-name="uni01C8" unicode="&#x1c8;" 
d="M299 533q0 -50 -66 -50h-25v-383h103v92q0 67 50 67q29 0 39.5 -17t10.5 -50v-192h-320q-66 0 -66 50q0 29 17 39.5t49 10.5h17v383h-17q-66 0 -66 50q0 29 17 39.5t49 10.5h142q66 0 66 -50zM197 -150q0 29 17.5 39.5t48.5 10.5h111q43 0 68.5 23t25.5 62v352h-102
q-66 0 -66 50q0 29 17 39.5t49 10.5h202v-452q0 -79 -54.5 -132t-136.5 -53h-114q-66 0 -66 50zM510 623v-105h-119v105h119z" />
    <glyph glyph-name="uni01C9" unicode="&#x1c9;" 
d="M452 337h-92q-34 0 -45 10q-21 15 -21 40q0 29 24 43q10 7 42 7h192v-452q0 -79 -54.5 -132t-136.5 -53h-114q-34 0 -45 10q-21 15 -21 40q0 28 24 43q11 7 42 7h111q43 0 68.5 23t25.5 62v352zM499 623v-105h-119v105h119zM254 624v-524h62q32 0 45 -9q21 -16 21 -41
q0 -27 -24 -43q-12 -7 -42 -7h-224q-34 0 -45 10q-21 15 -21 40q0 29 24 43q10 7 42 7h62v424h-46q-35 0 -46 10q-21 14 -21 40q0 29 24 43q11 7 43 7h146z" />
    <glyph glyph-name="uni01ca" unicode="&#x1ca;" 
d="M344 1h-93l-120 322v-231h18q19 0 35.5 -10.5t16.5 -34.5v-3q0 -2 -0.5 -4.5t-1.5 -6t-3 -7t-4.5 -7.5t-6.5 -7t-9 -5.5t-12 -4t-15 -1.5h-102q-52 0 -52 38q1 4 2.5 12.5t2 10.5t2 7t3.5 6t4.5 4t7 4.5t9.5 3.5t14 5v405h-13q-28 0 -40 14t-12 32l1 5q0 4 1 7t3 8.5
t5.5 9t9 7.5t14 6t18.5 2h108l120 -322v231h-17q-20 0 -36.5 10.5t-16.5 35.5l1 3q0 4 0.5 6.5t2 7t4 8t6.5 7.5t9 6.5t13 4.5t17 2h117q17 0 32 -8.5t19 -26.5q9 32 50 32h117q19 0 35.5 -10.5t16.5 -34.5q0 -18 -12 -32t-40 -14h-15v-355q-1 -88 -20 -122.5t-84 -34.5
q-103 0 -103 115v149q0 28 13 40t29 12q45 0 45 -52v-130q0 -43 16 -43q13 0 13 66v355h-11q-42 0 -51 35q-8 -32 -50 -32h-9q0 -319 -1 -405t-1 -91z" />
    <glyph glyph-name="uni01CB" unicode="&#x1cb;" 
d="M575 623v-105h-108v105h108zM212 -150q0 29 17.5 39.5t48.5 10.5h111q43 0 68.5 23t25.5 62v352q-26 0 -41.5 14.5t-15.5 35.5q0 29 17 39.5t49 10.5h91v-452q0 -79 -54.5 -132t-136.5 -53h-114q-66 0 -66 50zM363 583q66 0 66 -50q0 -48 -49 -50v-483h-99l-115 314v-214
q58 0 58 -50t-66 -50h-82q-67 0 -67 50q0 23 16 36.5t41 13.5v383q-33 0 -46 15.5t-13 34.5q0 29 17 39.5t49 10.5h93l114 -312v212q-60 0 -60 50q0 29 17 39.5t49 10.5h77z" />
    <glyph glyph-name="uni01CC" unicode="&#x1cc;" 
d="M560 623v-105h-119v105h119zM197 -150q0 29 17.5 39.5t48.5 10.5h111q43 0 68.5 23t25.5 62v352h-21q-66 0 -66 50q0 29 17 39.5t49 10.5h121v-452q0 -79 -54.5 -132t-136.5 -53h-114q-66 0 -66 50zM260 0v278q0 41 -5.5 56.5t-27.5 15.5q-30 0 -44 -20.5t-14 -47.5v-182
q32 0 45 -9q21 -16 21 -41q0 -27 -24 -43q-11 -7 -42 -7h-100q-32 0 -46 10q-20 15 -20 40q0 29 24 43q13 7 42 7v237q-61 2 -61 50q0 50 67 50h94v-48q8 28 31.5 44.5t47.5 16.5q112 0 112 -168v-182q61 0 61 -50q0 -29 -24 -43q-11 -7 -42 -7h-95z" />
    <glyph glyph-name="uni01CD" unicode="&#x1cd;" 
d="M247 689l112 62q23 13 29 13q13 0 23.5 -10.5t10.5 -24.5q0 -16 -15 -28l-160 -101l-152 94q-16 10 -20 16.5t-4 18.5q0 14 10.5 24.5t24.5 10.5q4 0 28 -13zM350 50q0 29 17 39.5t49 10.5h23l-23 58h-238l-23 -58h23q66 0 66 -50t-66 -50h-133q-66 0 -66 50
q0 30 17.5 40t49.5 10l155 383h-63q-67 0 -67 50q0 30 17.5 40t49.5 10h216l199 -483q68 0 68 -50t-66 -50h-139q-66 0 -66 50zM375 258l-78 192l-79 -192h157z" />
    <glyph glyph-name="uni01CE" unicode="&#x1ce;" 
d="M293 572l112 62q23 13 29 13q13 0 23.5 -10.5t10.5 -24.5q0 -16 -15 -28l-160 -101l-152 94q-16 10 -20 16.5t-4 18.5q0 14 10.5 24.5t24.5 10.5q4 0 28 -13zM42 119q0 68 67 118.5t175 50.5q45 0 104 -10v23q0 49 -93 49q-41 0 -93 -11.5t-63 -11.5q-21 0 -35 14.5
t-14 36.5q0 32 30 42q85 30 172 30q92 0 144.5 -39t52.5 -109v-202h16q66 0 66 -50t-66 -50h-117v23q-75 -39 -166 -39q-74 0 -127 39.5t-53 95.5zM389 135v50q-63 11 -111 11q-51 0 -90.5 -22t-39.5 -51q0 -17 22 -28t54 -11q82 0 165 51z" />
    <glyph glyph-name="uni01CF" unicode="&#x1cf;" 
d="M301 690l112 62q23 13 29 13q13 0 23.5 -10.5t10.5 -24.5q0 -16 -15 -28l-160 -101l-152 94q-16 10 -20 16.5t-4 18.5q0 14 10.5 24.5t24.5 10.5q4 0 28 -13zM451 100q32 0 49 -10.5t17 -39.5q0 -50 -66 -50h-302q-66 0 -66 50q0 29 17 39.5t49 10.5h101v383h-101
q-66 0 -66 50q0 29 17 39.5t49 10.5h302q32 0 49 -10.5t17 -39.5q0 -50 -66 -50h-101v-383h101z" />
    <glyph glyph-name="uni01D0" unicode="&#x1d0;" 
d="M301 572l112 62q23 13 29 13q13 0 23.5 -10.5t10.5 -24.5q0 -16 -15 -28l-160 -101l-152 94q-16 10 -20 16.5t-4 18.5q0 14 10.5 24.5t24.5 10.5q4 0 28 -13zM105 387q0 30 17.5 40t49.5 10h178v-337h122q66 0 66 -50t-66 -50h-344q-66 0 -66 50q0 29 17 39.5t49 10.5
h122v237h-78q-67 0 -67 50z" />
    <glyph glyph-name="uni01D1" unicode="&#x1d1;" 
d="M301 715l112 62q23 13 29 13q13 0 23.5 -10.5t10.5 -24.5q0 -16 -15 -28l-160 -101l-152 94q-16 10 -20 16.5t-4 18.5q0 14 10.5 24.5t24.5 10.5q4 0 28 -13zM300 597q22 0 52 -6.5t71.5 -27.5t75 -53t57 -90.5t23.5 -132.5q0 -123 -82.5 -212t-196.5 -89
q-116 0 -197.5 89.5t-81.5 216.5q0 126 82 215.5t197 89.5zM300 497q-73 0 -126 -60.5t-53 -144.5q0 -85 52.5 -145.5t126.5 -60.5q73 0 126 60t53 143q0 86 -52.5 147t-126.5 61z" />
    <glyph glyph-name="uni01D2" unicode="&#x1d2;" 
d="M303 572l112 62q23 13 29 13q13 0 23.5 -10.5t10.5 -24.5q0 -16 -15 -28l-160 -101l-152 94q-16 10 -20 16.5t-4 18.5q0 14 10.5 24.5t24.5 10.5q4 0 28 -13zM303 450q106 0 180.5 -68t74.5 -165q0 -98 -75 -165.5t-183 -67.5t-183 67.5t-75 165.5q0 99 75 166t186 67z
M302 350q-68 0 -114 -38t-46 -95q0 -56 45.5 -94.5t112.5 -38.5t112.5 38.5t45.5 94.5t-45.5 94.5t-110.5 38.5z" />
    <glyph glyph-name="uni01D3" unicode="&#x1d3;" 
d="M301 683l112 62q23 13 29 13q13 0 23.5 -10.5t10.5 -24.5q0 -16 -15 -28l-160 -101l-152 94q-16 10 -20 16.5t-4 18.5q0 14 10.5 24.5t24.5 10.5q4 0 28 -13zM529 205q0 -97 -68 -158t-161 -61t-161 62t-68 157v278q-61 2 -61 50q0 29 17 39.5t49 10.5h130q32 0 49 -10
t17 -40q0 -50 -66 -50h-35v-287q0 -46 38 -78t91 -32t91 32t38 78v287h-35q-66 0 -66 50q0 29 17 39.5t49 10.5h130q33 0 49.5 -10.5t16.5 -39.5q0 -50 -61 -50v-278z" />
    <glyph glyph-name="uni01D4" unicode="&#x1d4;" 
d="M295 572l112 62q23 13 29 13q13 0 23.5 -10.5t10.5 -24.5q0 -16 -15 -28l-160 -101l-152 94q-16 10 -20 16.5t-4 18.5q0 14 10.5 24.5t24.5 10.5q4 0 28 -13zM365 337q-30 0 -43 15.5t-13 34.5q0 50 66 50h135v-337q61 0 61 -50t-66 -50h-95v48q-37 -35 -66.5 -48
t-70.5 -13q-79 0 -128.5 44.5t-49.5 124.5v181h-27q-25 0 -40 14t-15 36q0 29 17 39.5t49 10.5h116v-278q0 -72 88 -72q38 0 63 13.5t64 54.5v182h-35h-10z" />
    <glyph glyph-name="uni01D5" unicode="&#x1d5;" 
d="M529 205q0 -97 -68 -158t-161 -61t-161 62t-68 157v200q-61 2 -61 50q0 29 17 39.5t49 10.5h130q32 0 49 -10t17 -40q0 -50 -66 -50h-35v-209q0 -46 38 -78t91 -32t91 32t38 78v209h-35q-66 0 -66 50q0 29 17 39.5t49 10.5h130q33 0 49.5 -10.5t16.5 -39.5q0 -50 -61 -50
v-200zM196 666q25 0 42.5 -17.5t17.5 -43.5q0 -24 -17.5 -41.5t-42.5 -17.5t-42.5 17.5t-17.5 42.5t17.5 42.5t42.5 17.5zM404 666q25 0 42.5 -17.5t17.5 -43.5q0 -24 -17.5 -41.5t-42.5 -17.5t-42.5 17.5t-17.5 42.5t17.5 42.5t42.5 17.5zM178 720q-53 0 -53 40t53 40h244
q53 0 53 -40t-53 -40h-244z" />
    <glyph glyph-name="uni01D6" unicode="&#x1d6;" 
d="M173 661q-53 0 -53 40t53 40h244q53 0 53 -40t-53 -40h-244zM190 607q25 0 42.5 -17.5t17.5 -43.5q0 -24 -17.5 -41.5t-42.5 -17.5t-42.5 17.5t-17.5 42.5t17.5 42.5t42.5 17.5zM398 607q25 0 42.5 -17.5t17.5 -43.5q0 -24 -17.5 -41.5t-42.5 -17.5t-42.5 17.5
t-17.5 42.5t17.5 42.5t42.5 17.5zM365 337q-30 0 -43 15.5t-13 34.5q0 50 66 50h135v-337q61 0 61 -50t-66 -50h-95v48q-37 -35 -66.5 -48t-70.5 -13q-79 0 -128.5 44.5t-49.5 124.5v181h-27q-25 0 -40 14t-15 36q0 29 17 39.5t49 10.5h116v-278q0 -72 88 -72q38 0 63 13.5
t64 54.5v182h-35h-10z" />
    <glyph glyph-name="uni01D7" unicode="&#x1d7;" 
d="M529 205q0 -97 -68 -158t-161 -61t-161 62t-68 157v200q-61 2 -61 50q0 29 17 39.5t49 10.5h130q32 0 49 -10t17 -40q0 -50 -66 -50h-35v-209q0 -46 38 -78t91 -32t91 32t38 78v209h-35q-66 0 -66 50q0 29 17 39.5t49 10.5h130q33 0 49.5 -10.5t16.5 -39.5q0 -50 -61 -50
v-200zM196 661q25 0 42.5 -17.5t17.5 -43.5q0 -24 -17.5 -41.5t-42.5 -17.5t-42.5 17.5t-17.5 42.5t17.5 42.5t42.5 17.5zM404 661q25 0 42.5 -17.5t17.5 -43.5q0 -24 -17.5 -41.5t-42.5 -17.5t-42.5 17.5t-17.5 42.5t17.5 42.5t42.5 17.5zM400 728l-68 -47q-23 -16 -32 -16
q-15 0 -26 11t-11 25q0 21 23 37l68 46q20 16 32 16q16 0 26.5 -10.5t10.5 -26.5q0 -19 -23 -35z" />
    <glyph glyph-name="uni01D8" unicode="&#x1d8;" 
d="M412 718l-85 -76q-18 -16 -32 -16q-15 0 -26 11t-11 25q0 17 23 37l85 75q20 16 32 16q16 0 26.5 -10.5t10.5 -26.5q0 -15 -23 -35zM190 607q25 0 42.5 -17.5t17.5 -43.5q0 -24 -17.5 -41.5t-42.5 -17.5t-42.5 17.5t-17.5 42.5t17.5 42.5t42.5 17.5zM398 607
q25 0 42.5 -17.5t17.5 -43.5q0 -24 -17.5 -41.5t-42.5 -17.5t-42.5 17.5t-17.5 42.5t17.5 42.5t42.5 17.5zM365 337q-30 0 -43 15.5t-13 34.5q0 50 66 50h135v-337q61 0 61 -50t-66 -50h-95v48q-37 -35 -66.5 -48t-70.5 -13q-79 0 -128.5 44.5t-49.5 124.5v181h-27
q-25 0 -40 14t-15 36q0 29 17 39.5t49 10.5h116v-278q0 -72 88 -72q38 0 63 13.5t64 54.5v182h-35h-10z" />
    <glyph glyph-name="uni01D9" unicode="&#x1d9;" 
d="M302 723l112 62q23 13 29 13q13 0 23.5 -10.5t10.5 -24.5q0 -16 -15 -28l-160 -101l-152 94q-24 15 -24 35q0 14 10.5 24.5t24.5 10.5q4 0 28 -13zM529 205q0 -97 -68 -158t-161 -61t-161 62t-68 157v200q-61 2 -61 50q0 29 17 39.5t49 10.5h130q32 0 49 -10t17 -40
q0 -50 -66 -50h-35v-209q0 -46 38 -78t91 -32t91 32t38 78v209h-35q-66 0 -66 50q0 29 17 39.5t49 10.5h130q33 0 49.5 -10.5t16.5 -39.5q0 -50 -61 -50v-200zM171 660q25 0 42.5 -17.5t17.5 -43.5q0 -24 -17.5 -41.5t-42.5 -17.5t-42.5 17.5t-17.5 42.5t17.5 42.5
t42.5 17.5zM432 660q25 0 42.5 -17.5t17.5 -43.5q0 -24 -17.5 -41.5t-42.5 -17.5t-42.5 17.5t-17.5 42.5t17.5 42.5t42.5 17.5z" />
    <glyph glyph-name="uni01DA" unicode="&#x1da;" 
d="M302 712l112 62q23 13 29 13q13 0 23.5 -10.5t10.5 -24.5q0 -16 -15 -28l-160 -101l-152 94q-16 10 -20 16.5t-4 18.5q0 14 10.5 24.5t24.5 10.5q4 0 28 -13zM365 337q-30 0 -43 15.5t-13 34.5q0 50 66 50h135v-337q61 0 61 -50t-66 -50h-95v48q-37 -35 -66.5 -48
t-70.5 -13q-79 0 -128.5 44.5t-49.5 124.5v181h-27q-25 0 -40 14t-15 36q0 29 17 39.5t49 10.5h116v-278q0 -72 88 -72q38 0 63 13.5t64 54.5v182h-35h-10zM190 604q26 0 43 -17.5t17 -43.5q0 -24 -17.5 -41.5t-42 -17.5t-42.5 17.5t-18 42.5t18 42.5t42 17.5zM398 604
q26 0 43 -17.5t17 -43.5q0 -24 -17.5 -41.5t-42 -17.5t-42.5 17.5t-18 42.5t18 42.5t42 17.5z" />
    <glyph glyph-name="uni01DB" unicode="&#x1db;" 
d="M232 784l95 -81q23 -20 23 -37q0 -14 -11 -25t-26 -11q-13 0 -32 16l-95 82q-23 18 -23 36q0 15 10.5 25.5t26.5 10.5q12 0 32 -16zM529 205q0 -97 -68 -158t-161 -61t-161 62t-68 157v200q-61 2 -61 50q0 29 17 39.5t49 10.5h130q32 0 49 -10t17 -40q0 -50 -66 -50h-35
v-209q0 -46 38 -78t91 -32t91 32t38 78v209h-35q-66 0 -66 50q0 29 17 39.5t49 10.5h130q33 0 49.5 -10.5t16.5 -39.5q0 -50 -61 -50v-200zM162 651q25 0 42.5 -17.5t17.5 -43.5q0 -24 -17.5 -41.5t-42.5 -17.5t-42.5 17.5t-17.5 42.5t17.5 42.5t42.5 17.5zM444 651
q25 0 42.5 -17.5t17.5 -43.5q0 -24 -17.5 -41.5t-42.5 -17.5t-42.5 17.5t-17.5 42.5t17.5 42.5t42.5 17.5z" />
    <glyph glyph-name="uni01DC" unicode="&#x1dc;" 
d="M214 784l95 -81q23 -20 23 -37q0 -14 -11 -25t-26 -11q-13 0 -32 16l-95 82q-23 18 -23 36q0 15 10.5 25.5t26.5 10.5q12 0 32 -16zM190 607q25 0 42.5 -17.5t17.5 -43.5q0 -24 -17.5 -41.5t-42.5 -17.5t-42.5 17.5t-17.5 42.5t17.5 42.5t42.5 17.5zM398 607
q25 0 42.5 -17.5t17.5 -43.5q0 -24 -17.5 -41.5t-42.5 -17.5t-42.5 17.5t-17.5 42.5t17.5 42.5t42.5 17.5zM365 337q-30 0 -43 15.5t-13 34.5q0 50 66 50h135v-337q61 0 61 -50t-66 -50h-95v48q-37 -35 -66.5 -48t-70.5 -13q-79 0 -128.5 44.5t-49.5 124.5v181h-27
q-25 0 -40 14t-15 36q0 29 17 39.5t49 10.5h116v-278q0 -72 88 -72q38 0 63 13.5t64 54.5v182h-35h-10z" />
    <glyph glyph-name="uni01DD" unicode="&#x1dd;" 
d="M33 367q0 32 58 52.5t108.5 25.5t86.5 5q116 0 190 -65t74 -167q0 -99 -74.5 -166.5t-183.5 -67.5q-112 0 -185.5 68t-73.5 171v39h408q-34 88 -164 88q-53 0 -118 -16.5t-78 -16.5q-20 0 -34 14.5t-14 35.5zM438 174h-294q12 -41 52 -65.5t95 -24.5t95.5 25t51.5 65z
" />
    <glyph glyph-name="uni01DE" unicode="&#x1de;" 
d="M350 42q0 25 17 34t49 9h23l-23 49h-238l-23 -49h23q66 0 66 -42.5t-66 -42.5h-133q-66 0 -66 42q0 26 17.5 34.5t49.5 8.5l155 326h-63q-31 0 -49 8.5t-18 33.5t17.5 34t49.5 9h216l199 -411q68 0 68 -42.5t-66 -42.5h-139q-66 0 -66 42zM375 219l-78 163l-79 -163h157z
M180 669q25 0 42.5 -17.5t17.5 -43.5q0 -24 -17.5 -41.5t-42.5 -17.5t-42.5 17.5t-17.5 42.5t17.5 42.5t42.5 17.5zM388 669q25 0 42.5 -17.5t17.5 -43.5q0 -24 -17.5 -41.5t-42.5 -17.5t-42.5 17.5t-17.5 42.5t17.5 42.5t42.5 17.5zM161 720q-53 0 -53 40t53 40h244
q53 0 53 -40t-53 -40h-244z" />
    <glyph glyph-name="uni01DF" unicode="&#x1df;" 
d="M167 668q-53 0 -53 40t53 40h244q53 0 53 -40t-53 -40h-244zM188 606q25 0 42.5 -17.5t17.5 -43.5q0 -24 -17.5 -41.5t-42.5 -17.5t-42.5 17.5t-17.5 42.5t17.5 42.5t42.5 17.5zM396 606q25 0 42.5 -17.5t17.5 -43.5q0 -24 -17.5 -41.5t-42.5 -17.5t-42.5 17.5
t-17.5 42.5t17.5 42.5t42.5 17.5zM42 119q0 68 67 118.5t175 50.5q45 0 104 -10v23q0 49 -93 49q-41 0 -93 -11.5t-63 -11.5q-21 0 -35 14.5t-14 36.5q0 32 30 42q85 30 172 30q92 0 144.5 -39t52.5 -109v-202h16q66 0 66 -50t-66 -50h-117v23q-75 -39 -166 -39
q-74 0 -127 39.5t-53 95.5zM389 135v50q-63 11 -111 11q-51 0 -90.5 -22t-39.5 -51q0 -17 22 -28t54 -11q82 0 165 51z" />
    <glyph glyph-name="uni01E0" unicode="&#x1e0;" 
d="M350 42q0 25 17 34t49 9h23l-23 49h-238l-23 -49h23q66 0 66 -42.5t-66 -42.5h-133q-66 0 -66 42q0 26 17.5 34.5t49.5 8.5l155 326h-63q-31 0 -49 8.5t-18 33.5t17.5 34t49.5 9h216l199 -411q68 0 68 -42.5t-66 -42.5h-139q-66 0 -66 42zM375 219l-78 163l-79 -163h157z
M294 673q25 0 42.5 -17.5t17.5 -43.5q0 -24 -17.5 -41.5t-42.5 -17.5t-42.5 17.5t-17.5 42.5t17.5 42.5t42.5 17.5zM172 720q-53 0 -53 40t53 40h244q53 0 53 -40t-53 -40h-244z" />
    <glyph glyph-name="uni01E1" unicode="&#x1e1;" 
d="M170 661q-53 0 -53 40t53 40h244q53 0 53 -40t-53 -40h-244zM292 610q25 0 42.5 -17.5t17.5 -43.5q0 -24 -17.5 -41.5t-42.5 -17.5t-42.5 17.5t-17.5 42.5t17.5 42.5t42.5 17.5zM42 119q0 68 67 118.5t175 50.5q45 0 104 -10v23q0 49 -93 49q-41 0 -93 -11.5t-63 -11.5
q-21 0 -35 14.5t-14 36.5q0 32 30 42q85 30 172 30q92 0 144.5 -39t52.5 -109v-202h16q66 0 66 -50t-66 -50h-117v23q-75 -39 -166 -39q-74 0 -127 39.5t-53 95.5zM389 135v50q-63 11 -111 11q-51 0 -90.5 -22t-39.5 -51q0 -17 22 -28t54 -11q82 0 165 51z" />
    <glyph glyph-name="uni01E2" unicode="&#x1e2;" 
d="M252 637q-53 0 -53 40t53 40h244q53 0 53 -40t-53 -40h-244zM-20 50q0 50 66 50h7l115 383h-14q-66 0 -66 50q0 29 17 39.5t49 10.5h439v-165q0 -66 -50 -66t-50 66v65h-126v-141h19q3 55 50 55q29 0 39.5 -17t10.5 -49v-78q0 -66 -50 -66q-23 0 -36 15t-14 41h-19v-143
h147v23q0 66 50 66q29 0 39.5 -17t10.5 -49v-123h-349q-26 0 -41 14t-15 38q0 20 14.5 34t35.5 14h8v58h-93l-17 -58q41 -6 41 -47q0 -53 -57 -53h-95q-66 0 -66 50zM267 259v212l-64 -212h64z" />
    <glyph glyph-name="uni01E3" unicode="&#x1e3;" 
d="M199 490q-53 0 -53 40t53 40h244q53 0 53 -40t-53 -40h-244zM435 450q74 0 125 -64.5t51 -167.5v-46h-251q13 -47 31.5 -67.5t49.5 -20.5q26 0 69.5 17t55.5 17q20 0 33 -15t13 -37q0 -23 -21 -40.5t-51 -25.5t-55 -12t-43 -4q-53 0 -100 32q-14 -17 -37 -17
q-21 0 -36 17q-51 -32 -110 -32q-78 0 -125 44t-47 117q0 39 25 69t61.5 44.5t67.5 21t54 6.5q17 0 60 -5v20q0 21 -13.5 35t-34.5 14q-20 0 -61 -12.5t-52 -12.5q-20 0 -34 15t-14 36q0 22 20.5 38t51 23t52.5 10t37 3q66 0 116 -56q52 56 112 56zM199 197q-49 0 -80 -15
t-31 -40q0 -26 19 -42t51 -16q43 0 97 46v59q-31 8 -56 8zM502 258q-14 92 -70 92q-55 0 -70 -92h140z" />
    <glyph glyph-name="uni01E4" unicode="&#x1e4;" 
d="M595 161q0 -29 -17 -39.5t-49 -10.5h-31v-63q-68 -36 -110.5 -49t-96.5 -13q-64 0 -114 17.5t-80 44t-49.5 62.5t-27 69t-7.5 67v71q0 117 79.5 198.5t204.5 81.5q70 0 134 -32q16 32 41 32q27 0 37 -16.5t10 -49.5v-78q0 -32 -10.5 -49t-39.5 -17q-7 0 -13.5 1.5
t-10.5 4t-7.5 6.5t-6 7.5t-4.5 9t-3 8.5t-2.5 8.5t-1.5 7.5q-7 25 -41 41t-77 16q-54 0 -93 -18t-59 -47t-28.5 -57.5t-8.5 -57.5v-64q0 -41 11.5 -72t29 -48.5t42 -28.5t45.5 -14.5t44 -3.5q57 0 113 25v100h-100q-66 0 -66 50q0 29 17 39.5t49 10.5h200v-100h31
q66 0 66 -50z" />
    <glyph glyph-name="uni01E5" unicode="&#x1e5;" 
d="M271 351q-57 0 -97.5 -38.5t-40.5 -93.5t40.5 -94t97.5 -39t98 38.5t41 92.5q0 56 -40.5 95t-98.5 39zM592 -50q0 -50 -66 -50h-36q-23 -46 -68.5 -73t-102.5 -27h-112q-66 0 -66 50q0 29 17 39.5t49 10.5h109q43 0 68.5 23t25.5 62v50q-66 -49 -141 -49
q-101 0 -168.5 66.5t-67.5 165.5q0 100 67.5 166.5t168.5 66.5q82 0 141 -50v36h116q66 0 66 -50t-66 -50h-16v-337h16q33 0 49.5 -10.5t16.5 -39.5z" />
    <glyph glyph-name="Gcaron" unicode="&#x1e6;" 
d="M315 716l112 62q23 13 29 13q13 0 23.5 -10.5t10.5 -24.5q0 -16 -15 -28l-160 -101l-152 94q-16 10 -20 16.5t-4 18.5q0 14 10.5 24.5t24.5 10.5q4 0 28 -13zM525 280q67 0 67 -50q0 -38 -42 -50v-132q-67 -35 -114 -48.5t-105 -13.5q-68 0 -122 16.5t-86 42.5t-53 61.5
t-29 69.5t-8 70v71q0 117 79.5 198.5t204.5 81.5q81 0 145 -32q16 32 41 32q27 0 37 -16.5t10 -49.5v-78q0 -32 -10.5 -49t-39.5 -17q-7 0 -13.5 1.5t-10.5 4t-7.5 6.5t-6 7.5t-4.5 9t-3 8.5t-2.5 8.5t-1.5 7.5q-8 26 -43 41.5t-90 15.5q-84 0 -134.5 -49.5t-50.5 -130.5
v-64q0 -167 192 -167q69 0 125 25v69h-100q-66 0 -66 50q0 29 17 39.5t49 10.5h175z" />
    <glyph glyph-name="gcaron" unicode="&#x1e7;" 
d="M285 553l112 62q23 13 29 13q13 0 23.5 -10.5t10.5 -24.5q0 -16 -15 -28l-160 -101l-152 94q-16 10 -20 16.5t-4 18.5q0 14 10.5 24.5t24.5 10.5q4 0 28 -13zM141 -150q0 29 17 39.5t49 10.5h109q44 0 69 21t25 59v55q-66 -49 -141 -49q-101 0 -168.5 66.5t-67.5 165.5
q0 100 67.5 166.5t168.5 66.5q82 0 141 -50v36h116q66 0 66 -50t-66 -50h-16v-357q0 -79 -54.5 -129.5t-136.5 -50.5h-112q-66 0 -66 50zM271 351q-57 0 -97.5 -38.5t-40.5 -93.5t40.5 -94t97.5 -39t98 38.5t41 92.5q0 56 -40.5 95t-98.5 39z" />
    <glyph glyph-name="uni01E8" unicode="&#x1e8;" 
d="M285 692l112 62q23 13 29 13q13 0 23.5 -10.5t10.5 -24.5q0 -16 -15 -28l-160 -101l-152 94q-16 10 -20 16.5t-4 18.5q0 14 10.5 24.5t24.5 10.5q4 0 28 -13zM295 533q0 -50 -66 -50h-35v-149l178 153q-31 12 -31 45q0 51 66 51h100q66 0 66 -50t-62 -50l-176 -153
q97 -51 169 -230h32q66 0 66 -50t-66 -50h-110q-35 107 -80.5 176t-91.5 83l-60 -51v-108h35q66 0 66 -50t-66 -50h-150q-66 0 -66 50t66 50h15v383h-15q-66 0 -66 50q0 29 17 39.5t49 10.5h150q66 0 66 -50z" />
    <glyph glyph-name="uni01E9" unicode="&#x1e9;" 
d="M318 716l112 62q23 13 29 13q13 0 23.5 -10.5t10.5 -24.5q0 -16 -15 -28l-160 -101l-152 94q-16 10 -20 16.5t-4 18.5q0 14 10.5 24.5t24.5 10.5q4 0 28 -13zM571 50q0 -50 -67 -50h-118q-66 0 -66 50q0 20 16 37l-103 91l-18 -14v-164h-116q-66 0 -66 50q0 29 17 39.5
t49 10.5h16v423h-16q-32 0 -49 10.5t-17 39.5q0 50 66 50h116v-336l79 63q-16 19 -16 37q0 50 67 50h112q33 0 49.5 -11t16.5 -39q0 -50 -66 -50h-28l-118 -96l160 -141h33q67 0 67 -50z" />
    <glyph glyph-name="uni01EA" unicode="&#x1ea;" 
d="M273 -124q14 0 38 12t35 12q16 0 27.5 -11t11.5 -27q0 -30 -39.5 -46t-79.5 -16q-44 0 -69 24t-25 65q0 34 16 54t60 48q-98 20 -162.5 105t-64.5 196q0 126 82 215.5t197 89.5q22 0 52 -6.5t71.5 -27.5t75 -53t57 -90.5t23.5 -132.5q0 -110 -67.5 -194.5t-167.5 -102.5
l-12 -9q-51 -34 -67 -49.5t-16 -35.5t24 -20zM300 497q-73 0 -126 -60.5t-53 -144.5q0 -85 52.5 -145.5t126.5 -60.5q73 0 126 60t53 143q0 86 -52.5 147t-126.5 61z" />
    <glyph glyph-name="uni01EB" unicode="&#x1eb;" 
d="M273 -124q14 0 38 12t35 12q16 0 27.5 -11t11.5 -27q0 -30 -39.5 -46t-79.5 -16q-44 0 -69 24t-25 65q0 34 15.5 52.5t59.5 47.5q-89 16 -147 79.5t-58 148.5q0 99 75 166t186 67q106 0 180.5 -68t74.5 -165q0 -87 -61 -151.5t-154 -78.5q-7 -5 -18.5 -13t-17.5 -11.5
t-14.5 -9.5t-12.5 -9t-9.5 -8t-8 -8t-6 -7.5t-4.5 -8t-2 -7.5t-1 -9q0 -20 24 -20zM302 350q-68 0 -114 -38t-46 -95q0 -56 45.5 -94.5t112.5 -38.5t112.5 38.5t45.5 94.5t-45.5 94.5t-110.5 38.5z" />
    <glyph glyph-name="uni01EC" unicode="&#x1ec;" 
d="M178 637q-53 0 -53 40t53 40h244q53 0 53 -40t-53 -40h-244zM273 -124q14 0 38 12t35 12q16 0 27.5 -11t11.5 -27q0 -30 -39.5 -46t-79.5 -16q-44 0 -69 24t-25 65q0 34 16 54t60 48q-98 20 -162.5 105t-64.5 196q0 126 82 215.5t197 89.5q22 0 52 -6.5t71.5 -27.5
t75 -53t57 -90.5t23.5 -132.5q0 -110 -67.5 -194.5t-167.5 -102.5l-12 -9q-51 -34 -67 -49.5t-16 -35.5t24 -20zM300 497q-73 0 -126 -60.5t-53 -144.5q0 -85 52.5 -145.5t126.5 -60.5q73 0 126 60t53 143q0 86 -52.5 147t-126.5 61z" />
    <glyph glyph-name="uni01ED" unicode="&#x1ed;" 
d="M181 490q-53 0 -53 40t53 40h244q53 0 53 -40t-53 -40h-244zM273 -124q14 0 38 12t35 12q16 0 27.5 -11t11.5 -27q0 -30 -39.5 -46t-79.5 -16q-44 0 -69 24t-25 65q0 34 15.5 52.5t59.5 47.5q-89 16 -147 79.5t-58 148.5q0 99 75 166t186 67q106 0 180.5 -68t74.5 -165
q0 -87 -61 -151.5t-154 -78.5q-7 -5 -18.5 -13t-17.5 -11.5t-14.5 -9.5t-12.5 -9t-9.5 -8t-8 -8t-6 -7.5t-4.5 -8t-2 -7.5t-1 -9q0 -20 24 -20zM302 350q-68 0 -114 -38t-46 -95q0 -56 45.5 -94.5t112.5 -38.5t112.5 38.5t45.5 94.5t-45.5 94.5t-110.5 38.5z" />
    <glyph glyph-name="uni01EE" unicode="&#x1ee;" 
d="M301 683l112 62q23 13 29 13q13 0 23.5 -10.5t10.5 -24.5q0 -16 -15 -28l-160 -101l-152 94q-16 10 -20 16.5t-4 18.5q0 14 10.5 24.5t24.5 10.5q4 0 28 -13zM146 395q-50 0 -50 66v122h408v-97l-119 -152h7q74 0 122.5 -53.5t48.5 -126.5q0 -69 -40.5 -117t-95 -67.5
t-113.5 -19.5q-81 0 -151.5 35t-108.5 83q-10 13 -10 30q0 8 3 18t15.5 21t31.5 11q13 0 34 -15.5t42.5 -33.5t60.5 -33.5t83 -15.5q68 0 108.5 26.5t40.5 77.5q0 41 -19 60.5t-60 19.5h-126q-21 0 -35.5 14.5t-14.5 35.5t14.5 35.5t35.5 14.5l117 149h-179v-22
q0 -66 -50 -66z" />
    <glyph glyph-name="uni01ef" unicode="&#x1ef;" 
d="M124 188v4q1 4 1.5 8t4 10t8.5 11l136 130h-138q-21 0 -35 13.5t-14 31.5q0 21 14 33.5t35 12.5h273q21 0 37 -12.5t16 -32.5q0 -14 -12.5 -30t-40.5 -16h-6l-87 -82q62 -17 97.5 -77.5t35.5 -133.5q0 -97 -53 -169t-136 -72q-39 0 -77 16.5t-56 31.5t-42 38
q-15 13 -15 33q0 19 13.5 32t30.5 13q7 0 16 -3q13 -5 33.5 -23.5t44 -33t52.5 -14.5q38 0 68.5 45t30.5 106q0 53 -26.5 90t-60.5 37q-19 0 -29 -2.5t-14 -5.5t-14 -13q-20 -20 -47 -20q-20 0 -32 13.5t-12 30.5zM273 560l112 62q23 13 29 13q13 0 23.5 -10.5t10.5 -24.5
q0 -16 -15 -28l-160 -101l-152 94q-16 10 -20 16.5t-4 18.5q0 14 10.5 24.5t24.5 10.5q4 0 28 -13z" />
    <glyph glyph-name="uni01F0" unicode="&#x1f0;" 
d="M117 -150q0 29 17.5 39.5t48.5 10.5h111q43 0 68.5 23t25.5 62v352h-202q-66 0 -66 50q0 29 17 39.5t49 10.5h302v-452q0 -79 -54.5 -132t-136.5 -53h-114q-66 0 -66 50zM331 559l112 62q23 13 29 13q13 0 23.5 -10.5t10.5 -24.5q0 -16 -15 -28l-160 -101l-152 94
q-16 10 -20 16.5t-4 18.5q0 14 10.5 24.5t24.5 10.5q4 0 28 -13z" />
    <glyph glyph-name="uni01f1" unicode="&#x1f1;" 
d="M136 92q25 0 41.5 6t33 23t25 54.5t8.5 95.5v55q0 32 -3 56.5t-13 53t-33.5 44.5t-58.5 16v-404zM588 0h-284v90l176 406h-67v-93q-5 -53 -45 -53q-26 4 -35 16q2 -27 2 -57v-29q0 -280 -191 -280h-92q-28 0 -40 14.5t-12 32.5q0 41 45 45v404q-24 2 -34.5 16t-10.5 30v4
q1 5 1.5 7t2.5 7t4 8t6 7t9 6.5t12.5 4t16.5 1.5h92q141 0 178 -153v153h258v-88l-176 -407h93v116q0 28 14 40t31 12q18 0 32 -12t14 -40v-208z" />
    <glyph glyph-name="uni01f2" unicode="&#x1f2;" 
d="M136 91q63 0 85.5 30.5t22.5 123.5v82q0 95 -22.5 132.5t-85.5 37.5v-406zM581 442v-67l-159 -284h83v31q0 28 14 40t32 12q45 0 45 -52v-122h-296v67l157 284h-49v-30q-5 -52 -45 -52q-16 0 -28 9v-24q0 -143 -48.5 -198.5t-142.5 -55.5h-92q-28 0 -40 14t-12 32l1 5
t1 6.5t2 6.5t3.5 7.5t5 6.5t8 6t10.5 4t14 3v406q-24 2 -34.5 16t-10.5 30v5l1.5 6t2.5 7t4 8t6 7t9 6.5t12.5 4t16.5 1.5h92q138 0 176 -146h261z" />
    <glyph glyph-name="uni01f3" unicode="&#x1f3;" 
d="M191 439v99h-29q-28 0 -40 14t-12 32l1 5q1 5 1.5 8t3 8.5t6 9t8.5 7t13.5 5.5t18.5 2h120v-538h16l144 260h-57v-30q0 -18 -12 -35t-33 -17q-18 0 -32 12t-14 40v121h272v-67l-159 -284h83v31q0 28 14 40t32 12l5 -1q5 -1 8 -1.5t8.5 -3t9 -6t7 -8.5t5.5 -13.5t2 -18.5
v-122h-382q-24 -16 -75 -16q-34 0 -59 21.5t-38 58t-18.5 75.5t-5.5 83q0 47 4 83t16 73t37 57.5t63 20.5q41 0 68 -17zM128 75q63 2 63 145q0 68 -17.5 106.5t-46.5 38.5q-7 0 -14 -11.5t-13 -46.5t-6 -87q0 -60 11 -99.5t23 -45.5z" />
    <glyph glyph-name="uni01F4" unicode="&#x1f4;" 
d="M431 728l-85 -76q-18 -16 -32 -16q-15 0 -26 11t-11 25q0 17 23 37l85 75q20 16 32 16q16 0 26.5 -10.5t10.5 -26.5q0 -15 -23 -35zM525 280q67 0 67 -50q0 -38 -42 -50v-132q-67 -35 -114 -48.5t-105 -13.5q-68 0 -122 16.5t-86 42.5t-53 61.5t-29 69.5t-8 70v71
q0 117 79.5 198.5t204.5 81.5q81 0 145 -32q16 32 41 32q27 0 37 -16.5t10 -49.5v-78q0 -32 -10.5 -49t-39.5 -17q-7 0 -13.5 1.5t-10.5 4t-7.5 6.5t-6 7.5t-4.5 9t-3 8.5t-2.5 8.5t-1.5 7.5q-8 26 -43 41.5t-90 15.5q-84 0 -134.5 -49.5t-50.5 -130.5v-64q0 -167 192 -167
q69 0 125 25v69h-100q-66 0 -66 50q0 29 17 39.5t49 10.5h175z" />
    <glyph glyph-name="uni01F5" unicode="&#x1f5;" 
d="M386 583l-85 -76q-18 -16 -32 -16q-15 0 -26 11t-11 25q0 17 23 37l85 75q20 16 32 16q16 0 26.5 -10.5t10.5 -26.5q0 -15 -23 -35zM141 -150q0 29 17 39.5t49 10.5h109q44 0 69 21t25 59v55q-66 -49 -141 -49q-101 0 -168.5 66.5t-67.5 165.5q0 100 67.5 166.5
t168.5 66.5q82 0 141 -50v36h116q66 0 66 -50t-66 -50h-16v-357q0 -79 -54.5 -129.5t-136.5 -50.5h-112q-66 0 -66 50zM271 351q-57 0 -97.5 -38.5t-40.5 -93.5t40.5 -94t97.5 -39t98 38.5t41 92.5q0 56 -40.5 95t-98.5 39z" />
    <glyph glyph-name="uni01F6" unicode="&#x1f6;" 
d="M352 583q66 0 66 -50q0 -45 -52 -50v-383h14q88 0 88 72v178h-27q-25 0 -40 14t-15 36q0 29 17 39.5t49 10.5h116v-281q0 -48 -17 -83t-45.5 -52.5t-57 -25.5t-58.5 -8h-124v241h-71v-241h-106q-66 0 -66 50q0 29 17 39.5t49 10.5h6v383q-52 5 -52 50q0 29 17 39.5
t49 10.5h86v-242h71v242h86z" />
    <glyph glyph-name="uni01f7" unicode="&#x1f7;" 
d="M202 541q79 56 200 56q76 0 123.5 -34t47.5 -101q0 -95 -84 -180l-310 -303v-88h73q52 -5 52 -45q0 -18 -12 -32t-40 -14h-193q-28 0 -40 14t-12 32l1 4q0 5 0.5 7t2.5 7t4 8t6 7t9 6.5t12.5 4t16.5 1.5h29v606h-29q-28 0 -40 14t-12 32l1 5q0 4 0.5 6t2.5 7t4 8t6 7
t9 6.5t12.5 4t16.5 1.5h120v-63zM179 413v-307l244 240q60 59 60 116q0 25 -16 35t-65 10t-82 -9t-66 -31z" />
    <glyph glyph-name="uni01F8" unicode="&#x1f8;" 
d="M230 784l95 -81q23 -20 23 -37q0 -14 -11 -25t-26 -11q-13 0 -32 16l-95 82q-23 18 -23 36q0 15 10.5 25.5t26.5 10.5q12 0 32 -16zM526 583q66 0 66 -50t-61 -50v-483h-99l-259 394v-294h35q32 0 49 -10.5t17 -39.5q0 -50 -66 -50h-129q-67 0 -67 50t61 50v383h-15
q-66 0 -66 50q0 29 17 39.5t49 10.5h115l258 -392v292h-35q-66 0 -66 50q0 29 17 39.5t49 10.5h130z" />
    <glyph glyph-name="uni01F9" unicode="&#x1f9;" 
d="M216 644l95 -81q23 -20 23 -37q0 -14 -11 -25t-26 -11q-13 0 -32 16l-95 82q-23 18 -23 36q0 15 10.5 25.5t26.5 10.5q12 0 32 -16zM23 50q0 50 66 50h6v237q-61 2 -61 50q0 50 67 50h94v-48q36 34 66 47.5t71 13.5q78 0 128 -44t50 -124v-182q61 0 61 -50t-66 -50h-89
q-67 0 -67 50t61 50v178q0 72 -90 72q-35 0 -62.5 -15t-62.5 -53v-182h6q66 0 66 -50t-66 -50h-112q-66 0 -66 50z" />
    <glyph glyph-name="Aringacute" unicode="&#x1fa;" 
d="M342 728l-85 -76q-18 -16 -32 -16q-15 0 -26 11t-11 25q0 17 23 37l85 75q20 16 32 16q16 0 26.5 -10.5t10.5 -26.5q0 -15 -23 -35zM350 38q0 22 17 30t49 8h23l-23 45h-238l-23 -45h23q66 0 66 -38t-66 -38h-133q-66 0 -66 38q0 23 17.5 30.5t49.5 7.5l155 293h-63
q-67 0 -67 39q0 22 17.5 30t49.5 8h216l199 -370q68 0 68 -38t-66 -38h-139q-66 0 -66 38zM375 197l-78 147l-79 -147h157zM299 641q39 0 66 -26.5t27 -65.5q0 -36 -27.5 -62.5t-65.5 -26.5t-65.5 26.5t-27.5 64.5q0 37 27.5 63.5t65.5 26.5zM299 579q-12 0 -21 -8.5
t-9 -19.5q0 -12 9 -20.5t21 -8.5t21 8.5t9 19.5q0 12 -9 20.5t-21 8.5z" />
    <glyph glyph-name="aringacute" unicode="&#x1fb;" 
d="M406 727l-85 -76q-18 -16 -32 -16q-15 0 -26 11t-11 25q0 17 23 37l85 75q20 16 32 16q16 0 26.5 -10.5t10.5 -26.5q0 -15 -23 -35zM42 107q0 62 67 107t175 45q45 0 104 -9v21q0 44 -93 44q-41 0 -93 -10.5t-63 -10.5q-21 0 -35 13.5t-14 32.5q0 29 30 38q85 27 172 27
q92 0 144.5 -35.5t52.5 -97.5v-182h16q66 0 66 -45t-66 -45h-117v21q-75 -35 -166 -35q-74 0 -127 35.5t-53 85.5zM389 122v44q-63 10 -111 10q-51 0 -90.5 -20t-39.5 -45q0 -15 22 -25t54 -10q82 0 165 46zM289 618q39 0 66 -26.5t27 -65.5q0 -36 -27.5 -62.5t-65.5 -26.5
t-65.5 27t-27.5 64t27.5 63.5t65.5 26.5zM289 556q-12 0 -21 -8.5t-9 -19.5q0 -12 9 -20.5t21 -8.5t21 8.5t9 19.5q0 12 -9 20.5t-21 8.5z" />
    <glyph glyph-name="AEacute" unicode="&#x1fc;" 
d="M490 728l-85 -76q-18 -16 -32 -16q-15 0 -26 11t-11 25q0 17 23 37l85 75q20 16 32 16q16 0 26.5 -10.5t10.5 -26.5q0 -15 -23 -35zM-20 50q0 50 66 50h7l115 383h-14q-66 0 -66 50q0 29 17 39.5t49 10.5h439v-165q0 -66 -50 -66t-50 66v65h-126v-141h19q3 55 50 55
q29 0 39.5 -17t10.5 -49v-78q0 -66 -50 -66q-23 0 -36 15t-14 41h-19v-143h147v23q0 66 50 66q29 0 39.5 -17t10.5 -49v-123h-349q-26 0 -41 14t-15 38q0 20 14.5 34t35.5 14h8v58h-93l-17 -58q41 -6 41 -47q0 -53 -57 -53h-95q-66 0 -66 50zM267 259v212l-64 -212h64z" />
    <glyph glyph-name="aeacute" unicode="&#x1fd;" 
d="M438 582l-85 -76q-18 -16 -32 -16q-15 0 -26 11t-11 25q0 17 23 37l85 75q20 16 32 16q16 0 26.5 -10.5t10.5 -26.5q0 -15 -23 -35zM435 450q74 0 125 -64.5t51 -167.5v-46h-251q13 -47 31.5 -67.5t49.5 -20.5q26 0 69.5 17t55.5 17q20 0 33 -15t13 -37q0 -23 -21 -40.5
t-51 -25.5t-55 -12t-43 -4q-53 0 -100 32q-14 -17 -37 -17q-21 0 -36 17q-51 -32 -110 -32q-78 0 -125 44t-47 117q0 39 25 69t61.5 44.5t67.5 21t54 6.5q17 0 60 -5v20q0 21 -13.5 35t-34.5 14q-20 0 -61 -12.5t-52 -12.5q-20 0 -34 15t-14 36q0 22 20.5 38t51 23t52.5 10
t37 3q66 0 116 -56q52 56 112 56zM199 197q-49 0 -80 -15t-31 -40q0 -26 19 -42t51 -16q43 0 97 46v59q-31 8 -56 8zM502 258q-14 92 -70 92q-55 0 -70 -92h140z" />
    <glyph glyph-name="Oslashacute" unicode="&#x1fe;" 
d="M413 728l-85 -76q-18 -16 -32 -16q-15 0 -26 11t-11 25q0 17 23 37l85 75q20 16 32 16q16 0 26.5 -10.5t10.5 -26.5q0 -15 -23 -35zM159 28l-54 -68q-15 -19 -24 -24.5t-23 -5.5q-20 0 -34.5 14t-14.5 33q0 16 21 42l57 73q-67 88 -67 200q0 126 82 215.5t198 89.5
q77 0 149 -48l46 58q14 19 23.5 25t23.5 6q20 0 34 -14t14 -34q0 -16 -20 -42l-52 -65q61 -80 61 -192q0 -126 -82 -215.5t-197 -89.5q-74 0 -141 42zM452 400l-231 -293q37 -21 79 -21q73 0 126 60.5t53 143.5q0 61 -27 110zM152 174l235 297q-44 26 -88 26
q-73 0 -126 -60.5t-53 -144.5q0 -64 32 -118z" />
    <glyph glyph-name="oslashacute" unicode="&#x1ff;" 
d="M411 596l-85 -76q-18 -16 -32 -16q-15 0 -26 11t-11 25q0 17 23 37l85 75q20 16 32 16q16 0 26.5 -10.5t10.5 -26.5q0 -15 -23 -35zM548 402l-42 -43q52 -66 52 -142q0 -98 -75 -165.5t-183 -67.5q-66 0 -128 30l-56 -58q-26 -26 -45 -26q-20 0 -34 14t-14 34q0 19 25 44
l48 50q-54 67 -54 145q0 97 74.5 165t181.5 68q75 0 134 -31l48 49q26 26 46 26t33.5 -14t13.5 -33t-25 -45zM436 286l-189 -195q25 -7 52 -7q67 0 113 38.5t46 94.5q0 34 -22 69zM167 145l190 197q-34 8 -57 8q-67 0 -112.5 -38.5t-45.5 -94.5q0 -38 25 -72z" />
    <glyph glyph-name="uni0200" unicode="&#x200;" 
d="M83 781l95 -81q23 -20 23 -37q0 -14 -11 -25t-26 -11q-13 0 -32 16l-95 82q-23 18 -23 36q0 15 10.5 25.5t26.5 10.5q12 0 32 -16zM245 781l95 -81q23 -20 23 -37q0 -14 -11 -25t-26 -11q-13 0 -32 16l-95 82q-23 18 -23 36q0 15 10.5 25.5t26.5 10.5q12 0 32 -16z
M350 50q0 29 17 39.5t49 10.5h23l-23 58h-238l-23 -58h23q66 0 66 -50t-66 -50h-133q-66 0 -66 50q0 30 17.5 40t49.5 10l155 383h-63q-67 0 -67 50q0 30 17.5 40t49.5 10h216l199 -483q68 0 68 -50t-66 -50h-139q-66 0 -66 50zM375 258l-78 192l-79 -192h157z" />
    <glyph glyph-name="uni0201" unicode="&#x201;" 
d="M195 664l95 -81q23 -20 23 -37q0 -14 -11 -25t-26 -11q-13 0 -32 16l-95 82q-23 18 -23 36q0 15 10.5 25.5t26.5 10.5q12 0 32 -16zM357 664l95 -81q23 -20 23 -37q0 -14 -11 -25t-26 -11q-13 0 -32 16l-95 82q-23 18 -23 36q0 15 10.5 25.5t26.5 10.5q12 0 32 -16z
M42 119q0 68 67 118.5t175 50.5q45 0 104 -10v23q0 49 -93 49q-41 0 -93 -11.5t-63 -11.5q-21 0 -35 14.5t-14 36.5q0 32 30 42q85 30 172 30q92 0 144.5 -39t52.5 -109v-202h16q66 0 66 -50t-66 -50h-117v23q-75 -39 -166 -39q-74 0 -127 39.5t-53 95.5zM389 135v50
q-63 11 -111 11q-51 0 -90.5 -22t-39.5 -51q0 -17 22 -28t54 -11q82 0 165 51z" />
    <glyph glyph-name="uni0202" unicode="&#x202;" 
d="M437 605q-15 0 -22 6.5t-12 25.5t-36.5 36t-70.5 17t-70 -17t-37 -36q-6 -20 -12.5 -26t-21.5 -6q-34 0 -34 33q0 46 53.5 83t121.5 37t121.5 -37.5t53.5 -83.5q0 -32 -34 -32zM350 50q0 29 17 39.5t49 10.5h23l-23 58h-238l-23 -58h23q66 0 66 -50t-66 -50h-133
q-66 0 -66 50q0 30 17.5 40t49.5 10l155 383h-63q-67 0 -67 50q0 30 17.5 40t49.5 10h216l199 -483q68 0 68 -50t-66 -50h-139q-66 0 -66 50zM375 258l-78 192l-79 -192h157z" />
    <glyph glyph-name="uni0203" unicode="&#x203;" 
d="M439 463q-15 0 -22 6.5t-12 25.5t-36.5 36t-70.5 17t-70 -17t-37 -36q-6 -20 -12.5 -26t-21.5 -6q-34 0 -34 33q0 46 53.5 83t121.5 37t121.5 -37.5t53.5 -83.5q0 -32 -34 -32zM42 119q0 68 67 118.5t175 50.5q45 0 104 -10v23q0 49 -93 49q-41 0 -93 -11.5t-63 -11.5
q-21 0 -35 14.5t-14 36.5q0 32 30 42q85 30 172 30q92 0 144.5 -39t52.5 -109v-202h16q66 0 66 -50t-66 -50h-117v23q-75 -39 -166 -39q-74 0 -127 39.5t-53 95.5zM389 135v50q-63 11 -111 11q-51 0 -90.5 -22t-39.5 -51q0 -17 22 -28t54 -11q82 0 165 51z" />
    <glyph glyph-name="uni0204" unicode="&#x204;" 
d="M141 782l95 -81q23 -20 23 -37q0 -14 -11 -25t-26 -11q-13 0 -32 16l-95 82q-23 18 -23 36q0 15 10.5 25.5t26.5 10.5q12 0 32 -16zM303 782l95 -81q23 -20 23 -37q0 -14 -11 -25t-26 -11q-13 0 -32 16l-95 82q-23 18 -23 36q0 15 10.5 25.5t26.5 10.5q12 0 32 -16z
M500 219q50 0 50 -67v-152h-471q-66 0 -66 50t66 50h15v383h-15q-66 0 -66 50q0 29 17 39.5t49 10.5h449v-150q0 -67 -50 -67t-50 67v50h-234v-141h85v7q0 67 49 67q50 0 50 -67v-113q0 -66 -49 -66q-50 0 -50 66v7h-85v-143h256v52q0 67 50 67z" />
    <glyph glyph-name="uni0205" unicode="&#x205;" 
d="M128 668l95 -81q23 -20 23 -37q0 -14 -11 -25t-26 -11q-13 0 -32 16l-95 82q-23 18 -23 36q0 15 10.5 25.5t26.5 10.5q12 0 32 -16zM290 668l95 -81q23 -20 23 -37q0 -14 -11 -25t-26 -11q-13 0 -32 16l-95 82q-23 18 -23 36q0 15 10.5 25.5t26.5 10.5q12 0 32 -16z
M550 67q0 -32 -58 -52.5t-108.5 -25.5t-86.5 -5q-116 0 -190 65t-74 167q0 99 74.5 166.5t183.5 67.5q112 0 185.5 -68t73.5 -171v-39h-408q34 -88 164 -88q53 0 118 16.5t78 16.5q20 0 34 -14.5t14 -35.5zM145 260h294q-12 41 -52 65.5t-95 24.5t-95.5 -25t-51.5 -65z" />
    <glyph glyph-name="uni0206" unicode="&#x206;" 
d="M443 605q-15 0 -22 6.5t-12 25.5t-36.5 36t-70.5 17t-70 -17t-37 -36q-6 -20 -12.5 -26t-21.5 -6q-34 0 -34 33q0 46 53.5 83t121.5 37t121.5 -37.5t53.5 -83.5q0 -32 -34 -32zM500 219q50 0 50 -67v-152h-471q-66 0 -66 50t66 50h15v383h-15q-66 0 -66 50q0 29 17 39.5
t49 10.5h449v-150q0 -67 -50 -67t-50 67v50h-234v-141h85v7q0 67 49 67q50 0 50 -67v-113q0 -66 -49 -66q-50 0 -50 66v7h-85v-143h256v52q0 67 50 67z" />
    <glyph glyph-name="uni0207" unicode="&#x207;" 
d="M430 475q-15 0 -22 6.5t-12 25.5t-36.5 36t-70.5 17t-70 -17t-37 -36q-6 -20 -12.5 -26t-21.5 -6q-34 0 -34 33q0 46 53.5 83t121.5 37t121.5 -37.5t53.5 -83.5q0 -32 -34 -32zM550 67q0 -32 -58 -52.5t-108.5 -25.5t-86.5 -5q-116 0 -190 65t-74 167q0 99 74.5 166.5
t183.5 67.5q112 0 185.5 -68t73.5 -171v-39h-408q34 -88 164 -88q53 0 118 16.5t78 16.5q20 0 34 -14.5t14 -35.5zM145 260h294q-12 41 -52 65.5t-95 24.5t-95.5 -25t-51.5 -65z" />
    <glyph glyph-name="uni0208" unicode="&#x208;" 
d="M137 784l95 -81q23 -20 23 -37q0 -14 -11 -25t-26 -11q-13 0 -32 16l-95 82q-23 18 -23 36q0 15 10.5 25.5t26.5 10.5q12 0 32 -16zM299 784l95 -81q23 -20 23 -37q0 -14 -11 -25t-26 -11q-13 0 -32 16l-95 82q-23 18 -23 36q0 15 10.5 25.5t26.5 10.5q12 0 32 -16z
M451 100q32 0 49 -10.5t17 -39.5q0 -50 -66 -50h-302q-66 0 -66 50q0 29 17 39.5t49 10.5h101v383h-101q-66 0 -66 50q0 29 17 39.5t49 10.5h302q32 0 49 -10.5t17 -39.5q0 -50 -66 -50h-101v-383h101z" />
    <glyph glyph-name="uni0209" unicode="&#x209;" 
d="M137 668l95 -81q23 -20 23 -37q0 -14 -11 -25t-26 -11q-13 0 -32 16l-95 82q-23 18 -23 36q0 15 10.5 25.5t26.5 10.5q12 0 32 -16zM299 668l95 -81q23 -20 23 -37q0 -14 -11 -25t-26 -11q-13 0 -32 16l-95 82q-23 18 -23 36q0 15 10.5 25.5t26.5 10.5q12 0 32 -16z
M105 387q0 30 17.5 40t49.5 10h178v-337h122q66 0 66 -50t-66 -50h-344q-66 0 -66 50q0 29 17 39.5t49 10.5h122v237h-78q-67 0 -67 50z" />
    <glyph glyph-name="uni020A" unicode="&#x20a;" 
d="M439 604q-15 0 -22 6.5t-12 25.5t-36.5 36t-70.5 17t-70 -17t-37 -36q-6 -20 -12.5 -26t-21.5 -6q-34 0 -34 33q0 46 53.5 83t121.5 37t121.5 -37.5t53.5 -83.5q0 -32 -34 -32zM451 100q32 0 49 -10.5t17 -39.5q0 -50 -66 -50h-302q-66 0 -66 50q0 29 17 39.5t49 10.5
h101v383h-101q-66 0 -66 50q0 29 17 39.5t49 10.5h302q32 0 49 -10.5t17 -39.5q0 -50 -66 -50h-101v-383h101z" />
    <glyph glyph-name="uni020B" unicode="&#x20b;" 
d="M439 470q-15 0 -22 6.5t-12 25.5t-36.5 36t-70.5 17t-70 -17t-37 -36q-6 -20 -12.5 -26t-21.5 -6q-34 0 -34 33q0 46 53.5 83t121.5 37t121.5 -37.5t53.5 -83.5q0 -32 -34 -32zM105 387q0 30 17.5 40t49.5 10h178v-337h122q66 0 66 -50t-66 -50h-344q-66 0 -66 50
q0 29 17 39.5t49 10.5h122v237h-78q-67 0 -67 50z" />
    <glyph glyph-name="uni020C" unicode="&#x20c;" 
d="M137 779l95 -81q23 -20 23 -37q0 -14 -11 -25t-26 -11q-13 0 -32 16l-95 82q-23 18 -23 36q0 15 10.5 25.5t26.5 10.5q12 0 32 -16zM299 779l95 -81q23 -20 23 -37q0 -14 -11 -25t-26 -11q-13 0 -32 16l-95 82q-23 18 -23 36q0 15 10.5 25.5t26.5 10.5q12 0 32 -16z
M300 597q22 0 52 -6.5t71.5 -27.5t75 -53t57 -90.5t23.5 -132.5q0 -123 -82.5 -212t-196.5 -89q-116 0 -197.5 89.5t-81.5 216.5q0 126 82 215.5t197 89.5zM300 497q-73 0 -126 -60.5t-53 -144.5q0 -85 52.5 -145.5t126.5 -60.5q73 0 126 60t53 143q0 86 -52.5 147
t-126.5 61z" />
    <glyph glyph-name="uni020D" unicode="&#x20d;" 
d="M140 668l95 -81q23 -20 23 -37q0 -14 -11 -25t-26 -11q-13 0 -32 16l-95 82q-23 18 -23 36q0 15 10.5 25.5t26.5 10.5q12 0 32 -16zM302 668l95 -81q23 -20 23 -37q0 -14 -11 -25t-26 -11q-13 0 -32 16l-95 82q-23 18 -23 36q0 15 10.5 25.5t26.5 10.5q12 0 32 -16z
M303 450q106 0 180.5 -68t74.5 -165q0 -98 -75 -165.5t-183 -67.5t-183 67.5t-75 165.5q0 99 75 166t186 67zM302 350q-68 0 -114 -38t-46 -95q0 -56 45.5 -94.5t112.5 -38.5t112.5 38.5t45.5 94.5t-45.5 94.5t-110.5 38.5z" />
    <glyph glyph-name="uni020E" unicode="&#x20e;" 
d="M439 600q-15 0 -22 6.5t-12 25.5t-36.5 36t-70.5 17t-70 -17t-37 -36q-6 -20 -12.5 -26t-21.5 -6q-34 0 -34 33q0 46 53.5 83t121.5 37t121.5 -37.5t53.5 -83.5q0 -32 -34 -32zM300 597q22 0 52 -6.5t71.5 -27.5t75 -53t57 -90.5t23.5 -132.5q0 -123 -82.5 -212
t-196.5 -89q-116 0 -197.5 89.5t-81.5 216.5q0 126 82 215.5t197 89.5zM300 497q-73 0 -126 -60.5t-53 -144.5q0 -85 52.5 -145.5t126.5 -60.5q73 0 126 60t53 143q0 86 -52.5 147t-126.5 61z" />
    <glyph glyph-name="uni020F" unicode="&#x20f;" 
d="M442 470q-15 0 -22 6.5t-12 25.5t-36.5 36t-70.5 17t-70 -17t-37 -36q-6 -20 -12.5 -26t-21.5 -6q-34 0 -34 33q0 46 53.5 83t121.5 37t121.5 -37.5t53.5 -83.5q0 -32 -34 -32zM303 450q106 0 180.5 -68t74.5 -165q0 -98 -75 -165.5t-183 -67.5t-183 67.5t-75 165.5
q0 99 75 166t186 67zM302 350q-68 0 -114 -38t-46 -95q0 -56 45.5 -94.5t112.5 -38.5t112.5 38.5t45.5 94.5t-45.5 94.5t-110.5 38.5z" />
    <glyph glyph-name="uni0210" unicode="&#x210;" 
d="M87 784l95 -81q23 -20 23 -37q0 -14 -11 -25t-26 -11q-13 0 -32 16l-95 82q-23 18 -23 36q0 15 10.5 25.5t26.5 10.5q12 0 32 -16zM249 784l95 -81q23 -20 23 -37q0 -14 -11 -25t-26 -11q-13 0 -32 16l-95 82q-23 18 -23 36q0 15 10.5 25.5t26.5 10.5q12 0 32 -16z
M619 50q0 -50 -66 -50h-79q-37 72 -94.5 141.5t-89.5 80.5h-96v-122h35q66 0 66 -50t-66 -50h-150q-66 0 -66 50t66 50h15v383h-15q-66 0 -66 50q0 29 17 39.5t49 10.5h223q97 0 158.5 -49.5t61.5 -128.5q0 -92 -108 -151q65 -57 126 -154h13q66 0 66 -50zM194 322h76
q63 0 104.5 24.5t41.5 61.5q0 32 -31 53.5t-79 21.5h-112v-161z" />
    <glyph glyph-name="uni0211" unicode="&#x211;" 
d="M149 668l95 -81q23 -20 23 -37q0 -14 -11 -25t-26 -11q-13 0 -32 16l-95 82q-23 18 -23 36q0 15 10.5 25.5t26.5 10.5q12 0 32 -16zM311 668l95 -81q23 -20 23 -37q0 -14 -11 -25t-26 -11q-13 0 -32 16l-95 82q-23 18 -23 36q0 15 10.5 25.5t26.5 10.5q12 0 32 -16z
M445 449q42 0 84 -26t42 -59q0 -21 -15 -36t-35 -15q-17 0 -39 18t-39 18q-24 0 -58.5 -21.5t-106.5 -80.5v-147h139q67 0 67 -50t-67 -50h-297q-66 0 -66 50q0 29 17 39.5t49 10.5h58v237h-35q-66 0 -66 50t66 50h135v-65q60 45 95 61t72 16z" />
    <glyph glyph-name="uni0212" unicode="&#x212;" 
d="M421 603q-15 0 -22 6.5t-12 25.5t-36.5 36t-70.5 17t-70 -17t-37 -36q-6 -20 -12.5 -26t-21.5 -6q-34 0 -34 33q0 46 53.5 83t121.5 37t121.5 -37.5t53.5 -83.5q0 -32 -34 -32zM619 50q0 -50 -66 -50h-79q-37 72 -94.5 141.5t-89.5 80.5h-96v-122h35q66 0 66 -50t-66 -50
h-150q-66 0 -66 50t66 50h15v383h-15q-66 0 -66 50q0 29 17 39.5t49 10.5h223q97 0 158.5 -49.5t61.5 -128.5q0 -92 -108 -151q65 -57 126 -154h13q66 0 66 -50zM194 322h76q63 0 104.5 24.5t41.5 61.5q0 32 -31 53.5t-79 21.5h-112v-161z" />
    <glyph glyph-name="uni0213" unicode="&#x213;" 
d="M451 476q-15 0 -22 6.5t-12 25.5t-36.5 36t-70.5 17t-70 -17t-37 -36q-6 -20 -12.5 -26t-21.5 -6q-34 0 -34 33q0 46 53.5 83t121.5 37t121.5 -37.5t53.5 -83.5q0 -32 -34 -32zM445 449q42 0 84 -26t42 -59q0 -21 -15 -36t-35 -15q-17 0 -39 18t-39 18q-24 0 -58.5 -21.5
t-106.5 -80.5v-147h139q67 0 67 -50t-67 -50h-297q-66 0 -66 50q0 29 17 39.5t49 10.5h58v237h-35q-66 0 -66 50t66 50h135v-65q60 45 95 61t72 16z" />
    <glyph glyph-name="uni0214" unicode="&#x214;" 
d="M137 784l95 -81q23 -20 23 -37q0 -14 -11 -25t-26 -11q-13 0 -32 16l-95 82q-23 18 -23 36q0 15 10.5 25.5t26.5 10.5q12 0 32 -16zM299 784l95 -81q23 -20 23 -37q0 -14 -11 -25t-26 -11q-13 0 -32 16l-95 82q-23 18 -23 36q0 15 10.5 25.5t26.5 10.5q12 0 32 -16z
M529 205q0 -97 -68 -158t-161 -61t-161 62t-68 157v278q-61 2 -61 50q0 29 17 39.5t49 10.5h130q32 0 49 -10t17 -40q0 -50 -66 -50h-35v-287q0 -46 38 -78t91 -32t91 32t38 78v287h-35q-66 0 -66 50q0 29 17 39.5t49 10.5h130q33 0 49.5 -10.5t16.5 -39.5q0 -50 -61 -50
v-278z" />
    <glyph glyph-name="uni0215" unicode="&#x215;" 
d="M131 668l95 -81q23 -20 23 -37q0 -14 -11 -25t-26 -11q-13 0 -32 16l-95 82q-23 18 -23 36q0 15 10.5 25.5t26.5 10.5q12 0 32 -16zM293 668l95 -81q23 -20 23 -37q0 -14 -11 -25t-26 -11q-13 0 -32 16l-95 82q-23 18 -23 36q0 15 10.5 25.5t26.5 10.5q12 0 32 -16z
M365 337q-30 0 -43 15.5t-13 34.5q0 50 66 50h135v-337q61 0 61 -50t-66 -50h-95v48q-37 -35 -66.5 -48t-70.5 -13q-79 0 -128.5 44.5t-49.5 124.5v181h-27q-25 0 -40 14t-15 36q0 29 17 39.5t49 10.5h116v-278q0 -72 88 -72q38 0 63 13.5t64 54.5v182h-35h-10z" />
    <glyph glyph-name="uni0216" unicode="&#x216;" 
d="M440 605q-15 0 -22 6.5t-12 25.5t-36.5 36t-70.5 17t-70 -17t-37 -36q-6 -20 -12.5 -26t-21.5 -6q-34 0 -34 33q0 46 53.5 83t121.5 37t121.5 -37.5t53.5 -83.5q0 -32 -34 -32zM529 205q0 -97 -68 -158t-161 -61t-161 62t-68 157v278q-61 2 -61 50q0 29 17 39.5t49 10.5
h130q32 0 49 -10t17 -40q0 -50 -66 -50h-35v-287q0 -46 38 -78t91 -32t91 32t38 78v287h-35q-66 0 -66 50q0 29 17 39.5t49 10.5h130q33 0 49.5 -10.5t16.5 -39.5q0 -50 -61 -50v-278z" />
    <glyph glyph-name="uni0217" unicode="&#x217;" 
d="M433 482q-15 0 -22 6.5t-12 25.5t-36.5 36t-70.5 17t-70 -17t-37 -36q-6 -20 -12.5 -26t-21.5 -6q-34 0 -34 33q0 46 53.5 83t121.5 37t121.5 -37.5t53.5 -83.5q0 -32 -34 -32zM365 337q-30 0 -43 15.5t-13 34.5q0 50 66 50h135v-337q61 0 61 -50t-66 -50h-95v48
q-37 -35 -66.5 -48t-70.5 -13q-79 0 -128.5 44.5t-49.5 124.5v181h-27q-25 0 -40 14t-15 36q0 29 17 39.5t49 10.5h116v-278q0 -72 88 -72q38 0 63 13.5t64 54.5v182h-35h-10z" />
    <glyph glyph-name="Scommaaccent" unicode="&#x218;" 
d="M468 597q30 0 39.5 -17t9.5 -49v-88q0 -67 -49 -67q-8 0 -14.5 1.5t-11 4t-8.5 7t-6 7.5t-4 9t-2.5 8.5t-2 9t-1.5 7.5q-7 30 -39.5 48.5t-79.5 18.5t-80 -22t-33 -54q0 -34 33 -52.5t77 -24t98 -20t85 -39.5q59 -47 59 -125t-63 -126t-166 -48q-83 0 -156 39
q-20 -24 -40 -24q-51 0 -51 66v66q0 33 11 49.5t39 16.5q9 0 16.5 -2t12.5 -6t8.5 -7.5t6 -9.5t3.5 -9t2.5 -8t1.5 -6q7 -27 48 -46t91 -19q56 0 94 22t38 54q0 30 -29.5 48t-68 24t-90 18t-82.5 29q-38 22 -60 59t-22 80q0 76 62 126.5t155 50.5q77 0 130 -33q8 19 16 26
t23 7zM267 -29h118l-87 -150q-11 -20 -28 -20q-32 0 -32 34q0 7 1 10z" />
    <glyph glyph-name="scommaaccent" unicode="&#x219;" 
d="M506 347q0 -32 -10.5 -49t-39.5 -17q-18 0 -30 11t-19.5 23.5t-34 23.5t-71.5 11q-38 0 -68.5 -10.5t-30.5 -24.5q0 -20 44 -28.5t110 -18.5t101 -30q33 -18 51.5 -48t18.5 -65q0 -61 -63 -101t-160 -40q-87 0 -148 29q-15 -12 -32 -12q-51 0 -51 66v33q0 67 51 67
q38 0 51 -44q43 -39 125 -39q48 0 82.5 13t34.5 30q0 39 -126 52q-105 11 -152 43t-47 91q0 60 58 98.5t148 38.5q73 0 129 -26q11 26 32 26q47 0 47 -66v-37zM246 -29h118l-87 -150q-11 -20 -28 -20q-32 0 -32 34q0 7 1 10z" />
    <glyph glyph-name="uni021A" unicode="&#x21a;" 
d="M481 50q0 -50 -66 -50h-231q-66 0 -66 50q0 29 17 39.5t49 10.5h65v383h-107v-93q0 -66 -50 -66t-50 66v193h516v-193q0 -32 -10.5 -49t-39.5 -17q-50 0 -50 66v93h-109v-383h66q66 0 66 -50zM252 -29h118l-87 -150q-11 -20 -28 -20q-32 0 -32 34q0 7 1 10z" />
    <glyph glyph-name="uni021B" unicode="&#x21b;" 
d="M214 141q0 -31 17 -44t69 -13q39 0 71.5 7t49 15.5t33 15.5t27.5 7q20 0 34 -15t14 -36q0 -28 -42.5 -50.5t-94 -33t-93.5 -10.5q-85 0 -135 37t-50 101v215h-35q-66 0 -66 50q0 29 17 39.5t49 10.5h35v88q0 66 50 66q29 0 39.5 -17t10.5 -49v-88h181q32 0 49 -10.5
t17 -39.5q0 -50 -66 -50h-181v-196zM211 -29h118l-87 -150q-11 -20 -28 -20q-32 0 -32 34q0 7 1 10z" />
    <glyph glyph-name="uni021c" unicode="&#x21c;" 
d="M228 235q0 26 21 38l140 92q28 18 28 55q0 40 -34 65t-84 25t-83 -24t-35 -58q-1 -21 -13.5 -34t-32.5 -13l-5 1q-4 0 -6 0.5t-7 2.5t-8 4t-7 6t-6.5 9t-4 12.5t-1.5 16.5v103q5 52 45 52q28 0 40 -23q54 36 127 36q88 0 148.5 -51t60.5 -129q0 -74 -51 -116
q75 -42 75 -123q0 -90 -63 -142t-170 -65l-166 -20h-4q-19 0 -32 13.5t-13 32.5q0 16 10.5 29t29.5 15l163 20q49 6 81 17.5t47.5 28.5t21 33t5.5 38q0 23 -24.5 39.5t-57.5 18.5l-64 -41q-16 -9 -27 -9q-17 0 -30.5 13t-13.5 32z" />
    </font>
</defs>
</svg>
