<?xml version="1.0" standalone="no"?>
<!DOCTYPE svg PUBLIC "-//W3C//DTD SVG 1.1//EN" "http://www.w3.org/Graphics/SVG/1.1/DTD/svg11.dtd" >
<svg xmlns="http://www.w3.org/2000/svg" xmlns:xlink="http://www.w3.org/1999/xlink" version="1.1">
<metadata>
Created by FontForge 20191125 at Sun Sep 19 11:41:50 2010
 By convertio
Copyleft 2002, 2003, 2005, 2008, 2009, 2010 Free Software Foundation.
</metadata>
<defs>
<font id="FreeSansBold" horiz-adv-x="0" >
  <font-face 
    font-family="FreeSans"
    font-weight="700"
    font-stretch="normal"
    units-per-em="1000"
    panose-1="2 11 7 4 2 2 2 2 2 4"
    ascent="800"
    descent="-200"
    x-height="540"
    cap-height="729"
    bbox="-967 -460 1556 1072"
    underline-thickness="69"
    underline-position="-223"
    unicode-range="U+0020-FFFD"
  />
<missing-glyph horiz-adv-x="700" 
d="M88 0v729h524v-729h-524zM218 102h264v525h-264v-525z" />
    <glyph glyph-name="IJ" unicode="IJ" horiz-adv-x="593" 
d="M213 729v-369h-150v369h150zM291 -23q-41 0 -78.5 10t-72.5 33.5t-56 69t-21 108.5v72h150v-70q0 -50 19 -72.5t62 -22.5q39 0 60 22t21 63v539h150v-539q0 -102 -61 -157.5t-173 -55.5z" />
    <glyph glyph-name="ij" unicode="ij" horiz-adv-x="486" 
d="M418 540v-634q0 -66 -29 -95t-94 -29q-36 0 -83 5v112q13 -4 25 -4q23 0 32 9.5t9 32.5v603h140zM418 729v-125h-140v125h140zM207 540v-540h-140v540h140zM207 729v-125h-140v125h140z" />
    <glyph glyph-name="yi_yi_lig_ukrainian" unicode="&#x457;&#x457;" horiz-adv-x="533" 
d="M398 743v-122h-110v122h110zM249 743v-122h-110v122h110zM533 743v-122h-110v122h110zM110 743v-122h-110v122h110zM482 540v-540h-140v540h140zM197 540v-540h-140v540h140z" />
    <glyph glyph-name="ff" unicode="ff" horiz-adv-x="607" 
d="M587 529v-93h-83v-436h-140v436h-134v-436h-140v436h-76v93h76v65q0 135 138 135q41 0 80 -3v-105q-18 3 -40 3q-38 0 -38 -42v-53h134v65q0 135 138 135q41 0 80 -3v-105q-18 3 -40 3q-38 0 -38 -42v-53h83z" />
    <glyph glyph-name="fi" unicode="fi" horiz-adv-x="576" 
d="M505 729v-125h-140v125h140zM505 529v-529h-140v436h-135v-436h-140v436h-76v93h76v65q0 135 138 135q41 0 80 -3v-105q-18 3 -40 3q-38 0 -38 -42v-53h275z" />
    <glyph glyph-name="fl" unicode="fl" horiz-adv-x="603" 
d="M532 729v-729h-140v436h-162v-436h-140v436h-76v93h76v65q0 135 138 135q41 0 80 -3v-105q-18 3 -40 3q-38 0 -38 -42v-53h162v200h140z" />
    <glyph glyph-name="ffi" unicode="ffi" horiz-adv-x="849" 
d="M778 729v-125h-140v125h140zM778 529v-529h-140v436h-134v-436h-140v436h-134v-436h-140v436h-76v93h76v65q0 135 138 135q41 0 80 -3v-105q-18 3 -40 3q-38 0 -38 -42v-53h134v65q0 135 138 135q41 0 80 -3v-105q-18 3 -40 3q-38 0 -38 -42v-53h274z" />
    <glyph glyph-name="ffl" unicode="ffl" horiz-adv-x="849" 
d="M638 529v200h140v-729h-140v436h-134v-436h-140v436h-134v-436h-140v436h-76v93h76v65q0 135 138 135q41 0 80 -3v-105q-18 3 -40 3q-38 0 -38 -42v-53h134v65q0 135 138 135q41 0 80 -3v-105q-18 3 -40 3q-38 0 -38 -42v-53h134z" />
    <glyph glyph-name="m_n_armenian" unicode="&#x574;&#x576;" horiz-adv-x="1243" 
d="M548 0h-140v64q-58 -87 -162 -87q-86 0 -133.5 49t-47.5 138v177h140v-148q0 -97 90 -97q51 0 82 29t31 77v229h-208q-135 0 -135 137q0 11 3 50h105q-3 -18 -3 -40q0 -38 42 -38h183q-5 6 -18.5 17.5t-19.5 17.5l-46 45q-31 29 -31 59q0 22 19.5 36t57.5 14h191v-93
q-40 0 -54.5 -5t-14.5 -24q0 -16 24 -37t30 -30h297v-347q0 -97 90 -97q51 0 82 29t31 77v338h140v-540h-140v64q-58 -87 -162 -87q-86 0 -133.5 49t-47.5 138v267h-142v-431z" />
    <glyph glyph-name="m_e_armenian" unicode="&#x574;&#x565;" horiz-adv-x="1226" 
d="M548 0h-140v64q-58 -87 -162 -87q-86 0 -133.5 49t-47.5 138v376h140v-347q0 -97 90 -97q51 0 82 29t31 77v308q0 13 -5.5 22t-23.5 24t-22 19l-46 45q-31 29 -31 59q0 22 19.5 36t57.5 14h476v-189h343v-93h-343v-254q0 -97 90 -97q51 0 82 29t31 77v58h140v-260h-140
v64q-58 -87 -162 -87q-86 0 -133.5 49t-47.5 138v472q-214 -2 -214 -29q0 -13 11 -25t23.5 -21t23.5 -28t11 -43v-490z" />
    <glyph glyph-name="m_i_armenian" unicode="&#x574;&#x56b;" horiz-adv-x="1233" 
d="M548 0h-140v64q-58 -87 -162 -87q-86 0 -133.5 49t-47.5 138v376h140v-347q0 -97 90 -97q51 0 82 29t31 77v308q0 13 -5.5 22t-23.5 24t-22 19l-46 45q-31 29 -31 59q0 22 19.5 36t57.5 14h477v-267q58 87 158 87q32 0 60.5 -8.5t56 -28t43.5 -58.5t16 -92v-362h-140v330
q0 100 -86 100q-47 0 -77.5 -30t-30.5 -76v-524h-140v836q-215 -1 -215 -29q0 -13 11 -25t23.5 -21t23.5 -28t11 -43v-490z" />
    <glyph glyph-name="v_n_armenian" unicode="&#x57e;&#x576;" horiz-adv-x="1238" 
d="M200 436q-59 0 -97 39.5t-38 103.5q0 67 40.5 108.5t94.5 41.5h348v-189h282v-347q0 -97 90 -97q51 0 82 29t31 77v338h140v-540h-140v64q-58 -87 -162 -87q-86 0 -133.5 49t-47.5 138v272h-142v-543h78v-93h-218v264q-58 -87 -162 -87q-86 0 -133.5 49t-47.5 138v208
h140v-179q0 -97 90 -97q51 0 82 29t31 77v234h-208zM408 540v85h-196q-20 0 -31 -13t-11 -33q0 -39 42 -39h196z" />
    <glyph glyph-name="m_x_armenian" unicode="&#x574;&#x56d;" horiz-adv-x="1448" 
d="M548 0h-140v64q-58 -87 -162 -87q-86 0 -133.5 49t-47.5 138v376h140v-347q0 -97 90 -97q51 0 82 29t31 77v308q0 13 -5.5 22t-23.5 24t-22 19l-46 45q-31 29 -31 59q0 22 19.5 36t57.5 14h465v-189h218v-347q0 -97 90 -97q51 0 82 29t31 77v338h140v-540h-140v64
q-58 -87 -162 -87q-86 0 -133.5 49t-47.5 138v283h-78v-647h-140v836q-203 0 -203 -29q0 -13 11 -25t23.5 -21t23.5 -28t11 -43v-490z" />
    <glyph glyph-name="yodyodpatahhebrew" unicode="&#x5f2;&#x5b7;" horiz-adv-x="542" 
d="M212 333l-139 -57v324h139v-267zM470 333l-139 -57v324h139v-267zM161 220h200v-82h-200v82z" />
    <glyph glyph-name=".notdef" horiz-adv-x="700" 
d="M88 0v729h524v-729h-524zM218 102h264v525h-264v-525z" />
    <glyph glyph-name=".null" 
 />
    <glyph glyph-name="nonmarkingreturn" horiz-adv-x="600" 
 />
    <glyph glyph-name="space" unicode=" " horiz-adv-x="278" 
 />
    <glyph glyph-name="exclam" unicode="!" horiz-adv-x="333" 
d="M262 726v-210l-42 -309h-67l-41 309v210h150zM262 146v-146h-150v146h150z" />
    <glyph glyph-name="quotedbl" unicode="&#x22;" horiz-adv-x="474" 
d="M188 729v-130l-42 -129h-56l-40 129v130h138zM424 729v-130l-42 -129h-56l-40 129v130h138z" />
    <glyph glyph-name="numbersign" unicode="#" horiz-adv-x="556" 
d="M146 -32h-106l40 204h-77v99h97l30 153h-99v99h119l34 174h105l-34 -174h103l34 174h105l-34 -174h90v-99h-109l-31 -153h100v-99h-119l-40 -204h-105l40 204h-103zM205 271h103l30 153h-103z" />
    <glyph glyph-name="dollar" unicode="$" horiz-adv-x="556" 
d="M243 -21q-106 10 -163.5 69t-57.5 150v9h131q5 -106 90 -121v213q-204 47 -204 213q0 84 53.5 136t150.5 61v54h68v-54q95 -5 150 -61t56 -150h-128v6q0 44 -20.5 71.5t-57.5 32.5v-201q116 -32 166 -81t50 -131q0 -96 -56.5 -150.5t-159.5 -65.5v-105h-68v105zM243 427
v181q-81 -16 -81 -92q0 -63 81 -89zM311 282v-196q84 21 84 97q0 73 -84 99z" />
    <glyph glyph-name="percent" unicode="%" horiz-adv-x="889" 
d="M206 701q77 0 130.5 -53.5t53.5 -130.5q0 -73 -54.5 -126.5t-129.5 -53.5q-76 0 -130 53.5t-54 128.5t54 128.5t130 53.5zM206 602q-35 0 -60 -24.5t-25 -58.5q0 -35 25 -59.5t60 -24.5t60 24.5t25 58.5q0 35 -25 59.5t-60 24.5zM606 709h76l-395 -729h-77zM679 352
q77 0 130.5 -53.5t53.5 -131.5q0 -73 -54.5 -126.5t-129.5 -53.5q-76 0 -130 53.5t-54 129.5q0 75 54 128.5t130 53.5zM679 253q-35 0 -60 -24.5t-25 -59.5t25 -59.5t60 -24.5t60 24.5t25 58.5q0 35 -25 60t-60 25z" />
    <glyph glyph-name="ampersand" unicode="&#x26;" horiz-adv-x="722" 
d="M526 373h113v-16q-2 -58 -20 -113.5t-48 -89.5l123 -154h-161l-46 56q-60 -45 -102 -62t-93 -17q-107 0 -172 59.5t-65 156.5q0 71 34.5 116.5t122.5 91.5q-9 12 -12 15l-28 34q-42 50 -42 106q0 71 54.5 119t134.5 48t129 -42.5t49 -112.5q0 -54 -25 -92t-92 -84
l116 -144q30 57 30 115v10zM278 319l-47 -29q-43 -29 -43 -80q0 -45 32.5 -81t73.5 -36q48 0 120 55zM317 470q60 33 60 86q0 28 -15 43t-42 15q-25 0 -41.5 -13.5t-16.5 -34.5q0 -19 8.5 -33.5t46.5 -62.5z" />
    <glyph glyph-name="quotesingle" unicode="'" horiz-adv-x="238" 
d="M188 729v-130l-42 -129h-56l-40 129v130h138z" />
    <glyph glyph-name="parenleft" unicode="(" horiz-adv-x="333" 
d="M203 729h100q-79 -153 -109.5 -253.5t-30.5 -210.5t30 -210t110 -255h-100q-86 130 -124.5 239.5t-38.5 225.5q0 115 38.5 225t124.5 239z" />
    <glyph glyph-name="parenright" unicode=")" horiz-adv-x="333" 
d="M122 -200h-100q79 153 109.5 253.5t30.5 210.5t-30 210t-110 255h100q86 -130 124.5 -239.5t38.5 -225.5q0 -115 -38.5 -225t-124.5 -239z" />
    <glyph glyph-name="asterisk" unicode="*" horiz-adv-x="389" 
d="M132 544l-109 36l22 69l109 -36v116h72v-116l109 36l22 -70l-109 -35l67 -94l-58 -43l-67 94l-67 -94l-58 43z" />
    <glyph glyph-name="plus" unicode="+" horiz-adv-x="584" 
d="M533 291v-119h-182v-182h-119v182h-182v119h182v182h119v-182h182z" />
    <glyph glyph-name="comma" unicode="," horiz-adv-x="278" 
d="M64 146h150v-137q0 -35 -4.5 -60t-19 -53t-46 -46t-80.5 -24v56q86 17 86 115v3h-86v146z" />
    <glyph glyph-name="hyphen" unicode="-" horiz-adv-x="333" 
d="M298 342v-135h-272v135h272z" />
    <glyph glyph-name="period" unicode="." horiz-adv-x="278" 
d="M214 146v-146h-150v146h150z" />
    <glyph glyph-name="slash" unicode="/" horiz-adv-x="278" 
d="M208 714h67l-206 -728h-67z" />
    <glyph glyph-name="zero" unicode="0" horiz-adv-x="556" 
d="M273 -23q-71 0 -120 28.5t-75.5 81.5t-37.5 116.5t-11 146.5q0 203 60 283q66 91 184 91q129 0 194 -105q50 -81 50 -273q0 -80 -11 -142.5t-37 -116t-75.5 -82t-120.5 -28.5zM377 349q0 107 -13.5 166t-34.5 77.5t-56 18.5q-56 0 -80 -56.5t-24 -203.5q0 -102 13 -159.5
t34.5 -76t56.5 -18.5q61 0 86 65q18 50 18 187z" />
    <glyph glyph-name="one" unicode="1" horiz-adv-x="556" 
d="M238 489h-170v93q184 0 217 127h93v-709h-140v489z" />
    <glyph glyph-name="two" unicode="2" horiz-adv-x="556" 
d="M515 499q0 -59 -25.5 -107t-64.5 -80.5t-80 -60t-79 -60t-54 -66.5h300v-125h-482q5 98 39.5 155.5t124.5 120.5q117 82 149 121.5t32 98.5q0 53 -26.5 83.5t-73.5 30.5q-48 0 -74.5 -33t-26.5 -92v-23h-134q-1 11 -1 25q0 112 61.5 174.5t171.5 62.5q112 0 177.5 -61
t65.5 -164z" />
    <glyph glyph-name="three" unicode="3" horiz-adv-x="556" 
d="M38 498q0 55 15.5 97t39 66t55.5 38.5t60.5 19.5t59.5 5q103 0 164 -52.5t61 -140.5q0 -49 -22 -84.5t-71 -66.5q60 -29 88 -71.5t28 -104.5q0 -104 -67.5 -165.5t-180.5 -61.5q-109 0 -173.5 62.5t-65.5 168.5h136q6 -111 106 -111q46 0 75.5 30t29.5 77q0 39 -21 67.5
t-56 38.5q-28 7 -82 7v94h12q124 0 124 107q0 44 -23 68.5t-65 24.5q-55 0 -75 -31t-22 -94h-130v12z" />
    <glyph glyph-name="four" unicode="4" horiz-adv-x="556" 
d="M522 273v-116h-74v-157h-140v157h-284v118l259 434h165v-436h74zM308 273v303l-185 -303h185z" />
    <glyph glyph-name="five" unicode="5" horiz-adv-x="556" 
d="M489 709v-125h-293l-23 -148q57 43 123 43q98 0 159.5 -68t61.5 -177q0 -115 -71 -186t-185 -71q-103 0 -167.5 57.5t-66.5 150.5h138q5 -88 98 -88q53 0 83.5 36t30.5 98q0 64 -30.5 100.5t-83.5 36.5q-67 0 -90 -54h-126l63 395h379z" />
    <glyph glyph-name="six" unicode="6" horiz-adv-x="556" 
d="M32 337q0 387 262 387q19 0 37 -2t48.5 -12t54 -27t45 -52t28.5 -83h-130q-14 34 -33.5 48.5t-53.5 14.5q-42 0 -70.5 -27t-38.5 -75q-6 -30 -9 -105q33 34 65 48.5t76 14.5q91 0 148.5 -64t57.5 -166q0 -116 -65.5 -188t-171.5 -72q-63 0 -115.5 28t-83.5 77
q-51 81 -51 255zM279 357q-49 0 -79 -36.5t-30 -95.5q0 -56 30 -92t78 -36q47 0 77.5 37t30.5 94q0 59 -29 94t-78 35z" />
    <glyph glyph-name="seven" unicode="7" horiz-adv-x="556" 
d="M528 709v-110q-126 -152 -185 -291.5t-69 -307.5h-141q26 206 93 347q21 46 72.5 124t83.5 113h-353v125h499z" />
    <glyph glyph-name="eight" unicode="8" horiz-adv-x="556" 
d="M501 532q0 -56 -24.5 -89.5t-67.5 -56.5q61 -33 88.5 -76t27.5 -106q0 -100 -70 -163.5t-181 -63.5q-112 0 -182 63t-70 164q0 63 27.5 106t88.5 76q-48 26 -70 60t-22 85q0 84 64.5 138.5t163.5 54.5q98 0 162.5 -54.5t64.5 -137.5zM275 611q-47 0 -76.5 -25.5
t-29.5 -66.5t29.5 -67.5t76.5 -26.5q46 0 75.5 26t29.5 67t-29 67t-76 26zM273 330q-50 0 -80.5 -32t-30.5 -86q0 -53 30 -84t81 -31t81.5 31t30.5 82q0 55 -30 87.5t-82 32.5z" />
    <glyph glyph-name="nine" unicode="9" horiz-adv-x="556" 
d="M516 370q0 -96 -17 -169t-42.5 -115t-61.5 -67.5t-69 -34t-71 -8.5q-92 0 -153.5 53.5t-63.5 135.5h135q2 -31 25.5 -50t60.5 -19q117 0 117 202q-1 -1 -8 -9.5t-11.5 -13t-13.5 -13t-18.5 -13.5t-22 -10.5t-28.5 -8t-34 -2.5q-94 0 -153 68t-59 178q0 111 66.5 180.5
t172.5 69.5q34 0 65 -7.5t65.5 -31t60 -60.5t42 -103t16.5 -152zM263 610q-47 0 -74.5 -36.5t-27.5 -97.5t28 -96.5t76 -35.5t78 36t30 94q0 62 -29.5 99t-80.5 37z" />
    <glyph glyph-name="colon" unicode=":" horiz-adv-x="333" 
d="M263 146v-146h-150v146h150zM263 520v-146h-150v146h150z" />
    <glyph glyph-name="semicolon" unicode=";" horiz-adv-x="333" 
d="M113 146h150v-137q0 -35 -4.5 -60t-19 -53t-46 -46t-80.5 -24v56q86 17 86 115v3h-86v146zM263 520v-146h-150v146h150z" />
    <glyph glyph-name="less" unicode="&#x3c;" horiz-adv-x="584" 
d="M529 474v-109l-382 -133l382 -131v-111l-489 182v121z" />
    <glyph glyph-name="equal" unicode="=" horiz-adv-x="584" 
d="M534 411v-119h-484v119h484zM534 171v-119h-484v119h484z" />
    <glyph glyph-name="greater" unicode="&#x3e;" horiz-adv-x="584" 
d="M40 -10v109l382 133l-382 131v111l489 -182v-121z" />
    <glyph glyph-name="question" unicode="?" horiz-adv-x="611" 
d="M64 481q1 65 17.5 114t41 76.5t58.5 44.5t63.5 22.5t62.5 5.5q110 0 179.5 -64t69.5 -166q0 -63 -25 -104t-95 -90q-45 -32 -56 -51t-11 -68h-124v14q0 50 17.5 87.5t42.5 60.5t50 43t42.5 46t17.5 59q0 49 -30 82t-75 33q-47 0 -78.5 -38t-31.5 -96v-9v-2h-136zM385 146
v-146h-150v146h150z" />
    <glyph glyph-name="at" unicode="@" horiz-adv-x="975" 
d="M258 227q0 29 12.5 72.5t39 95t80.5 87.5t124 36q79 0 114 -72l16 62h90l-78 -280q-8 -30 -8 -42q0 -22 13 -35.5t36 -13.5q53 0 107 70.5t54 162.5q0 118 -98 206q-104 92 -249 92q-112 0 -202 -56.5t-137.5 -148t-47.5 -197.5q0 -146 106.5 -236t255.5 -90
q116 0 207 41l28 -73q-101 -46 -237 -46q-206 0 -331.5 115.5t-125.5 286.5q0 87 38.5 178t104.5 159q139 144 346 144q181 0 306 -110.5t125 -279.5q0 -67 -24 -125t-61.5 -95t-81 -58t-83.5 -21q-49 0 -81.5 21.5t-43.5 53.5q-62 -75 -150 -75q-68 0 -116 50t-48 121z
M444 137q60 0 105.5 70.5t45.5 137.5q0 47 -22.5 74.5t-61.5 27.5q-59 0 -107.5 -63.5t-48.5 -139.5q0 -45 26 -76t63 -31z" />
    <glyph glyph-name="A" unicode="A" horiz-adv-x="722" 
d="M501 147h-273l-49 -147h-153l259 729h166l252 -729h-154zM460 272l-95 285l-95 -285h190z" />
    <glyph glyph-name="B" unicode="B" horiz-adv-x="722" 
d="M666 210q0 -36 -12 -70t-38.5 -67t-79.5 -53t-126 -20h-328v729h325q68 0 117.5 -20t74 -51.5t35.5 -61.5t11 -59q0 -47 -23 -81t-77 -69q121 -71 121 -177zM232 604v-165h163q106 0 106 82q0 83 -106 83h-163zM232 314v-189h179q111 0 111 94q0 95 -111 95h-179z" />
    <glyph glyph-name="C" unicode="C" horiz-adv-x="722" 
d="M539 482q-28 131 -156 131q-89 0 -139 -68t-50 -189q0 -119 48.5 -186t135.5 -67q70 0 112 38t49 108h146q-7 -125 -91 -198.5t-220 -73.5q-152 0 -241 102.5t-89 278.5q0 177 90 280t244 103q129 0 211.5 -69t92.5 -190h-143z" />
    <glyph glyph-name="D" unicode="D" horiz-adv-x="722" 
d="M77 0v729h285q84 0 138.5 -20t91.5 -64q89 -106 89 -280q0 -176 -89 -280q-71 -85 -230 -85h-285zM227 125h135q169 0 169 239q0 240 -169 240h-135v-479z" />
    <glyph glyph-name="E" unicode="E" horiz-adv-x="667" 
d="M229 314v-189h395v-125h-545v729h527v-125h-377v-165h349v-125h-349z" />
    <glyph glyph-name="F" unicode="F" horiz-adv-x="611" 
d="M224 314v-314h-150v729h512v-125h-362v-165h319v-125h-319z" />
    <glyph glyph-name="G" unicode="G" horiz-adv-x="778" 
d="M570 498q-40 117 -174 117q-95 0 -149.5 -67t-54.5 -185q0 -112 58.5 -184t149.5 -72q14 0 32.5 3.5t44.5 14t48 27.5t39 47.5t21 69.5h-166v125h292v-394h-90l-18 96q-42 -61 -94 -89t-126 -28q-148 0 -244.5 108t-96.5 274q0 170 98 276t255 106q132 0 217 -66t99 -179
h-141z" />
    <glyph glyph-name="H" unicode="H" horiz-adv-x="722" 
d="M507 331h-289v-331h-150v729h150v-273h288v273h151v-729h-150v331z" />
    <glyph glyph-name="I" unicode="I" horiz-adv-x="278" 
d="M213 729v-729h-150v729h150z" />
    <glyph glyph-name="J" unicode="J" horiz-adv-x="556" 
d="M252 -23q-41 0 -78.5 10t-72.5 33.5t-56 69t-21 108.5v72h150v-70q0 -50 19 -72.5t62 -22.5q39 0 60 22t21 63v539h150v-539q0 -102 -61 -157.5t-173 -55.5z" />
    <glyph glyph-name="K" unicode="K" horiz-adv-x="722" 
d="M224 244v-244h-150v729h150v-320l285 320h177l-291 -314l322 -415h-179l-239 322z" />
    <glyph glyph-name="L" unicode="L" horiz-adv-x="611" 
d="M230 729v-604h349v-125h-499v729h150z" />
    <glyph glyph-name="M" unicode="M" horiz-adv-x="833" 
d="M216 568v-568h-150v729h224l132 -580l128 580h226v-729h-150v568l-129 -568h-150z" />
    <glyph glyph-name="N" unicode="N" horiz-adv-x="722" 
d="M511 0l-293 504v-504h-150v729h154l289 -496v496h150v-729h-150z" />
    <glyph glyph-name="O" unicode="O" horiz-adv-x="778" 
d="M40 359q0 168 96.5 275t253.5 107q158 0 255 -106.5t97 -280.5q0 -162 -95.5 -269.5t-255.5 -107.5q-159 0 -255 107t-96 275zM391 613q-91 0 -146 -69.5t-55 -184.5t55 -184.5t146 -69.5q90 0 145.5 69t55.5 181q0 118 -54.5 188t-146.5 70z" />
    <glyph glyph-name="P" unicode="P" horiz-adv-x="667" 
d="M226 260v-260h-150v729h322q114 0 174.5 -58t60.5 -168q0 -111 -60 -177t-160 -66h-187zM226 385h140q117 0 117 109q0 56 -28.5 83t-88.5 27h-140v-219z" />
    <glyph glyph-name="Q" unicode="Q" horiz-adv-x="778" 
d="M394 741q159 0 255 -108t96 -272q0 -74 -21.5 -143.5t-58.5 -114.5l80 -76l-76 -81l-86 81q-83 -50 -189 -50q-158 0 -254.5 107.5t-96.5 274.5t96.5 274.5t254.5 107.5zM480 278l82 -78q33 66 33 158q0 116 -54.5 185.5t-146.5 69.5q-91 0 -146 -69.5t-55 -184.5
t55 -184.5t145 -69.5q52 0 88 19l-77 73z" />
    <glyph glyph-name="R" unicode="R" horiz-adv-x="722" 
d="M493 125q0 30 1 47t1 30q0 46 -22 66.5t-71 20.5h-172v-289h-150v729h391q56 0 96.5 -19t61 -50t29.5 -62.5t9 -65.5q0 -132 -123 -180q27 -11 40 -17.5t26.5 -21.5t18 -27t9 -44t5.5 -63t2 -92q0 -42 32 -60v-27h-161q-14 26 -18.5 50t-4.5 75zM517 511q0 56 -26 74.5
t-80 18.5h-181v-190h181q53 0 79.5 19t26.5 78z" />
    <glyph glyph-name="S" unicode="S" horiz-adv-x="667" 
d="M607 507h-140q-8 114 -153 114q-58 0 -92 -24.5t-34 -65.5q0 -40 29 -59.5t109 -35.5l114 -22q101 -20 147 -67.5t46 -133.5q0 -111 -79 -173.5t-220 -62.5q-140 0 -217.5 62t-84.5 179h146q4 -59 46 -90t118 -31q68 0 107.5 26t39.5 72q0 44 -31 68t-106 38l-102 20
q-111 21 -158 66t-47 130q0 107 72.5 165.5t203.5 58.5q38 0 73.5 -5t75.5 -20.5t69 -40t48.5 -68t19.5 -100.5z" />
    <glyph glyph-name="T" unicode="T" horiz-adv-x="611" 
d="M385 604v-604h-150v604h-221v125h584v-125h-213z" />
    <glyph glyph-name="U" unicode="U" horiz-adv-x="722" 
d="M365 -23q-40 0 -77.5 7t-77 25t-68.5 46t-47.5 74.5t-18.5 105.5v494h150v-494q0 -130 139 -130t139 130v494h150v-494q0 -59 -18.5 -105.5t-47.5 -74.5t-68.5 -46t-77 -25t-77.5 -7z" />
    <glyph glyph-name="V" unicode="V" horiz-adv-x="667" 
d="M397 0h-127l-246 729h151l162 -549l159 549h151z" />
    <glyph glyph-name="W" unicode="W" horiz-adv-x="944" 
d="M730 0h-135l-122 569l-119 -569h-135l-206 729h159l113 -546l113 546h148l118 -547l109 547h159z" />
    <glyph glyph-name="X" unicode="X" horiz-adv-x="667" 
d="M419 372l234 -372h-178l-140 253l-139 -253h-174l230 367l-222 362h178l128 -240l134 240h174z" />
    <glyph glyph-name="Y" unicode="Y" horiz-adv-x="667" 
d="M419 270v-270h-150v270l-242 459h167l149 -322l139 322h168z" />
    <glyph glyph-name="Z" unicode="Z" horiz-adv-x="611" 
d="M578 729v-125l-372 -479h372v-125h-548v125l373 479h-373v125h548z" />
    <glyph glyph-name="bracketleft" unicode="[" horiz-adv-x="333" 
d="M308 729v-102h-112v-725h112v-102h-242v929h242z" />
    <glyph glyph-name="backslash" unicode="\" horiz-adv-x="278" 
d="M55 714l234 -728h-67l-234 728h67z" />
    <glyph glyph-name="bracketright" unicode="]" horiz-adv-x="333" 
d="M18 -200v102h112v725h-112v102h242v-929h-242z" />
    <glyph glyph-name="asciicircum" unicode="^" horiz-adv-x="584" 
d="M522 270h-113l-121 300l-115 -300h-112l165 425h125z" />
    <glyph glyph-name="underscore" unicode="_" horiz-adv-x="556" 
d="M578 -120v-80h-600v80h600z" />
    <glyph glyph-name="grave" unicode="`" horiz-adv-x="333" 
d="M17 757h126l70 -150h-70z" />
    <glyph glyph-name="a" unicode="a" horiz-adv-x="556" 
d="M192 -23q-74 0 -119 44.5t-45 117.5q0 143 159 170l56 10q2 0 20 2.5t23 4t19.5 4.5t20.5 7t14.5 10.5t11.5 15t3 19.5q0 54 -81 54q-52 0 -73 -16t-26 -58h-135q13 187 231 187q221 0 221 -166v-300q0 -37 32 -66v-17h-152q-16 20 -16 54q-74 -77 -164 -77zM355 217v38
q-19 -9 -59 -17l-48 -9q-44 -9 -62 -26t-18 -48q0 -30 20.5 -47.5t55.5 -17.5q53 0 82 33t29 94z" />
    <glyph glyph-name="b" unicode="b" horiz-adv-x="611" 
d="M348 549q97 0 162 -80.5t65 -205.5q0 -122 -65 -204t-162 -82q-99 0 -149 78v-55h-140v729h140v-259q50 79 149 79zM317 432q-52 0 -85 -46.5t-33 -120.5q0 -77 32.5 -124t85.5 -47q52 0 85 47t33 121q0 75 -33 122.5t-85 47.5z" />
    <glyph glyph-name="c" unicode="c" horiz-adv-x="556" 
d="M288 436q-114 0 -114 -177q0 -79 30.5 -124t83.5 -45q41 0 64 22.5t36 74.5h134q-10 -97 -73.5 -153.5t-161.5 -56.5q-120 0 -186.5 74t-66.5 208q0 138 67 214t188 76q101 0 163.5 -56t69.5 -155h-134q-12 53 -34.5 75.5t-65.5 22.5z" />
    <glyph glyph-name="d" unicode="d" horiz-adv-x="611" 
d="M256 -23q-100 0 -163.5 82t-63.5 203q0 122 65 204.5t162 82.5q98 0 149 -79v259h140v-729h-140v55q-52 -78 -149 -78zM287 432q-52 0 -85 -47.5t-33 -122.5q0 -74 33 -121t85 -47t85 46t33 120q0 77 -32.5 124.5t-85.5 47.5z" />
    <glyph glyph-name="e" unicode="e" horiz-adv-x="556" 
d="M272 549q35 0 68 -8t67.5 -29t60 -53.5t41.5 -86t16 -122.5q0 -12 -1 -24h-362q1 -31 5.5 -53.5t16 -44t34 -33t56.5 -11.5q80 0 107 68h138q-23 -80 -91 -127.5t-159 -47.5q-115 0 -181 74.5t-66 204.5q0 136 67 214.5t183 78.5zM379 319q-5 59 -32.5 91t-76.5 32
q-92 0 -106 -123h215z" />
    <glyph glyph-name="f" unicode="f" horiz-adv-x="333" 
d="M313 529v-93h-83v-436h-140v436h-76v93h76v65q0 135 138 135q41 0 80 -3v-105q-18 3 -40 3q-38 0 -38 -42v-53h83z" />
    <glyph glyph-name="g" unicode="g" horiz-adv-x="611" 
d="M408 540h133v-558q0 -95 -67.5 -147.5t-189.5 -52.5q-108 0 -173 41.5t-66 111.5h145q17 -63 99 -63q53 0 86 30.5t33 79.5v73q-39 -44 -72.5 -61t-80.5 -17q-100 0 -160.5 77t-60.5 203q0 125 64 208.5t160 83.5q90 0 150 -92v83zM288 432q-51 0 -82.5 -48t-31.5 -125
q0 -73 31 -119t81 -46q55 0 89.5 46t34.5 119q0 75 -34.5 124t-87.5 49z" />
    <glyph glyph-name="h" unicode="h" horiz-adv-x="611" 
d="M401 330q0 100 -86 100q-47 0 -77.5 -30t-30.5 -76v-324h-140v729h140v-267q58 87 158 87q32 0 60.5 -8.5t56 -28t43.5 -58.5t16 -92v-362h-140v330z" />
    <glyph glyph-name="i" unicode="i" horiz-adv-x="278" 
d="M207 540v-540h-140v540h140zM207 729v-125h-140v125h140z" />
    <glyph glyph-name="j" unicode="j" horiz-adv-x="278" 
d="M210 540v-634q0 -66 -29 -95t-94 -29q-36 0 -83 5v112q13 -4 25 -4q23 0 32 9.5t9 32.5v603h140zM210 729v-125h-140v125h140z" />
    <glyph glyph-name="k" unicode="k" horiz-adv-x="556" 
d="M199 330l177 210h159l-184 -204l197 -336h-164l-129 238l-56 -61v-177h-140v729h140v-399z" />
    <glyph glyph-name="l" unicode="l" horiz-adv-x="278" 
d="M207 729v-729h-140v729h140z" />
    <glyph glyph-name="m" unicode="m" horiz-adv-x="889" 
d="M60 540h139v-67q35 41 68.5 58.5t79.5 17.5q106 0 147 -80q60 80 158 80q81 0 126.5 -44t45.5 -123v-382h-140v360q0 32 -20.5 51t-55.5 19q-45 0 -70.5 -28t-25.5 -78v-324h-140v360q0 32 -20.5 51t-55.5 19q-45 0 -70.5 -28t-25.5 -78v-324h-140v540z" />
    <glyph glyph-name="n" unicode="n" horiz-adv-x="611" 
d="M63 540h140v-78q58 87 162 87q86 0 133.5 -49t47.5 -138v-362h-140v333q0 97 -90 97q-51 0 -82 -29t-31 -77v-324h-140v540z" />
    <glyph glyph-name="o" unicode="o" horiz-adv-x="611" 
d="M301 549q127 0 197.5 -76.5t70.5 -213.5q0 -130 -72 -206t-195 -76q-125 0 -196 76.5t-71 209.5t71 209.5t195 76.5zM302 436q-57 0 -92 -48t-35 -125t35 -125t92 -48q56 0 91.5 47.5t35.5 123.5q0 80 -34.5 127.5t-92.5 47.5z" />
    <glyph glyph-name="p" unicode="p" horiz-adv-x="611" 
d="M348 549q102 0 164 -82t62 -205t-64.5 -204.5t-161.5 -81.5q-100 0 -150 88v-282h-140v758h140v-80q50 89 150 89zM316 432q-53 0 -85.5 -47t-32.5 -123t32.5 -122.5t85.5 -46.5q52 0 85 47t33 120q0 77 -32.5 124.5t-85.5 47.5z" />
    <glyph glyph-name="q" unicode="q" horiz-adv-x="611" 
d="M253 -24q-100 0 -162.5 81t-62.5 205t64.5 205.5t161.5 81.5q100 0 150 -89v80h140v-758h-140v282q-49 -88 -151 -88zM286 432q-53 0 -85.5 -47t-32.5 -123t32.5 -122.5t85.5 -46.5q52 0 85 46t33 120q0 79 -32.5 126t-85.5 47z" />
    <glyph glyph-name="r" unicode="r" horiz-adv-x="389" 
d="M63 540h140v-106q22 55 62 85t88 30q9 0 17 -1v-142q-25 4 -44 4q-123 0 -123 -123v-287h-140v540z" />
    <glyph glyph-name="s" unicode="s" horiz-adv-x="556" 
d="M166 157q7 -34 28.5 -52t81.5 -18q49 0 76.5 14t27.5 39q0 16 -10.5 26t-36.5 18l-167 52q-1 0 -12 3.5t-15.5 5.5t-16.5 6.5t-18.5 9.5t-16.5 12.5t-15.5 16.5t-11.5 20.5t-9 26.5t-3 32q0 83 59.5 131.5t162.5 48.5q109 0 171 -48.5t64 -134.5h-135q-1 73 -101 73
q-37 0 -59 -13.5t-22 -36.5q0 -16 10 -24.5t39 -17.5l177 -51q106 -31 106 -136q0 -31 -11 -60.5t-35.5 -58.5t-73.5 -46.5t-116 -17.5q-249 0 -255 180h137z" />
    <glyph glyph-name="t" unicode="t" horiz-adv-x="333" 
d="M301 529v-93h-78v-294q0 -36 9 -47.5t37 -11.5q11 0 32 3v-98q-34 -11 -81 -11q-137 0 -137 127v332h-69v93h69v145h140v-145h78z" />
    <glyph glyph-name="u" unicode="u" horiz-adv-x="611" 
d="M541 0h-140v64q-58 -87 -162 -87q-86 0 -133.5 49t-47.5 138v376h140v-347q0 -97 90 -97q51 0 82 29t31 77v338h140v-540z" />
    <glyph glyph-name="v" unicode="v" horiz-adv-x="556" 
d="M350 0h-147l-189 540h148l117 -395l109 395h148z" />
    <glyph glyph-name="w" unicode="w" horiz-adv-x="778" 
d="M613 0h-145l-81 381l-86 -381h-144l-152 540h145l86 -378l82 378h140l81 -378l82 378h145z" />
    <glyph glyph-name="x" unicode="x" horiz-adv-x="556" 
d="M355 272l180 -272h-168l-91 168l-92 -168h-168l180 272l-176 268h168l88 -163l87 163h168z" />
    <glyph glyph-name="y" unicode="y" horiz-adv-x="556" 
d="M210 -26v4l-201 562h154l119 -393l112 393h144l-222 -639q0 -1 -4 -13.5t-6.5 -17t-8 -17t-11.5 -18t-16 -16t-22.5 -16t-28.5 -11.5t-37 -8.5t-46 -2.5q-22 0 -50 4v105q22 -6 37 -6q37 0 62 26t25 64z" />
    <glyph glyph-name="z" unicode="z" horiz-adv-x="500" 
d="M459 540v-113l-265 -314h274v-113h-447v113l267 314h-249v113h420z" />
    <glyph glyph-name="braceleft" unicode="{" horiz-adv-x="389" 
d="M118 150q0 44 -15.5 58t-61.5 14l-4 1v92h16q65 1 65 63v211q0 61 34.5 100.5t88.5 39.5h76v-99h-37q-45 0 -45 -57v-195q0 -55 -20.5 -78t-76.5 -31q56 -9 76.5 -32t20.5 -78v-195q0 -37 10 -51t35 -14h37v-99h-76q-54 0 -88.5 39.5t-34.5 100.5v210z" />
    <glyph glyph-name="bar" unicode="|" horiz-adv-x="280" 
d="M180 729v-929h-80v929h80z" />
    <glyph glyph-name="braceright" unicode="}" horiz-adv-x="389" 
d="M271 379q0 -44 15.5 -58t61.5 -14l4 -1v-92h-16q-65 -1 -65 -63v-211q0 -61 -34.5 -100.5t-88.5 -39.5h-76v99h37q45 0 45 57v195q0 55 20.5 78t76.5 31q-56 9 -76.5 32t-20.5 78v195q0 37 -10 51t-35 14h-37v99h76q54 0 88.5 -39.5t34.5 -100.5v-210z" />
    <glyph glyph-name="asciitilde" unicode="~" horiz-adv-x="584" 
d="M388 222q33 0 42.5 15.5t10.5 50.5h78q-9 -146 -127 -146q-45 0 -83 26l-57 42q-32 24 -61 24q-32 0 -41.5 -15t-11.5 -50h-78q7 145 127 145q48 0 83 -25l57 -42q34 -25 61 -25z" />
    <glyph glyph-name="nonbreakingspace" unicode="&#xa0;" horiz-adv-x="278" 
 />
    <glyph glyph-name="exclamdown" unicode="&#xa1;" horiz-adv-x="333" 
d="M66 -186v210l42 309h67l41 -309v-210h-150zM66 394v146h150v-146h-150z" />
    <glyph glyph-name="cent" unicode="&#xa2;" horiz-adv-x="556" 
d="M303 435v-344q34 5 54 27.5t31 68.5h134q-8 -90 -69 -148t-150 -62v-101h-44v102q-104 7 -163.5 81.5t-59.5 199.5q0 129 57 203.5t166 85.5v86h44v-85q92 -1 152.5 -59.5t66.5 -151.5h-134q-10 46 -30 69t-55 28zM259 94v339q-83 -22 -83 -173q0 -141 83 -166z" />
    <glyph glyph-name="sterling" unicode="&#xa3;" horiz-adv-x="556" 
d="M179 513q0 -16 8.5 -37t24 -52.5t24.5 -52.5h139v-55h-122q15 -32 15 -59q0 -44 -26 -82.5t-90 -88.5q78 37 112 37q22 0 62 -10.5t65 -10.5q47 0 105 29l41 -109q-76 -45 -145 -45q-35 0 -98.5 16t-98.5 16q-49 0 -109 -30l-55 101q63 43 86.5 75t23.5 76q0 34 -21 85
h-89v55h60q-34 59 -43.5 85.5t-9.5 59.5q0 84 65 141.5t173 57.5q60 0 105 -15.5t70 -37.5t41 -55.5t21.5 -60.5t8.5 -62h-132l-1 11q-3 21 -8 36.5t-16 34t-33.5 28.5t-54.5 10q-43 0 -70.5 -25.5t-27.5 -65.5z" />
    <glyph glyph-name="currency" unicode="&#xa4;" horiz-adv-x="556" 
d="M388 528l73 73l69 -69l-75 -75q27 -54 27 -103q0 -57 -29 -108l77 -76l-69 -68l-75 75q-34 -19 -53.5 -24.5t-46.5 -5.5q-69 0 -111 31l-79 -78l-68 69l78 77q-30 55 -30 106q0 59 29 105l-79 79l69 68l77 -77q51 31 109 31q59 0 107 -30zM280 460q-45 0 -76.5 -31
t-31.5 -77q0 -44 31.5 -75.5t75.5 -31.5t75.5 31.5t31.5 76.5q0 44 -31.5 75.5t-74.5 31.5z" />
    <glyph glyph-name="yen" unicode="&#xa5;" horiz-adv-x="556" 
d="M497 351v-59h-142v-53h142v-59h-142v-180h-140v180h-145v59h145v53h-145v59h138l-203 353h139l139 -254l134 254h135l-192 -353h137z" />
    <glyph glyph-name="brokenbar" unicode="&#xa6;" horiz-adv-x="280" 
d="M180 729v-389h-80v389h80zM180 189v-389h-80v389h80z" />
    <glyph glyph-name="section" unicode="&#xa7;" horiz-adv-x="556" 
d="M125 428q-1 1 -8.5 8t-10 10t-9.5 11t-10 14t-8.5 15.5t-8 18.5t-4.5 21t-2 25q0 75 59 123.5t150 48.5q37 0 68 -7.5t61.5 -25.5t49.5 -55.5t21 -90.5h-127q-10 77 -78 77q-29 0 -46.5 -14t-17.5 -37q0 -21 18.5 -38.5t71.5 -46.5l127 -70q97 -54 97 -153
q0 -50 -22 -82.5t-72 -55.5q70 -49 70 -134t-60 -138t-158 -53q-209 0 -211 201h131v-10q2 -39 20 -59.5t61 -20.5q34 0 55 17t21 44q0 8 -2 15.5t-3.5 12.5t-7.5 11t-8.5 9t-11 8.5t-11 7t-13.5 7.5t-13 7l-171 100q-79 46 -79 132q0 45 19.5 75.5t72.5 71.5zM337 306
l-143 76q-42 -25 -42 -65q0 -23 11.5 -38t41.5 -32l147 -80q46 32 46 65q0 24 -13 39.5t-48 34.5z" />
    <glyph glyph-name="dieresis" unicode="&#xa8;" horiz-adv-x="333" 
d="M319 743v-122h-110v122h110zM123 743v-122h-110v122h110z" />
    <glyph glyph-name="copyright" unicode="&#xa9;" horiz-adv-x="737" 
d="M552 431h-90q-16 78 -93 78q-53 0 -83.5 -40t-30.5 -110t29.5 -109t81.5 -39q88 0 96 86h92q-4 -79 -55 -124t-135 -45q-92 0 -146.5 63t-54.5 169q0 107 55 169.5t149 62.5q78 0 128.5 -42t56.5 -119zM369 743q158 0 270 -112t112 -270q0 -160 -112.5 -271.5
t-274.5 -111.5q-155 0 -266.5 113t-111.5 270q0 158 112.5 270t270.5 112zM368 671q-125 0 -214.5 -91t-89.5 -219q0 -127 89 -219t212 -92q129 0 218.5 90.5t89.5 220.5q0 128 -89.5 219t-215.5 91z" />
    <glyph glyph-name="ordfeminine" unicode="&#xaa;" horiz-adv-x="370" 
d="M321 340v-78h-284v78h284zM329 410v-10h-92q-9 11 -10 32q-43 -46 -98 -46q-44 0 -71 27t-27 71q0 87 95 103l34 6q3 1 12 2t13.5 2t12.5 3t12 4.5t8.5 6t6.5 8.5t2 11q0 31 -49 31q-30 0 -43 -10t-16 -34h-78q2 112 135 112t133 -100v-179q0 -22 20 -40zM227 530v23
q-11 -6 -35 -10l-29 -6q-26 -5 -37 -15t-11 -29q0 -39 46 -39q31 0 48.5 20t17.5 56z" />
    <glyph glyph-name="guillemotleft" unicode="&#xab;" horiz-adv-x="556" 
d="M88 218v114l167 149v-117l-101 -89l101 -89v-114zM301 218v114l167 149v-117l-101 -89l101 -89v-114z" />
    <glyph glyph-name="logicalnot" unicode="&#xac;" horiz-adv-x="584" 
d="M39 376h504l1 -290h-119v170h-385z" />
    <glyph glyph-name="softhyphen" unicode="&#xad;" horiz-adv-x="333" 
d="M298 342v-135h-272v135h272z" />
    <glyph glyph-name="registered" unicode="&#xae;" horiz-adv-x="737" 
d="M288 313v-173h-96v443h238q57 0 89 -32t32 -89q0 -74 -70 -108q18 -8 26 -14.5t15.5 -14.5t9.5 -26.5t3.5 -39t2.5 -64.5q0 -24 19 -34v-21h-103q-14 27 -14 81q0 4 0.5 12.5t0.5 13.5v17q0 49 -61 49h-92zM288 394h103q36 0 50 11.5t14 42.5t-14 42.5t-50 11.5h-103
v-108zM369 743q158 0 270 -112t112 -270q0 -160 -112.5 -271.5t-274.5 -111.5q-155 0 -266.5 113t-111.5 270q0 158 112.5 270t270.5 112zM368 671q-125 0 -214.5 -91t-89.5 -219q0 -127 89 -219t212 -92q129 0 218.5 90.5t89.5 220.5q0 128 -89.5 219t-215.5 91z" />
    <glyph glyph-name="macron" unicode="&#xaf;" horiz-adv-x="333" 
d="M315 719v-79h-299v79h299z" />
    <glyph glyph-name="degree" unicode="&#xb0;" horiz-adv-x="606" 
d="M303 686q62 0 106.5 -44.5t44.5 -106.5q0 -64 -44.5 -108t-108.5 -44q-61 0 -105.5 45t-44.5 107t44.5 106.5t107.5 44.5zM303 623q-37 0 -63 -26t-26 -63q0 -35 26 -61.5t61 -26.5q38 0 64 26t26 63q0 36 -26 62t-62 26z" />
    <glyph glyph-name="plusminus" unicode="&#xb1;" horiz-adv-x="584" 
d="M527 103v-119h-471v119h471zM527 432v-119h-176v-176h-119v176h-176v119h176v176h119v-176h176z" />
    <glyph glyph-name="twosuperior" unicode="&#xb2;" horiz-adv-x="351" 
d="M328 584q0 -42 -20 -73t-46 -48t-63 -44t-60 -54h187v-81h-310q2 46 18.5 82t40.5 55.5t52 38.5t51.5 33t39 36t15.5 51q0 30 -16 47t-45 17t-44.5 -18.5t-15.5 -52.5q0 -2 2 -16h-92q-1 8 -1 18q0 69 40.5 106t115.5 37q73 0 112 -34.5t39 -99.5z" />
    <glyph glyph-name="threesuperior" unicode="&#xb3;" horiz-adv-x="351" 
d="M22 571q6 147 148 147q66 0 105.5 -32t39.5 -85q0 -57 -52 -89q66 -32 66 -103q0 -63 -43.5 -100.5t-115.5 -37.5q-73 0 -113.5 37.5t-41.5 105.5h92q4 -66 65 -66q27 0 44.5 17t17.5 43q0 61 -84 63h-16v62h11q75 0 75 58q0 25 -14.5 39.5t-38.5 14.5q-33 0 -45 -19
t-12 -55h-88z" />
    <glyph glyph-name="acute" unicode="&#xb4;" horiz-adv-x="333" 
d="M317 757l-126 -150h-70l70 150h126z" />
    <glyph glyph-name="micro" unicode="&#xb5;" horiz-adv-x="611" 
d="M198 206q0 -110 84 -110q44 0 72.5 30t28.5 76v338h140v-390q0 -44 6 -58.5t24 -14.5q7 0 20 4v-87q-33 -17 -70 -17q-35 0 -56 12t-39 42q-29 -30 -55 -42t-61 -12q-61 0 -100 38v-235h-134v760h140v-334z" />
    <glyph glyph-name="paragraph" unicode="&#xb6;" horiz-adv-x="556" 
d="M19 495q0 99 59.5 166.5t147.5 67.5h303v-72h-43v-848h-98v848h-63v-848h-98v458q-92 4 -150 68t-58 160z" />
    <glyph glyph-name="periodcentered" unicode="&#xb7;" horiz-adv-x="278" 
d="M64 292h124v-123h-124v123z" />
    <glyph glyph-name="cedilla" unicode="&#xb8;" horiz-adv-x="333" 
d="M162 0h43l-29 -63q21 7 42 7q35 0 55.5 -19t20.5 -52q0 -45 -33.5 -69t-95.5 -24q-55 0 -138 28l19 52q69 -30 105 -30q24 0 40.5 12t16.5 29q0 16 -14 25.5t-37 9.5q-24 0 -49 -12z" />
    <glyph glyph-name="onesuperior" unicode="&#xb9;" horiz-adv-x="300" 
d="M147 573h-107v61q117 0 138 75h64v-425h-95v289z" />
    <glyph glyph-name="ordmasculine" unicode="&#xba;" horiz-adv-x="365" 
d="M334 340v-78h-301v78h301zM183 729q76 0 118 -46t42 -128q0 -78 -43 -123.5t-117 -45.5t-117 46t-43 125q0 80 43 126t117 46zM183 661q-34 0 -55 -28.5t-21 -74.5t21 -75t55 -29t55 28.5t21 73.5q0 47 -21 76t-55 29z" />
    <glyph glyph-name="guillemotright" unicode="&#xbb;" horiz-adv-x="556" 
d="M255 335v-115l-167 -148v117l101 89l-101 89v114zM462 335v-115l-167 -148v117l101 89l-101 89v114z" />
    <glyph glyph-name="onequarter" unicode="&#xbc;" horiz-adv-x="869" 
d="M147 573h-107v61q117 0 138 75h64v-425h-95v289zM593 715h87l-423 -735h-87zM850 168v-75h-46v-93h-95v93h-179v74l165 258h109v-257h46zM709 168v164l-106 -164h106z" />
    <glyph glyph-name="onehalf" unicode="&#xbd;" horiz-adv-x="869" 
d="M147 573h-107v61q117 0 138 75h64v-425h-95v289zM587 715h87l-423 -735h-87zM846 300q0 -42 -20 -73t-46 -48t-63 -44t-60 -54h187v-81h-310q2 46 18.5 82t40.5 55.5t52 38.5t51.5 33t39 36t15.5 51q0 30 -16 47t-45 17t-44.5 -18.5t-15.5 -52.5q0 -2 2 -16h-92
q-1 8 -1 18q0 69 40.5 106t115.5 37q73 0 112 -34.5t39 -99.5z" />
    <glyph glyph-name="threequarters" unicode="&#xbe;" horiz-adv-x="869" 
d="M22 571q6 147 148 147q66 0 105.5 -32t39.5 -85q0 -57 -52 -89q66 -32 66 -103q0 -63 -43.5 -100.5t-115.5 -37.5q-73 0 -113.5 37.5t-41.5 105.5h92q4 -66 65 -66q27 0 44.5 17t17.5 43q0 61 -84 63h-16v62h11q75 0 75 58q0 25 -14.5 39.5t-38.5 14.5q-33 0 -45 -19
t-12 -55h-88zM625 715h87l-423 -735h-87zM850 168v-75h-46v-93h-95v93h-179v74l165 258h109v-257h46zM709 168v164l-106 -164h106z" />
    <glyph glyph-name="questiondown" unicode="&#xbf;" horiz-adv-x="611" 
d="M544 59q-1 -65 -17.5 -114t-41 -76.5t-58.5 -44.5t-63.5 -22.5t-62.5 -5.5q-110 0 -179.5 64t-69.5 166q0 63 25 104t95 90q45 32 56 51t11 68h124v-14q0 -50 -17.5 -87.5t-42.5 -60.5t-50 -43t-42.5 -46t-17.5 -59q0 -49 30 -82t75 -33q47 0 78.5 38t31.5 96v9v2h136z
M223 394v146h150v-146h-150z" />
    <glyph glyph-name="Agrave" unicode="&#xc0;" horiz-adv-x="722" 
d="M221 936h126l70 -150h-70zM501 147h-273l-49 -147h-153l259 729h166l252 -729h-154zM460 272l-95 285l-95 -285h190z" />
    <glyph glyph-name="Aacute" unicode="&#xc1;" horiz-adv-x="722" 
d="M511 935l-126 -150h-70l70 150h126zM501 147h-273l-49 -147h-153l259 729h166l252 -729h-154zM460 272l-95 285l-95 -285h190z" />
    <glyph glyph-name="Acircumflex" unicode="&#xc2;" horiz-adv-x="722" 
d="M312 936h107l103 -150h-78l-82 100l-82 -100h-76zM501 147h-273l-49 -147h-153l259 729h166l252 -729h-154zM460 272l-95 285l-95 -285h190z" />
    <glyph glyph-name="Atilde" unicode="&#xc3;" horiz-adv-x="722" 
d="M484 928h63q-6 -127 -95 -127q-24 0 -55 12l-71 26q-18 6 -30 6q-18 0 -27 -10.5t-13 -34.5h-63q3 58 28 91t66 33q20 0 56 -13l71 -25q14 -6 34 -6q32 0 36 48zM501 147h-273l-49 -147h-153l259 729h166l252 -729h-154zM460 272l-95 285l-95 -285h190z" />
    <glyph glyph-name="Adieresis" unicode="&#xc4;" horiz-adv-x="722" 
d="M517 922v-122h-110v122h110zM321 922v-122h-110v122h110zM501 147h-273l-49 -147h-153l259 729h166l252 -729h-154zM460 272l-95 285l-95 -285h190z" />
    <glyph glyph-name="Aring" unicode="&#xc5;" horiz-adv-x="722" 
d="M364 949q37 0 63 -26.5t26 -64.5q0 -37 -26.5 -63t-63.5 -26t-63.5 26t-26.5 64t26.5 64t64.5 26zM364 901q-18 0 -30.5 -12.5t-12.5 -29.5t12.5 -29.5t30.5 -12.5q17 0 29 12.5t12 29.5t-12 29.5t-29 12.5zM501 147h-273l-49 -147h-153l259 729h166l252 -729h-154z
M460 272l-95 285l-95 -285h190z" />
    <glyph glyph-name="AE" unicode="&#xc6;" horiz-adv-x="1000" 
d="M430 152h-223l-53 -152h-153l263 729h682v-125h-366v-165h339v-125h-339v-189h386v-125h-536v152zM430 277v327h-67l-114 -327h181z" />
    <glyph glyph-name="Ccedilla" unicode="&#xc7;" horiz-adv-x="722" 
d="M539 482q-28 131 -156 131q-89 0 -139 -68t-50 -189q0 -119 48.5 -186t135.5 -67q70 0 112 38t49 108h146q-6 -124 -87.5 -196.5t-218.5 -75.5l-19 -40q20 7 42 7q35 0 55.5 -19t20.5 -52q0 -45 -33.5 -69t-95.5 -24q-55 0 -138 28l19 52q69 -30 105 -30q24 0 40.5 12
t16.5 29q0 16 -14 25.5t-37 9.5q-24 0 -49 -12l43 83q-69 12 -106.5 28.5t-73.5 50.5q-111 106 -111 302q0 177 90 280t244 103q129 0 211.5 -69t92.5 -190h-143z" />
    <glyph glyph-name="Egrave" unicode="&#xc8;" horiz-adv-x="667" 
d="M207 936h126l70 -150h-70zM229 314v-189h395v-125h-545v729h527v-125h-377v-165h349v-125h-349z" />
    <glyph glyph-name="Eacute" unicode="&#xc9;" horiz-adv-x="667" 
d="M481 936l-126 -150h-70l70 150h126zM229 314v-189h395v-125h-545v729h527v-125h-377v-165h349v-125h-349z" />
    <glyph glyph-name="Ecircumflex" unicode="&#xca;" horiz-adv-x="667" 
d="M294 936h107l103 -150h-78l-82 100l-82 -100h-76zM229 314v-189h395v-125h-545v729h527v-125h-377v-165h349v-125h-349z" />
    <glyph glyph-name="Edieresis" unicode="&#xcb;" horiz-adv-x="667" 
d="M497 922v-122h-110v122h110zM301 922v-122h-110v122h110zM229 314v-189h395v-125h-545v729h527v-125h-377v-165h349v-125h-349z" />
    <glyph glyph-name="Igrave" unicode="&#xcc;" horiz-adv-x="278" 
d="M-10 936h126l70 -150h-70zM213 729v-729h-150v729h150z" />
    <glyph glyph-name="Iacute" unicode="&#xcd;" horiz-adv-x="278" 
d="M290 936l-126 -150h-70l70 150h126zM213 729v-729h-150v729h150z" />
    <glyph glyph-name="Icircumflex" unicode="&#xce;" horiz-adv-x="278" 
d="M89 936h107l103 -150h-78l-82 100l-82 -100h-76zM213 729v-729h-150v729h150z" />
    <glyph glyph-name="Idieresis" unicode="&#xcf;" horiz-adv-x="278" 
d="M292 922v-122h-110v122h110zM96 922v-122h-110v122h110zM213 729v-729h-150v729h150z" />
    <glyph glyph-name="Eth" unicode="&#xd0;" horiz-adv-x="722" 
d="M77 339h-77v80h77v310h285q87 0 141 -19.5t90 -64.5q42 -51 65 -125t23 -155t-23.5 -154.5t-64.5 -125.5q-36 -45 -90.5 -65t-140.5 -20h-285v339zM537 364q0 129 -45 184.5t-130 55.5h-135v-185h150v-80h-150v-214h135q82 0 128.5 53t46.5 186z" />
    <glyph glyph-name="Ntilde" unicode="&#xd1;" horiz-adv-x="722" 
d="M484 928h63q-6 -127 -95 -127q-24 0 -55 12l-71 26q-18 6 -30 6q-18 0 -27 -10.5t-13 -34.5h-63q3 58 28 91t66 33q20 0 56 -13l71 -25q14 -6 34 -6q32 0 36 48zM511 0l-293 504v-504h-150v729h154l289 -496v496h150v-729h-150z" />
    <glyph glyph-name="Ograve" unicode="&#xd2;" horiz-adv-x="778" 
d="M254 936h126l70 -150h-70zM40 359q0 168 96.5 275t253.5 107q158 0 255 -106.5t97 -280.5q0 -162 -95.5 -269.5t-255.5 -107.5q-159 0 -255 107t-96 275zM391 613q-91 0 -146 -69.5t-55 -184.5t55 -184.5t146 -69.5q90 0 145.5 69t55.5 181q0 118 -54.5 188t-146.5 70z
" />
    <glyph glyph-name="Oacute" unicode="&#xd3;" horiz-adv-x="778" 
d="M530 936l-126 -150h-70l70 150h126zM40 359q0 168 96.5 275t253.5 107q158 0 255 -106.5t97 -280.5q0 -162 -95.5 -269.5t-255.5 -107.5q-159 0 -255 107t-96 275zM391 613q-91 0 -146 -69.5t-55 -184.5t55 -184.5t146 -69.5q90 0 145.5 69t55.5 181q0 118 -54.5 188
t-146.5 70z" />
    <glyph glyph-name="Ocircumflex" unicode="&#xd4;" horiz-adv-x="778" 
d="M340 936h107l103 -150h-78l-82 100l-82 -100h-76zM40 359q0 168 96.5 275t253.5 107q158 0 255 -106.5t97 -280.5q0 -162 -95.5 -269.5t-255.5 -107.5q-159 0 -255 107t-96 275zM391 613q-91 0 -146 -69.5t-55 -184.5t55 -184.5t146 -69.5q90 0 145.5 69t55.5 181
q0 118 -54.5 188t-146.5 70z" />
    <glyph glyph-name="Otilde" unicode="&#xd5;" horiz-adv-x="778" 
d="M512 928h63q-6 -127 -95 -127q-24 0 -55 12l-71 26q-18 6 -30 6q-18 0 -27 -10.5t-13 -34.5h-63q3 58 28 91t66 33q20 0 56 -13l71 -25q14 -6 34 -6q32 0 36 48zM40 359q0 168 96.5 275t253.5 107q158 0 255 -106.5t97 -280.5q0 -162 -95.5 -269.5t-255.5 -107.5
q-159 0 -255 107t-96 275zM391 613q-91 0 -146 -69.5t-55 -184.5t55 -184.5t146 -69.5q90 0 145.5 69t55.5 181q0 118 -54.5 188t-146.5 70z" />
    <glyph glyph-name="Odieresis" unicode="&#xd6;" horiz-adv-x="778" 
d="M544 923v-122h-110v122h110zM348 923v-122h-110v122h110zM40 359q0 168 96.5 275t253.5 107q158 0 255 -106.5t97 -280.5q0 -162 -95.5 -269.5t-255.5 -107.5q-159 0 -255 107t-96 275zM391 613q-91 0 -146 -69.5t-55 -184.5t55 -184.5t146 -69.5q90 0 145.5 69t55.5 181
q0 118 -54.5 188t-146.5 70z" />
    <glyph glyph-name="multiply" unicode="&#xd7;" horiz-adv-x="584" 
d="M421 444l84 -84l-129 -129l128 -129l-84 -84l-128 129l-128 -128l-84 84l128 128l-129 128l84 85l129 -129z" />
    <glyph glyph-name="Oslash" unicode="&#xd8;" horiz-adv-x="778" 
d="M740 357q0 -163 -96 -271.5t-256 -108.5q-136 0 -223 75l-83 -91l-51 46l86 95q-82 110 -82 257q0 167 97 274.5t256 107.5q137 0 232 -84l83 92l52 -45l-89 -99q74 -101 74 -248zM567 497l-311 -344q50 -48 132 -48q92 0 147 70t55 186q0 75 -23 136zM214 209l314 346
q-55 58 -140 58q-93 0 -148 -70t-55 -187q0 -83 29 -147z" />
    <glyph glyph-name="Ugrave" unicode="&#xd9;" horiz-adv-x="722" 
d="M228 936h126l70 -150h-70zM365 -23q-40 0 -77.5 7t-77 25t-68.5 46t-47.5 74.5t-18.5 105.5v494h150v-494q0 -130 139 -130t139 130v494h150v-494q0 -59 -18.5 -105.5t-47.5 -74.5t-68.5 -46t-77 -25t-77.5 -7z" />
    <glyph glyph-name="Uacute" unicode="&#xda;" horiz-adv-x="722" 
d="M504 936l-126 -150h-70l70 150h126zM365 -23q-40 0 -77.5 7t-77 25t-68.5 46t-47.5 74.5t-18.5 105.5v494h150v-494q0 -130 139 -130t139 130v494h150v-494q0 -59 -18.5 -105.5t-47.5 -74.5t-68.5 -46t-77 -25t-77.5 -7z" />
    <glyph glyph-name="Ucircumflex" unicode="&#xdb;" horiz-adv-x="722" 
d="M314 936h107l103 -150h-78l-82 100l-82 -100h-76zM365 -23q-40 0 -77.5 7t-77 25t-68.5 46t-47.5 74.5t-18.5 105.5v494h150v-494q0 -130 139 -130t139 130v494h150v-494q0 -59 -18.5 -105.5t-47.5 -74.5t-68.5 -46t-77 -25t-77.5 -7z" />
    <glyph glyph-name="Udieresis" unicode="&#xdc;" horiz-adv-x="722" 
d="M518 922v-122h-110v122h110zM322 922v-122h-110v122h110zM365 -23q-40 0 -77.5 7t-77 25t-68.5 46t-47.5 74.5t-18.5 105.5v494h150v-494q0 -130 139 -130t139 130v494h150v-494q0 -59 -18.5 -105.5t-47.5 -74.5t-68.5 -46t-77 -25t-77.5 -7z" />
    <glyph glyph-name="Yacute" unicode="&#xdd;" horiz-adv-x="667" 
d="M479 936l-126 -150h-70l70 150h126zM419 270v-270h-150v270l-242 459h167l149 -322l139 322h168z" />
    <glyph glyph-name="Thorn" unicode="&#xde;" horiz-adv-x="667" 
d="M398 609q235 0 235 -227q0 -112 -59.5 -177t-160.5 -65h-187v-140h-150v729h150v-120h172zM226 265h140q117 0 117 109q0 56 -28.5 83t-88.5 27h-140v-219z" />
    <glyph glyph-name="germandbls" unicode="&#xdf;" horiz-adv-x="611" 
d="M445 411q18 -4 35.5 -11.5t41.5 -25.5t38.5 -53.5t14.5 -84.5q0 -114 -60 -183.5t-158 -69.5q-23 0 -72 6v112q6 1 13 1l20 1q52 1 84.5 35.5t32.5 87.5q0 57 -36.5 90t-100.5 33h-13v95h9q45 1 71.5 25t26.5 64q0 39 -26 61t-72 22q-41 0 -64 -21t-23 -58v-537h-140v518
q0 96 52.5 153.5t183.5 57.5q101 0 165 -51t64 -131q0 -102 -87 -136z" />
    <glyph glyph-name="agrave" unicode="&#xe0;" horiz-adv-x="556" 
d="M132 757h126l70 -150h-70zM192 -23q-74 0 -119 44.5t-45 117.5q0 143 159 170l56 10q2 0 20 2.5t23 4t19.5 4.5t20.5 7t14.5 10.5t11.5 15t3 19.5q0 54 -81 54q-52 0 -73 -16t-26 -58h-135q13 187 231 187q221 0 221 -166v-300q0 -37 32 -66v-17h-152q-16 20 -16 54
q-74 -77 -164 -77zM355 217v38q-19 -9 -59 -17l-48 -9q-44 -9 -62 -26t-18 -48q0 -30 20.5 -47.5t55.5 -17.5q53 0 82 33t29 94z" />
    <glyph glyph-name="aacute" unicode="&#xe1;" horiz-adv-x="556" 
d="M411 757l-126 -150h-70l70 150h126zM192 -23q-74 0 -119 44.5t-45 117.5q0 143 159 170l56 10q2 0 20 2.5t23 4t19.5 4.5t20.5 7t14.5 10.5t11.5 15t3 19.5q0 54 -81 54q-52 0 -73 -16t-26 -58h-135q13 187 231 187q221 0 221 -166v-300q0 -37 32 -66v-17h-152
q-16 20 -16 54q-74 -77 -164 -77zM355 217v38q-19 -9 -59 -17l-48 -9q-44 -9 -62 -26t-18 -48q0 -30 20.5 -47.5t55.5 -17.5q53 0 82 33t29 94z" />
    <glyph glyph-name="acircumflex" unicode="&#xe2;" horiz-adv-x="556" 
d="M221 757h107l103 -150h-78l-82 100l-82 -100h-76zM192 -23q-74 0 -119 44.5t-45 117.5q0 143 159 170l56 10q2 0 20 2.5t23 4t19.5 4.5t20.5 7t14.5 10.5t11.5 15t3 19.5q0 54 -81 54q-52 0 -73 -16t-26 -58h-135q13 187 231 187q221 0 221 -166v-300q0 -37 32 -66v-17
h-152q-16 20 -16 54q-74 -77 -164 -77zM355 217v38q-19 -9 -59 -17l-48 -9q-44 -9 -62 -26t-18 -48q0 -30 20.5 -47.5t55.5 -17.5q53 0 82 33t29 94z" />
    <glyph glyph-name="atilde" unicode="&#xe3;" horiz-adv-x="556" 
d="M386 749h63q-6 -127 -95 -127q-24 0 -55 12l-71 26q-18 6 -30 6q-18 0 -27 -10.5t-13 -34.5h-63q3 58 28 91t66 33q20 0 56 -13l71 -25q14 -6 34 -6q32 0 36 48zM192 -23q-74 0 -119 44.5t-45 117.5q0 143 159 170l56 10q2 0 20 2.5t23 4t19.5 4.5t20.5 7t14.5 10.5
t11.5 15t3 19.5q0 54 -81 54q-52 0 -73 -16t-26 -58h-135q13 187 231 187q221 0 221 -166v-300q0 -37 32 -66v-17h-152q-16 20 -16 54q-74 -77 -164 -77zM355 217v38q-19 -9 -59 -17l-48 -9q-44 -9 -62 -26t-18 -48q0 -30 20.5 -47.5t55.5 -17.5q53 0 82 33t29 94z" />
    <glyph glyph-name="adieresis" unicode="&#xe4;" horiz-adv-x="556" 
d="M425 743v-122h-110v122h110zM229 743v-122h-110v122h110zM192 -23q-74 0 -119 44.5t-45 117.5q0 143 159 170l56 10q2 0 20 2.5t23 4t19.5 4.5t20.5 7t14.5 10.5t11.5 15t3 19.5q0 54 -81 54q-52 0 -73 -16t-26 -58h-135q13 187 231 187q221 0 221 -166v-300
q0 -37 32 -66v-17h-152q-16 20 -16 54q-74 -77 -164 -77zM355 217v38q-19 -9 -59 -17l-48 -9q-44 -9 -62 -26t-18 -48q0 -30 20.5 -47.5t55.5 -17.5q53 0 82 33t29 94z" />
    <glyph glyph-name="aring" unicode="&#xe5;" horiz-adv-x="556" 
d="M273 770q37 0 63 -26.5t26 -64.5q0 -37 -26.5 -63t-63.5 -26t-63.5 26t-26.5 64t26.5 64t64.5 26zM273 722q-18 0 -30.5 -12.5t-12.5 -29.5t12.5 -29.5t30.5 -12.5q17 0 29 12.5t12 29.5t-12 29.5t-29 12.5zM192 -23q-74 0 -119 44.5t-45 117.5q0 143 159 170l56 10
q2 0 20 2.5t23 4t19.5 4.5t20.5 7t14.5 10.5t11.5 15t3 19.5q0 54 -81 54q-52 0 -73 -16t-26 -58h-135q13 187 231 187q221 0 221 -166v-300q0 -37 32 -66v-17h-152q-16 20 -16 54q-74 -77 -164 -77zM355 217v38q-19 -9 -59 -17l-48 -9q-44 -9 -62 -26t-18 -48
q0 -30 20.5 -47.5t55.5 -17.5q53 0 82 33t29 94z" />
    <glyph glyph-name="ae" unicode="&#xe6;" horiz-adv-x="889" 
d="M495 226q0 -142 114 -142q36 0 65.5 19.5t38.5 48.5h138q-23 -80 -91 -127.5t-159 -47.5q-136 0 -200 104q-89 -105 -205 -105q-77 0 -122.5 44.5t-45.5 120.5q0 145 159 171l56 10q5 1 22.5 3.5t23.5 4l20 5t19.5 7t13 9.5t10.5 14t3 18q0 53 -85 53q-47 0 -68.5 -16.5
t-26.5 -57.5h-131q3 187 228 187q117 0 175 -50q62 50 155 50q46 0 88 -14t81.5 -45.5t63 -93t23.5 -146.5q0 -12 -1 -24h-362zM355 216v38q-22 -13 -59 -19l-48 -7q-80 -11 -80 -73q0 -31 20.5 -48.5t55.5 -17.5q54 0 82.5 32.5t28.5 94.5zM496 319h216q-11 123 -109 123
t-107 -123z" />
    <glyph glyph-name="ccedilla" unicode="&#xe7;" horiz-adv-x="556" 
d="M174 260q0 -42 9 -77.5t36 -64t70 -28.5q40 0 63 22.5t36 74.5h134q-8 -93 -72 -151.5t-157 -58.5h-2l-17 -40q18 7 41 7q36 0 56.5 -19t20.5 -52q0 -45 -33.5 -69t-95.5 -24q-58 0 -138 28l19 52q67 -30 104 -30q24 0 41 12t17 29q0 16 -14 25.5t-37 9.5q-25 0 -50 -12
l43 85q-104 14 -159 86t-55 194q0 138 67 214t188 76q101 0 163.5 -56t69.5 -155h-134q-12 53 -34.5 75.5t-65.5 22.5q-114 0 -114 -176z" />
    <glyph glyph-name="egrave" unicode="&#xe8;" horiz-adv-x="556" 
d="M133 757h126l70 -150h-70zM272 549q35 0 68 -8t67.5 -29t60 -53.5t41.5 -86t16 -122.5q0 -12 -1 -24h-362q1 -31 5.5 -53.5t16 -44t34 -33t56.5 -11.5q80 0 107 68h138q-23 -80 -91 -127.5t-159 -47.5q-115 0 -181 74.5t-66 204.5q0 136 67 214.5t183 78.5zM379 319
q-5 59 -32.5 91t-76.5 32q-92 0 -106 -123h215z" />
    <glyph glyph-name="eacute" unicode="&#xe9;" horiz-adv-x="556" 
d="M419 757l-126 -150h-70l70 150h126zM272 549q35 0 68 -8t67.5 -29t60 -53.5t41.5 -86t16 -122.5q0 -12 -1 -24h-362q1 -31 5.5 -53.5t16 -44t34 -33t56.5 -11.5q80 0 107 68h138q-23 -80 -91 -127.5t-159 -47.5q-115 0 -181 74.5t-66 204.5q0 136 67 214.5t183 78.5z
M379 319q-5 59 -32.5 91t-76.5 32q-92 0 -106 -123h215z" />
    <glyph glyph-name="ecircumflex" unicode="&#xea;" horiz-adv-x="556" 
d="M229 757h107l103 -150h-78l-82 100l-82 -100h-76zM272 549q35 0 68 -8t67.5 -29t60 -53.5t41.5 -86t16 -122.5q0 -12 -1 -24h-362q1 -31 5.5 -53.5t16 -44t34 -33t56.5 -11.5q80 0 107 68h138q-23 -80 -91 -127.5t-159 -47.5q-115 0 -181 74.5t-66 204.5q0 136 67 214.5
t183 78.5zM379 319q-5 59 -32.5 91t-76.5 32q-92 0 -106 -123h215z" />
    <glyph glyph-name="edieresis" unicode="&#xeb;" horiz-adv-x="556" 
d="M433 743v-122h-110v122h110zM237 743v-122h-110v122h110zM272 549q35 0 68 -8t67.5 -29t60 -53.5t41.5 -86t16 -122.5q0 -12 -1 -24h-362q1 -31 5.5 -53.5t16 -44t34 -33t56.5 -11.5q80 0 107 68h138q-23 -80 -91 -127.5t-159 -47.5q-115 0 -181 74.5t-66 204.5
q0 136 67 214.5t183 78.5zM379 319q-5 59 -32.5 91t-76.5 32q-92 0 -106 -123h215z" />
    <glyph glyph-name="igrave" unicode="&#xec;" horiz-adv-x="278" 
d="M-10 757h126l70 -150h-70zM207 540v-540h-140v540h140z" />
    <glyph glyph-name="iacute" unicode="&#xed;" horiz-adv-x="278" 
d="M290 757l-126 -150h-70l70 150h126zM207 540v-540h-140v540h140z" />
    <glyph glyph-name="icircumflex" unicode="&#xee;" horiz-adv-x="278" 
d="M89 757h107l103 -150h-78l-82 100l-82 -100h-76zM207 540v-540h-140v540h140z" />
    <glyph glyph-name="idieresis" unicode="&#xef;" horiz-adv-x="278" 
d="M292 743v-122h-110v122h110zM96 743v-122h-110v122h110zM207 540v-540h-140v540h140z" />
    <glyph glyph-name="eth" unicode="&#xf0;" horiz-adv-x="611" 
d="M192 741q37 -14 65.5 -30t36.5 -19l87 52l51 -34l-84 -50q113 -77 167 -172t54 -219q0 -138 -70.5 -215t-196.5 -77q-125 0 -196 76.5t-71 211.5q0 121 66 195t173 74q36 0 85 -19q-40 64 -95 96l-77 -46l-42 37l70 44q-38 23 -90 48zM302 429q-57 0 -91.5 -46.5
t-34.5 -122.5q0 -77 34.5 -123.5t91.5 -46.5t91.5 46t34.5 121q0 79 -34 125.5t-92 46.5z" />
    <glyph glyph-name="ntilde" unicode="&#xf1;" horiz-adv-x="611" 
d="M416 749h63q-6 -127 -95 -127q-24 0 -55 12l-71 26q-18 6 -30 6q-18 0 -27 -10.5t-13 -34.5h-63q3 58 28 91t66 33q20 0 56 -13l71 -25q14 -6 34 -6q32 0 36 48zM63 540h140v-78q58 87 162 87q86 0 133.5 -49t47.5 -138v-362h-140v333q0 97 -90 97q-51 0 -82 -29t-31 -77
v-324h-140v540z" />
    <glyph glyph-name="ograve" unicode="&#xf2;" horiz-adv-x="611" 
d="M165 757h126l70 -150h-70zM301 549q127 0 197.5 -76.5t70.5 -213.5q0 -130 -72 -206t-195 -76q-125 0 -196 76.5t-71 209.5t71 209.5t195 76.5zM302 436q-57 0 -92 -48t-35 -125t35 -125t92 -48q56 0 91.5 47.5t35.5 123.5q0 80 -34.5 127.5t-92.5 47.5z" />
    <glyph glyph-name="oacute" unicode="&#xf3;" horiz-adv-x="611" 
d="M441 757l-126 -150h-70l70 150h126zM301 549q127 0 197.5 -76.5t70.5 -213.5q0 -130 -72 -206t-195 -76q-125 0 -196 76.5t-71 209.5t71 209.5t195 76.5zM302 436q-57 0 -92 -48t-35 -125t35 -125t92 -48q56 0 91.5 47.5t35.5 123.5q0 80 -34.5 127.5t-92.5 47.5z" />
    <glyph glyph-name="ocircumflex" unicode="&#xf4;" horiz-adv-x="611" 
d="M250 759h107l103 -150h-78l-82 100l-82 -100h-76zM301 549q127 0 197.5 -76.5t70.5 -213.5q0 -130 -72 -206t-195 -76q-125 0 -196 76.5t-71 209.5t71 209.5t195 76.5zM302 436q-57 0 -92 -48t-35 -125t35 -125t92 -48q56 0 91.5 47.5t35.5 123.5q0 80 -34.5 127.5
t-92.5 47.5z" />
    <glyph glyph-name="otilde" unicode="&#xf5;" horiz-adv-x="611" 
d="M419 749h63q-6 -127 -95 -127q-24 0 -55 12l-71 26q-18 6 -30 6q-18 0 -27 -10.5t-13 -34.5h-63q3 58 28 91t66 33q20 0 56 -13l71 -25q14 -6 34 -6q32 0 36 48zM301 549q127 0 197.5 -76.5t70.5 -213.5q0 -130 -72 -206t-195 -76q-125 0 -196 76.5t-71 209.5t71 209.5
t195 76.5zM302 436q-57 0 -92 -48t-35 -125t35 -125t92 -48q56 0 91.5 47.5t35.5 123.5q0 80 -34.5 127.5t-92.5 47.5z" />
    <glyph glyph-name="odieresis" unicode="&#xf6;" horiz-adv-x="611" 
d="M455 743v-122h-110v122h110zM259 743v-122h-110v122h110zM301 549q127 0 197.5 -76.5t70.5 -213.5q0 -130 -72 -206t-195 -76q-125 0 -196 76.5t-71 209.5t71 209.5t195 76.5zM302 436q-57 0 -92 -48t-35 -125t35 -125t92 -48q56 0 91.5 47.5t35.5 123.5
q0 80 -34.5 127.5t-92.5 47.5z" />
    <glyph glyph-name="divide" unicode="&#xf7;" horiz-adv-x="584" 
d="M534 291v-119h-484v119h484zM230 474h124v-123h-124v123zM230 112h124v-123h-124v123z" />
    <glyph glyph-name="oslash" unicode="&#xf8;" horiz-adv-x="611" 
d="M126 35l-72 -73l-43 40l75 77q-50 72 -50 184q0 133 72 209.5t197 76.5q107 0 182 -62l68 70l43 -41l-72 -73q47 -73 47 -180q0 -133 -71.5 -209.5t-195.5 -76.5q-116 0 -180 58zM421 336l-201 -204q36 -42 86 -42q55 0 91 48t36 122q0 40 -12 76zM190 184l202 206
q-39 47 -89 47q-56 0 -91.5 -48t-35.5 -123q0 -46 14 -82z" />
    <glyph glyph-name="ugrave" unicode="&#xf9;" horiz-adv-x="611" 
d="M163 757h126l70 -150h-70zM541 0h-140v64q-58 -87 -162 -87q-86 0 -133.5 49t-47.5 138v376h140v-347q0 -97 90 -97q51 0 82 29t31 77v338h140v-540z" />
    <glyph glyph-name="uacute" unicode="&#xfa;" horiz-adv-x="611" 
d="M439 757l-126 -150h-70l70 150h126zM541 0h-140v64q-58 -87 -162 -87q-86 0 -133.5 49t-47.5 138v376h140v-347q0 -97 90 -97q51 0 82 29t31 77v338h140v-540z" />
    <glyph glyph-name="ucircumflex" unicode="&#xfb;" horiz-adv-x="611" 
d="M248 757h107l103 -150h-78l-82 100l-82 -100h-76zM541 0h-140v64q-58 -87 -162 -87q-86 0 -133.5 49t-47.5 138v376h140v-347q0 -97 90 -97q51 0 82 29t31 77v338h140v-540z" />
    <glyph glyph-name="udieresis" unicode="&#xfc;" horiz-adv-x="611" 
d="M451 743v-122h-110v122h110zM255 743v-122h-110v122h110zM541 0h-140v64q-58 -87 -162 -87q-86 0 -133.5 49t-47.5 138v376h140v-347q0 -97 90 -97q51 0 82 29t31 77v338h140v-540z" />
    <glyph glyph-name="yacute" unicode="&#xfd;" horiz-adv-x="556" 
d="M411 757l-126 -150h-70l70 150h126zM210 -26v4l-201 562h154l119 -393l112 393h144l-222 -639q0 -1 -4 -13.5t-6.5 -17t-8 -17t-11.5 -18t-16 -16t-22.5 -16t-28.5 -11.5t-37 -8.5t-46 -2.5q-22 0 -50 4v105q22 -6 37 -6q37 0 62 26t25 64z" />
    <glyph glyph-name="thorn" unicode="&#xfe;" horiz-adv-x="611" 
d="M198 729v-269q50 89 150 89q97 0 161.5 -81.5t64.5 -205.5q0 -122 -64.5 -203.5t-161.5 -81.5q-100 0 -150 87v-282h-140v947h140zM316 432q-53 0 -85.5 -47t-32.5 -123q0 -75 32.5 -121.5t85.5 -46.5q52 0 85 46.5t33 119.5q0 77 -32.5 124.5t-85.5 47.5z" />
    <glyph glyph-name="ydieresis" unicode="&#xff;" horiz-adv-x="556" 
d="M427 743v-122h-110v122h110zM231 743v-122h-110v122h110zM210 -26v4l-201 562h154l119 -393l112 393h144l-222 -639q0 -1 -4 -13.5t-6.5 -17t-8 -17t-11.5 -18t-16 -16t-22.5 -16t-28.5 -11.5t-37 -8.5t-46 -2.5q-22 0 -50 4v105q22 -6 37 -6q37 0 62 26t25 64z" />
    <glyph glyph-name="Amacron" unicode="&#x100;" horiz-adv-x="722" 
d="M514 898v-79h-299v79h299zM501 147h-273l-49 -147h-153l259 729h166l252 -729h-154zM460 272l-95 285l-95 -285h190z" />
    <glyph glyph-name="amacron" unicode="&#x101;" horiz-adv-x="556" 
d="M421 719v-79h-299v79h299zM192 -23q-74 0 -119 44.5t-45 117.5q0 143 159 170l56 10q2 0 20 2.5t23 4t19.5 4.5t20.5 7t14.5 10.5t11.5 15t3 19.5q0 54 -81 54q-52 0 -73 -16t-26 -58h-135q13 187 231 187q221 0 221 -166v-300q0 -37 32 -66v-17h-152q-16 20 -16 54
q-74 -77 -164 -77zM355 217v38q-19 -9 -59 -17l-48 -9q-44 -9 -62 -26t-18 -48q0 -30 20.5 -47.5t55.5 -17.5q53 0 82 33t29 94z" />
    <glyph glyph-name="Abreve" unicode="&#x102;" horiz-adv-x="722" 
d="M493 927v-11q0 -56 -38 -94t-94 -38t-94 38t-38 95v10h56q9 -66 77 -66q64 0 75 66h56zM501 147h-273l-49 -147h-153l259 729h166l252 -729h-154zM460 272l-95 285l-95 -285h190z" />
    <glyph glyph-name="abreve" unicode="&#x103;" horiz-adv-x="556" 
d="M407 748v-11q0 -56 -38 -94t-94 -38t-94 38t-38 95v10h56q9 -66 77 -66q64 0 75 66h56zM192 -23q-74 0 -119 44.5t-45 117.5q0 143 159 170l56 10q2 0 20 2.5t23 4t19.5 4.5t20.5 7t14.5 10.5t11.5 15t3 19.5q0 54 -81 54q-52 0 -73 -16t-26 -58h-135q13 187 231 187
q221 0 221 -166v-300q0 -37 32 -66v-17h-152q-16 20 -16 54q-74 -77 -164 -77zM355 217v38q-19 -9 -59 -17l-48 -9q-44 -9 -62 -26t-18 -48q0 -30 20.5 -47.5t55.5 -17.5q53 0 82 33t29 94z" />
    <glyph glyph-name="Aogonek" unicode="&#x104;" horiz-adv-x="722" 
d="M501 147h-273l-49 -147h-153l259 729h167l251 -729q-52 -23 -82.5 -57.5t-30.5 -71.5q0 -53 76 -53q27 0 57 5v-47q-36 -9 -75 -9q-70 0 -109 25t-39 70q0 44 32.5 80.5t91.5 57.5h-75zM461 272l-95 285l-96 -285h191z" />
    <glyph glyph-name="aogonek" unicode="&#x105;" horiz-adv-x="556" 
d="M192 -23q-74 0 -119 44.5t-45 117.5q0 143 159 170l56 10q2 0 20 2.5t23 4t19.5 4.5t20.5 7t14.5 10.5t11.5 15t3 19.5q0 54 -81 54q-52 0 -73 -16t-26 -58h-135q13 187 231 187q221 0 221 -166v-300q0 -37 32 -66v-17q-109 -58 -109 -129q0 -53 76 -53q25 0 57 5v-47
q-36 -9 -75 -9q-70 0 -109 25t-39 69t33 81.5t91 57.5h-77q-16 20 -16 54q-74 -77 -164 -77zM355 217v38q-19 -9 -59 -17l-48 -9q-44 -9 -62 -26t-18 -48q0 -30 20.5 -47.5t55.5 -17.5q53 0 82 33t29 94z" />
    <glyph glyph-name="Cacute" unicode="&#x106;" horiz-adv-x="722" 
d="M510 936l-126 -150h-70l70 150h126zM539 482q-28 131 -156 131q-89 0 -139 -68t-50 -189q0 -119 48.5 -186t135.5 -67q70 0 112 38t49 108h146q-7 -125 -91 -198.5t-220 -73.5q-152 0 -241 102.5t-89 278.5q0 177 90 280t244 103q129 0 211.5 -69t92.5 -190h-143z" />
    <glyph glyph-name="cacute" unicode="&#x107;" horiz-adv-x="556" 
d="M429 757l-126 -150h-70l70 150h126zM288 436q-114 0 -114 -177q0 -79 30.5 -124t83.5 -45q41 0 64 22.5t36 74.5h134q-10 -97 -73.5 -153.5t-161.5 -56.5q-120 0 -186.5 74t-66.5 208q0 138 67 214t188 76q101 0 163.5 -56t69.5 -155h-134q-12 53 -34.5 75.5t-65.5 22.5z
" />
    <glyph glyph-name="Ccircumflex" unicode="&#x108;" horiz-adv-x="722" 
d="M327 951h107l103 -150h-78l-82 100l-82 -100h-76zM539 482q-28 131 -156 131q-89 0 -139 -68t-50 -189q0 -119 48.5 -186t135.5 -67q70 0 112 38t49 108h146q-7 -125 -91 -198.5t-220 -73.5q-152 0 -241 102.5t-89 278.5q0 177 90 280t244 103q129 0 211.5 -69t92.5 -190
h-143z" />
    <glyph glyph-name="ccircumflex" unicode="&#x109;" horiz-adv-x="556" 
d="M238 759h107l103 -150h-78l-82 100l-82 -100h-76zM288 436q-114 0 -114 -177q0 -79 30.5 -124t83.5 -45q41 0 64 22.5t36 74.5h134q-10 -97 -73.5 -153.5t-161.5 -56.5q-120 0 -186.5 74t-66.5 208q0 138 67 214t188 76q101 0 163.5 -56t69.5 -155h-134
q-12 53 -34.5 75.5t-65.5 22.5z" />
    <glyph glyph-name="Cdotaccent" unicode="&#x10a;" horiz-adv-x="722" 
d="M433 923v-122h-110v122h110zM539 482q-28 131 -156 131q-89 0 -139 -68t-50 -189q0 -119 48.5 -186t135.5 -67q70 0 112 38t49 108h146q-7 -125 -91 -198.5t-220 -73.5q-152 0 -241 102.5t-89 278.5q0 177 90 280t244 103q129 0 211.5 -69t92.5 -190h-143z" />
    <glyph glyph-name="cdotaccent" unicode="&#x10b;" horiz-adv-x="556" 
d="M344 731v-122h-110v122h110zM288 436q-114 0 -114 -177q0 -79 30.5 -124t83.5 -45q41 0 64 22.5t36 74.5h134q-10 -97 -73.5 -153.5t-161.5 -56.5q-120 0 -186.5 74t-66.5 208q0 138 67 214t188 76q101 0 163.5 -56t69.5 -155h-134q-12 53 -34.5 75.5t-65.5 22.5z" />
    <glyph glyph-name="Ccaron" unicode="&#x10c;" horiz-adv-x="722" 
d="M427 786h-107l-103 150h78l82 -97l82 97h76zM539 482q-28 131 -156 131q-89 0 -139 -68t-50 -189q0 -119 48.5 -186t135.5 -67q70 0 112 38t49 108h146q-7 -125 -91 -198.5t-220 -73.5q-152 0 -241 102.5t-89 278.5q0 177 90 280t244 103q129 0 211.5 -69t92.5 -190h-143
z" />
    <glyph glyph-name="ccaron" unicode="&#x10d;" horiz-adv-x="556" 
d="M341 607h-107l-103 150h78l82 -97l82 97h76zM288 436q-114 0 -114 -177q0 -79 30.5 -124t83.5 -45q41 0 64 22.5t36 74.5h134q-10 -97 -73.5 -153.5t-161.5 -56.5q-120 0 -186.5 74t-66.5 208q0 138 67 214t188 76q101 0 163.5 -56t69.5 -155h-134q-12 53 -34.5 75.5
t-65.5 22.5z" />
    <glyph glyph-name="Dcaron" unicode="&#x10e;" horiz-adv-x="722" 
d="M390 786h-107l-103 150h78l82 -97l82 97h76zM77 0v729h285q84 0 138.5 -20t91.5 -64q89 -106 89 -280q0 -176 -89 -280q-71 -85 -230 -85h-285zM227 125h135q169 0 169 239q0 240 -169 240h-135v-479z" />
    <glyph glyph-name="dcaron" unicode="&#x10f;" horiz-adv-x="723" 
d="M614 739h122v-108q0 -50 -35 -86.5t-87 -37.5v46q36 7 51.5 29.5t15.5 49.5h-67v107zM256 -23q-100 0 -163.5 82t-63.5 203q0 122 65 204.5t162 82.5q98 0 149 -79v259h140v-729h-140v55q-52 -78 -149 -78zM287 432q-52 0 -85 -47.5t-33 -122.5q0 -74 33 -121t85 -47
t85 46t33 120q0 77 -32.5 124.5t-85.5 47.5z" />
    <glyph glyph-name="Dcroat" unicode="&#x110;" horiz-adv-x="722" 
d="M77 339h-77v80h77v310h285q87 0 141 -19.5t90 -64.5q42 -51 65 -125t23 -155t-23.5 -154.5t-64.5 -125.5q-36 -45 -90.5 -65t-140.5 -20h-285v339zM537 364q0 129 -45 184.5t-130 55.5h-135v-185h150v-80h-150v-214h135q82 0 128.5 53t46.5 186z" />
    <glyph glyph-name="dcroat" unicode="&#x111;" horiz-adv-x="611" 
d="M405 596h-133v67h133v66h140v-66h60v-67h-60v-596h-140v55q-52 -78 -149 -78t-162 82t-65 203q0 122 65 204.5t162 82.5q98 0 149 -79v126zM287 432q-52 0 -85 -47.5t-33 -122.5q0 -74 33 -121t85 -47t85 46t33 120q0 77 -32.5 124.5t-85.5 47.5z" />
    <glyph glyph-name="Emacron" unicode="&#x112;" horiz-adv-x="667" 
d="M494 898v-79h-299v79h299zM229 314v-189h395v-125h-545v729h527v-125h-377v-165h349v-125h-349z" />
    <glyph glyph-name="emacron" unicode="&#x113;" horiz-adv-x="556" 
d="M430 719v-79h-299v79h299zM272 549q35 0 68 -8t67.5 -29t60 -53.5t41.5 -86t16 -122.5q0 -12 -1 -24h-362q1 -31 5.5 -53.5t16 -44t34 -33t56.5 -11.5q80 0 107 68h138q-23 -80 -91 -127.5t-159 -47.5q-115 0 -181 74.5t-66 204.5q0 136 67 214.5t183 78.5zM379 319
q-5 59 -32.5 91t-76.5 32q-92 0 -106 -123h215z" />
    <glyph glyph-name="Ebreve" unicode="&#x114;" horiz-adv-x="667" 
d="M475 972v-11q0 -56 -38 -94t-94 -38t-94 38t-38 95v10h56q9 -66 77 -66q64 0 75 66h56zM229 314v-189h395v-125h-545v729h527v-125h-377v-165h349v-125h-349z" />
    <glyph glyph-name="ebreve" unicode="&#x115;" horiz-adv-x="556" 
d="M393 783v-11q0 -56 -38 -94t-94 -38t-94 38t-38 95v10h56q9 -66 77 -66q64 0 75 66h56zM272 549q35 0 68 -8t67.5 -29t60 -53.5t41.5 -86t16 -122.5q0 -12 -1 -24h-362q1 -31 5.5 -53.5t16 -44t34 -33t56.5 -11.5q80 0 107 68h138q-23 -80 -91 -127.5t-159 -47.5
q-115 0 -181 74.5t-66 204.5q0 136 67 214.5t183 78.5zM379 319q-5 59 -32.5 91t-76.5 32q-92 0 -106 -123h215z" />
    <glyph glyph-name="Edotaccent" unicode="&#x116;" horiz-adv-x="667" 
d="M400 922v-122h-110v122h110zM229 314v-189h395v-125h-545v729h527v-125h-377v-165h349v-125h-349z" />
    <glyph glyph-name="edotaccent" unicode="&#x117;" horiz-adv-x="556" 
d="M334 743v-122h-110v122h110zM272 549q35 0 68 -8t67.5 -29t60 -53.5t41.5 -86t16 -122.5q0 -12 -1 -24h-362q1 -31 5.5 -53.5t16 -44t34 -33t56.5 -11.5q80 0 107 68h138q-23 -80 -91 -127.5t-159 -47.5q-115 0 -181 74.5t-66 204.5q0 136 67 214.5t183 78.5zM379 319
q-5 59 -32.5 91t-76.5 32q-92 0 -106 -123h215z" />
    <glyph glyph-name="Eogonek" unicode="&#x118;" horiz-adv-x="667" 
d="M229 314v-189h395v-125q-109 -58 -109 -129q0 -53 76 -53q27 0 57 5v-47q-40 -9 -74 -9q-71 0 -110 25t-39 70q0 81 125 138h-471v729h527v-125h-377v-165h349v-125h-349z" />
    <glyph glyph-name="eogonek" unicode="&#x119;" horiz-adv-x="556" 
d="M518 152q-12 -42 -42 -83t-58 -67t-50.5 -62t-22.5 -71q0 -52 76 -52q29 0 57 6v-47q-39 -10 -79 -10q-67 0 -105.5 26t-38.5 71q0 34 21 61.5t74 64.5q-47 -13 -82 -13q-114 0 -180.5 75t-66.5 205q0 136 67 214.5t183 78.5q46 0 87.5 -14t80.5 -45.5t62.5 -93
t23.5 -146.5q0 -12 -1 -24h-362q3 -69 26 -106t86 -37q79 0 106 69h138zM379 319q-5 60 -33.5 91.5t-75.5 31.5q-94 0 -107 -123h216z" />
    <glyph glyph-name="Ecaron" unicode="&#x11a;" horiz-adv-x="667" 
d="M395 786h-107l-103 150h78l82 -97l82 97h76zM229 314v-189h395v-125h-545v729h527v-125h-377v-165h349v-125h-349z" />
    <glyph glyph-name="ecaron" unicode="&#x11b;" horiz-adv-x="556" 
d="M331 607h-107l-103 150h78l82 -97l82 97h76zM272 549q35 0 68 -8t67.5 -29t60 -53.5t41.5 -86t16 -122.5q0 -12 -1 -24h-362q1 -31 5.5 -53.5t16 -44t34 -33t56.5 -11.5q80 0 107 68h138q-23 -80 -91 -127.5t-159 -47.5q-115 0 -181 74.5t-66 204.5q0 136 67 214.5
t183 78.5zM379 319q-5 59 -32.5 91t-76.5 32q-92 0 -106 -123h215z" />
    <glyph glyph-name="Gcircumflex" unicode="&#x11c;" horiz-adv-x="778" 
d="M330 979h107l103 -150h-78l-82 100l-82 -100h-76zM570 498q-40 117 -174 117q-95 0 -149.5 -67t-54.5 -185q0 -112 58.5 -184t149.5 -72q14 0 32.5 3.5t44.5 14t48 27.5t39 47.5t21 69.5h-166v125h292v-394h-90l-18 96q-42 -61 -94 -89t-126 -28q-148 0 -244.5 108
t-96.5 274q0 170 98 276t255 106q132 0 217 -66t99 -179h-141z" />
    <glyph glyph-name="gcircumflex" unicode="&#x11d;" horiz-adv-x="611" 
d="M306 790h107l103 -150h-78l-82 100l-82 -100h-76zM408 540h133v-558q0 -95 -67.5 -147.5t-189.5 -52.5q-108 0 -173 41.5t-66 111.5h145q17 -63 99 -63q53 0 86 30.5t33 79.5v73q-39 -44 -72.5 -61t-80.5 -17q-100 0 -160.5 77t-60.5 203q0 125 64 208.5t160 83.5
q90 0 150 -92v83zM288 432q-51 0 -82.5 -48t-31.5 -125q0 -73 31 -119t81 -46q55 0 89.5 46t34.5 119q0 75 -34.5 124t-87.5 49z" />
    <glyph glyph-name="Gbreve" unicode="&#x11e;" horiz-adv-x="778" 
d="M530 927v-11q0 -56 -38 -94t-94 -38t-94 38t-38 95v10h56q9 -66 77 -66q64 0 75 66h56zM570 498q-40 117 -174 117q-95 0 -149.5 -67t-54.5 -185q0 -112 58.5 -184t149.5 -72q14 0 32.5 3.5t44.5 14t48 27.5t39 47.5t21 69.5h-166v125h292v-394h-90l-18 96
q-42 -61 -94 -89t-126 -28q-148 0 -244.5 108t-96.5 274q0 170 98 276t255 106q132 0 217 -66t99 -179h-141z" />
    <glyph glyph-name="gbreve" unicode="&#x11f;" horiz-adv-x="611" 
d="M439 748v-11q0 -56 -38 -94t-94 -38t-94 38t-38 95v10h56q9 -66 77 -66q64 0 75 66h56zM408 540h133v-558q0 -95 -67.5 -147.5t-189.5 -52.5q-108 0 -173 41.5t-66 111.5h145q17 -63 99 -63q53 0 86 30.5t33 79.5v73q-39 -44 -72.5 -61t-80.5 -17q-100 0 -160.5 77
t-60.5 203q0 125 64 208.5t160 83.5q90 0 150 -92v83zM288 432q-51 0 -82.5 -48t-31.5 -125q0 -73 31 -119t81 -46q55 0 89.5 46t34.5 119q0 75 -34.5 124t-87.5 49z" />
    <glyph glyph-name="Gdotaccent" unicode="&#x120;" horiz-adv-x="778" 
d="M436 951v-122h-110v122h110zM570 498q-40 117 -174 117q-95 0 -149.5 -67t-54.5 -185q0 -112 58.5 -184t149.5 -72q14 0 32.5 3.5t44.5 14t48 27.5t39 47.5t21 69.5h-166v125h292v-394h-90l-18 96q-42 -61 -94 -89t-126 -28q-148 0 -244.5 108t-96.5 274q0 170 98 276
t255 106q132 0 217 -66t99 -179h-141z" />
    <glyph glyph-name="gdotaccent" unicode="&#x121;" horiz-adv-x="611" 
d="M412 762v-122h-110v122h110zM408 540h133v-558q0 -95 -67.5 -147.5t-189.5 -52.5q-108 0 -173 41.5t-66 111.5h145q17 -63 99 -63q53 0 86 30.5t33 79.5v73q-39 -44 -72.5 -61t-80.5 -17q-100 0 -160.5 77t-60.5 203q0 125 64 208.5t160 83.5q90 0 150 -92v83zM288 432
q-51 0 -82.5 -48t-31.5 -125q0 -73 31 -119t81 -46q55 0 89.5 46t34.5 119q0 75 -34.5 124t-87.5 49z" />
    <glyph glyph-name="Gcommaaccent" unicode="&#x122;" horiz-adv-x="778" 
d="M320 -68h122v-108q0 -50 -35 -86.5t-87 -37.5v46q36 7 51.5 29.5t15.5 49.5h-67v107zM570 498q-40 117 -174 117q-95 0 -149.5 -67t-54.5 -185q0 -112 58.5 -184t149.5 -72q14 0 32.5 3.5t44.5 14t48 27.5t39 47.5t21 69.5h-166v125h292v-394h-90l-18 96q-42 -61 -94 -89
t-126 -28q-148 0 -244.5 108t-96.5 274q0 170 98 276t255 106q132 0 217 -66t99 -179h-141z" />
    <glyph glyph-name="gcommaaccent" unicode="&#x123;" horiz-adv-x="611" 
d="M361 619h-122v108q0 50 35 86.5t87 37.5v-46q-36 -7 -51.5 -29.5t-15.5 -49.5h67v-107zM408 540h133v-558q0 -95 -67.5 -147.5t-189.5 -52.5q-108 0 -173 41.5t-66 111.5h145q17 -63 99 -63q53 0 86 30.5t33 79.5v73q-39 -44 -72.5 -61t-80.5 -17q-100 0 -160.5 77
t-60.5 203q0 125 64 208.5t160 83.5q90 0 150 -92v83zM288 432q-51 0 -82.5 -48t-31.5 -125q0 -73 31 -119t81 -46q55 0 89.5 46t34.5 119q0 75 -34.5 124t-87.5 49z" />
    <glyph glyph-name="Hcircumflex" unicode="&#x124;" horiz-adv-x="722" 
d="M312 979h107l103 -150h-78l-82 100l-82 -100h-76zM507 331h-289v-331h-150v729h150v-273h288v273h151v-729h-150v331z" />
    <glyph glyph-name="hcircumflex" unicode="&#x125;" horiz-adv-x="611" 
d="M253 939h107l103 -150h-78l-82 100l-82 -100h-76zM401 330q0 100 -86 100q-47 0 -77.5 -30t-30.5 -76v-324h-140v729h140v-267q58 87 158 87q32 0 60.5 -8.5t56 -28t43.5 -58.5t16 -92v-362h-140v330z" />
    <glyph glyph-name="Hbar" unicode="&#x126;" horiz-adv-x="722" 
d="M657 599h60v-67h-60v-532h-150v331h-289v-331h-150v532h-60v67h60v130h150v-130h288v130h151v-130zM506 532h-288v-76h288v76z" />
    <glyph glyph-name="hbar" unicode="&#x127;" horiz-adv-x="611" 
d="M401 330q0 100 -86 100q-47 0 -77.5 -30t-30.5 -76v-324h-140v596h-59v67h59v66h140v-66h134v-67h-134v-134q58 87 158 87q32 0 60.5 -8.5t56 -28t43.5 -58.5t16 -92v-362h-140v330z" />
    <glyph glyph-name="Itilde" unicode="&#x128;" horiz-adv-x="278" 
d="M252 957h63q-6 -127 -95 -127q-24 0 -55 12l-71 26q-18 6 -30 6q-18 0 -27 -10.5t-13 -34.5h-63q3 58 28 91t66 33q20 0 56 -13l71 -25q14 -6 34 -6q32 0 36 48zM213 729v-729h-150v729h150z" />
    <glyph glyph-name="itilde" unicode="&#x129;" horiz-adv-x="278" 
d="M251 768h63q-6 -127 -95 -127q-24 0 -55 12l-71 26q-18 6 -30 6q-18 0 -27 -10.5t-13 -34.5h-63q3 58 28 91t66 33q20 0 56 -13l71 -25q14 -6 34 -6q32 0 36 48zM207 540v-540h-140v540h140z" />
    <glyph glyph-name="Imacron" unicode="&#x12a;" horiz-adv-x="278" 
d="M273.545 898v-79h-271.99v79h271.99zM213 729v-729h-150v729h150z" />
    <glyph glyph-name="imacron" unicode="&#x12b;" horiz-adv-x="278" 
d="M265.856 719v-79h-258.997v79h258.997zM207 540v-540h-140v540h140z" />
    <glyph glyph-name="Ibreve" unicode="&#x12c;" horiz-adv-x="278" 
d="M270 972v-11q0 -56 -38 -94t-94 -38t-94 38t-38 95v10h56q9 -66 77 -66q64 0 75 66h56zM213 729v-729h-150v729h150z" />
    <glyph glyph-name="ibreve" unicode="&#x12d;" horiz-adv-x="278" 
d="M269 783v-11q0 -56 -38 -94t-94 -38t-94 38t-38 95v10h56q9 -66 77 -66q64 0 75 66h56zM207 540v-540h-140v540h140z" />
    <glyph glyph-name="Iogonek" unicode="&#x12e;" horiz-adv-x="278" 
d="M213 729v-729q-89 -64 -89 -131q0 -22 17.5 -36.5t45.5 -14.5q23 0 50 5v-47q-39 -9 -70 -9q-62 0 -97.5 26t-35.5 71q0 76 113 136h-84v729h150z" />
    <glyph glyph-name="iogonek" unicode="&#x12f;" horiz-adv-x="278" 
d="M124 -128q0 -30 19 -42t44 -12q15 0 44 5v-47q-40 -9 -63 -9q-62 0 -98 26t-36 71q0 71 110 136h-77v540h140v-540q-83 -58 -83 -128zM207 729v-125h-140v125h140z" />
    <glyph glyph-name="Idotaccent" unicode="&#x130;" horiz-adv-x="278" 
d="M193 922v-122h-110v122h110zM213 729v-729h-150v729h150z" />
    <glyph glyph-name="dotlessi" unicode="&#x131;" horiz-adv-x="278" 
d="M207 540v-540h-140v540h140z" />
    <glyph glyph-name="Jcircumflex" unicode="&#x134;" horiz-adv-x="556" 
d="M360 979h107l103 -150h-78l-82 100l-82 -100h-76zM252 -23q-41 0 -78.5 10t-72.5 33.5t-56 69t-21 108.5v72h150v-70q0 -50 19 -72.5t62 -22.5q39 0 60 22t21 63v539h150v-539q0 -102 -61 -157.5t-173 -55.5z" />
    <glyph glyph-name="jcircumflex" unicode="&#x135;" horiz-adv-x="278" 
d="M89 782h107l103 -150h-78l-82 100l-82 -100h-76zM210 540v-634q0 -66 -29 -95t-94 -29q-36 0 -83 5v112q13 -4 25 -4q23 0 32 9.5t9 32.5v603h140z" />
    <glyph glyph-name="Kcommaaccent" unicode="&#x136;" horiz-adv-x="722" 
d="M320 -68h122v-108q0 -50 -35 -86.5t-87 -37.5v46q36 7 51.5 29.5t15.5 49.5h-67v107zM224 244v-244h-150v729h150v-320l285 320h177l-291 -314l322 -415h-179l-239 322z" />
    <glyph glyph-name="kcommaaccent" unicode="&#x137;" horiz-adv-x="556" 
d="M213 -68h122v-108q0 -50 -35 -86.5t-87 -37.5v46q36 7 51.5 29.5t15.5 49.5h-67v107zM199 330l177 210h159l-184 -204l197 -336h-164l-129 238l-56 -61v-177h-140v729h140v-399z" />
    <glyph glyph-name="kgreenlandic" unicode="&#x138;" horiz-adv-x="559" 
d="M200 351l162 189h148l-214 -244l253 -296h-182l-167 198v-198h-140v540h140v-189z" />
    <glyph glyph-name="Lacute" unicode="&#x139;" horiz-adv-x="611" 
d="M298 936l-126 -150h-70l70 150h126zM230 729v-604h349v-125h-499v729h150z" />
    <glyph glyph-name="lacute" unicode="&#x13a;" horiz-adv-x="278" 
d="M278 936l-126 -150h-70l70 150h126zM207 729v-729h-140v729h140z" />
    <glyph glyph-name="Lcommaaccent" unicode="&#x13b;" horiz-adv-x="611" 
d="M271 -68h122v-108q0 -50 -35 -86.5t-87 -37.5v46q36 7 51.5 29.5t15.5 49.5h-67v107zM230 729v-604h349v-125h-499v729h150z" />
    <glyph glyph-name="lcommaaccent" unicode="&#x13c;" horiz-adv-x="278" 
d="M72 -68h122v-108q0 -50 -35 -86.5t-87 -37.5v46q36 7 51.5 29.5t15.5 49.5h-67v107zM207 729v-729h-140v729h140z" />
    <glyph glyph-name="Lcaron" unicode="&#x13d;" horiz-adv-x="611" 
d="M350 732h122v-103q0 -61 -34.5 -101.5t-87.5 -42.5v46q67 13 67 86v3h-67v112zM230 729v-604h349v-125h-499v729h150z" />
    <glyph glyph-name="lcaron" unicode="&#x13e;" horiz-adv-x="422" 
d="M276 732h122v-103q0 -61 -34.5 -101.5t-87.5 -42.5v46q67 13 67 86v3h-67v112zM207 729v-729h-140v729h140z" />
    <glyph glyph-name="Ldot" unicode="&#x13f;" horiz-adv-x="611" 
d="M336 442h124v-123h-124v123zM230 729v-604h349v-125h-499v729h150z" />
    <glyph glyph-name="ldot" unicode="&#x140;" horiz-adv-x="556" 
d="M320 428h124v-123h-124v123zM207 729v-729h-140v729h140z" />
    <glyph glyph-name="Lslash" unicode="&#x141;" horiz-adv-x="611" 
d="M230 423l165 112v-88l-165 -113v-209h367v-125h-517v257l-80 -56v89l80 56v383h150v-306z" />
    <glyph glyph-name="lslash" unicode="&#x142;" horiz-adv-x="278" 
d="M196 442l56 40v-79l-56 -40v-363h-140v294l-56 -40v79l56 40v356h140v-287z" />
    <glyph glyph-name="Nacute" unicode="&#x143;" horiz-adv-x="722" 
d="M501 936l-126 -150h-70l70 150h126zM511 0l-293 504v-504h-150v729h154l289 -496v496h150v-729h-150z" />
    <glyph glyph-name="nacute" unicode="&#x144;" horiz-adv-x="611" 
d="M441 757l-126 -150h-70l70 150h126zM63 540h140v-78q58 87 162 87q86 0 133.5 -49t47.5 -138v-362h-140v333q0 97 -90 97q-51 0 -82 -29t-31 -77v-324h-140v540z" />
    <glyph glyph-name="Ncommaaccent" unicode="&#x145;" horiz-adv-x="722" 
d="M320 -68h122v-108q0 -50 -35 -86.5t-87 -37.5v46q36 7 51.5 29.5t15.5 49.5h-67v107zM511 0l-293 504v-504h-150v729h154l289 -496v496h150v-729h-150z" />
    <glyph glyph-name="ncommaaccent" unicode="&#x146;" horiz-adv-x="611" 
d="M240 -68h122v-108q0 -50 -35 -86.5t-87 -37.5v46q36 7 51.5 29.5t15.5 49.5h-67v107zM63 540h140v-78q58 87 162 87q86 0 133.5 -49t47.5 -138v-362h-140v333q0 97 -90 97q-51 0 -82 -29t-31 -77v-324h-140v540z" />
    <glyph glyph-name="Ncaron" unicode="&#x147;" horiz-adv-x="722" 
d="M417 786h-107l-103 150h78l82 -97l82 97h76zM511 0l-293 504v-504h-150v729h154l289 -496v496h150v-729h-150z" />
    <glyph glyph-name="ncaron" unicode="&#x148;" horiz-adv-x="611" 
d="M351 607h-107l-103 150h78l82 -97l82 97h76zM63 540h140v-78q58 87 162 87q86 0 133.5 -49t47.5 -138v-362h-140v333q0 97 -90 97q-51 0 -82 -29t-31 -77v-324h-140v540z" />
    <glyph glyph-name="napostrophe" unicode="&#x149;" horiz-adv-x="701" 
d="M20 733h122v-103q0 -61 -34.5 -101.5t-87.5 -42.5v46q67 13 67 86v3h-67v112zM153 540h140v-78q58 87 162 87q86 0 133.5 -49t47.5 -138v-362h-140v333q0 97 -90 97q-51 0 -82 -29t-31 -77v-324h-140v540z" />
    <glyph glyph-name="Eng" unicode="&#x14a;" horiz-adv-x="720" 
d="M410 -16q-21 0 -41 2.5t-30.5 5t-21 5.5t-11.5 3v123q3 0 36 -7t60 -7q51 0 91 76t40 206q0 46 -6.5 82t-16 59.5t-25.5 40t-30 24.5t-34 12.5t-32 5.5t-31 1q-66 0 -111.5 -49t-45.5 -128v-439h-150v729h150v-77q32 52 75 70.5t107 18.5q32 0 70 -10.5t79 -35t74.5 -60
t55 -90.5t21.5 -121q0 -116 -24 -204.5t-64.5 -138t-87 -73.5t-97.5 -24z" />
    <glyph glyph-name="eng" unicode="&#x14b;" horiz-adv-x="611" 
d="M63 540h140v-78q58 87 162 87q86 0 133.5 -49t47.5 -138v-456q0 -66 -29 -95t-94 -29q-36 0 -83 5v112q13 -4 25 -4q23 0 32 9.5t9 32.5v396q0 97 -90 97q-51 0 -82 -29t-31 -77v-324h-140v540z" />
    <glyph glyph-name="Omacron" unicode="&#x14c;" horiz-adv-x="778" 
d="M541 898v-79h-299v79h299zM40 359q0 168 96.5 275t253.5 107q158 0 255 -106.5t97 -280.5q0 -162 -95.5 -269.5t-255.5 -107.5q-159 0 -255 107t-96 275zM391 613q-91 0 -146 -69.5t-55 -184.5t55 -184.5t146 -69.5q90 0 145.5 69t55.5 181q0 118 -54.5 188t-146.5 70z
" />
    <glyph glyph-name="omacron" unicode="&#x14d;" horiz-adv-x="611" 
d="M451 719v-79h-299v79h299zM301 549q127 0 197.5 -76.5t70.5 -213.5q0 -130 -72 -206t-195 -76q-125 0 -196 76.5t-71 209.5t71 209.5t195 76.5zM302 436q-57 0 -92 -48t-35 -125t35 -125t92 -48q56 0 91.5 47.5t35.5 123.5q0 80 -34.5 127.5t-92.5 47.5z" />
    <glyph glyph-name="Obreve" unicode="&#x14e;" horiz-adv-x="778" 
d="M523 972v-11q0 -56 -38 -94t-94 -38t-94 38t-38 95v10h56q9 -66 77 -66q64 0 75 66h56zM40 359q0 168 96.5 275t253.5 107q158 0 255 -106.5t97 -280.5q0 -162 -95.5 -269.5t-255.5 -107.5q-159 0 -255 107t-96 275zM391 613q-91 0 -146 -69.5t-55 -184.5t55 -184.5
t146 -69.5q90 0 145.5 69t55.5 181q0 118 -54.5 188t-146.5 70z" />
    <glyph glyph-name="obreve" unicode="&#x14f;" horiz-adv-x="611" 
d="M434 783v-11q0 -56 -38 -94t-94 -38t-94 38t-38 95v10h56q9 -66 77 -66q64 0 75 66h56zM301 549q127 0 197.5 -76.5t70.5 -213.5q0 -130 -72 -206t-195 -76q-125 0 -196 76.5t-71 209.5t71 209.5t195 76.5zM302 436q-57 0 -92 -48t-35 -125t35 -125t92 -48
q56 0 91.5 47.5t35.5 123.5q0 80 -34.5 127.5t-92.5 47.5z" />
    <glyph glyph-name="Ohungarumlaut" unicode="&#x150;" horiz-adv-x="778" 
d="M461 936l-126 -147h-70l70 147h126zM649 936l-126 -147h-70l70 147h126zM40 359q0 168 96.5 275t253.5 107q158 0 255 -106.5t97 -280.5q0 -162 -95.5 -269.5t-255.5 -107.5q-159 0 -255 107t-96 275zM391 613q-91 0 -146 -69.5t-55 -184.5t55 -184.5t146 -69.5
q90 0 145.5 69t55.5 181q0 118 -54.5 188t-146.5 70z" />
    <glyph glyph-name="ohungarumlaut" unicode="&#x151;" horiz-adv-x="611" 
d="M371 757l-126 -147h-70l70 147h126zM559 757l-126 -147h-70l70 147h126zM301 549q127 0 197.5 -76.5t70.5 -213.5q0 -130 -72 -206t-195 -76q-125 0 -196 76.5t-71 209.5t71 209.5t195 76.5zM302 436q-57 0 -92 -48t-35 -125t35 -125t92 -48q56 0 91.5 47.5t35.5 123.5
q0 80 -34.5 127.5t-92.5 47.5z" />
    <glyph glyph-name="OE" unicode="&#x152;" horiz-adv-x="1000" 
d="M624 314v-189h346v-125h-490v59q-37 -46 -70.5 -64t-84.5 -18q-130 0 -213.5 107.5t-83.5 274.5q0 169 84 275.5t217 106.5q48 0 81.5 -14.5t69.5 -49.5v52h471v-125h-327v-165h299v-125h-299zM474 178v362q-42 73 -118 73q-80 0 -129 -69.5t-49 -184.5q0 -114 49 -184
t128 -70q77 0 119 73z" />
    <glyph glyph-name="oe" unicode="&#x153;" horiz-adv-x="953" 
d="M569 226q3 -142 114 -142q37 0 66 19t39 49h138q-24 -80 -92 -127.5t-158 -47.5q-113 0 -179 75q-77 -75 -195 -75q-125 0 -196 76.5t-71 209.5t71 209.5t196 76.5q122 0 195 -76q65 76 180 76q36 0 69.5 -8t68 -29t60 -53.5t41.5 -86t16 -122.5q0 -12 -1 -24h-362z
M302 436q-57 0 -92 -48t-35 -125t35 -125t92 -48q56 0 91.5 47.5t35.5 123.5q0 80 -34.5 127.5t-92.5 47.5zM786 319q-6 60 -33.5 91.5t-74.5 31.5q-96 0 -107 -123h215z" />
    <glyph glyph-name="Racute" unicode="&#x154;" horiz-adv-x="722" 
d="M495 936l-126 -150h-70l70 150h126zM493 125q0 30 1 47t1 30q0 46 -22 66.5t-71 20.5h-172v-289h-150v729h391q56 0 96.5 -19t61 -50t29.5 -62.5t9 -65.5q0 -132 -123 -180q27 -11 40 -17.5t26.5 -21.5t18 -27t9 -44t5.5 -63t2 -92q0 -42 32 -60v-27h-161
q-14 26 -18.5 50t-4.5 75zM517 511q0 56 -26 74.5t-80 18.5h-181v-190h181q53 0 79.5 19t26.5 78z" />
    <glyph glyph-name="racute" unicode="&#x155;" horiz-adv-x="389" 
d="M349 757l-126 -150h-70l70 150h126zM63 540h140v-106q22 55 62 85t88 30q9 0 17 -1v-142q-25 4 -44 4q-123 0 -123 -123v-287h-140v540z" />
    <glyph glyph-name="Rcommaaccent" unicode="&#x156;" horiz-adv-x="722" 
d="M311 -68h122v-108q0 -50 -35 -86.5t-87 -37.5v46q36 7 51.5 29.5t15.5 49.5h-67v107zM493 125q0 30 1 47t1 30q0 46 -22 66.5t-71 20.5h-172v-289h-150v729h391q56 0 96.5 -19t61 -50t29.5 -62.5t9 -65.5q0 -132 -123 -180q27 -11 40 -17.5t26.5 -21.5t18 -27t9 -44
t5.5 -63t2 -92q0 -42 32 -60v-27h-161q-14 26 -18.5 50t-4.5 75zM517 511q0 56 -26 74.5t-80 18.5h-181v-190h181q53 0 79.5 19t26.5 78z" />
    <glyph glyph-name="rcommaaccent" unicode="&#x157;" horiz-adv-x="389" 
d="M84 -68h122v-108q0 -50 -35 -86.5t-87 -37.5v46q36 7 51.5 29.5t15.5 49.5h-67v107zM63 540h140v-106q22 55 62 85t88 30q9 0 17 -1v-142q-25 4 -44 4q-123 0 -123 -123v-287h-140v540z" />
    <glyph glyph-name="Rcaron" unicode="&#x158;" horiz-adv-x="722" 
d="M411 786h-107l-103 150h78l82 -97l82 97h76zM493 125q0 30 1 47t1 30q0 46 -22 66.5t-71 20.5h-172v-289h-150v729h391q56 0 96.5 -19t61 -50t29.5 -62.5t9 -65.5q0 -132 -123 -180q27 -11 40 -17.5t26.5 -21.5t18 -27t9 -44t5.5 -63t2 -92q0 -42 32 -60v-27h-161
q-14 26 -18.5 50t-4.5 75zM517 511q0 56 -26 74.5t-80 18.5h-181v-190h181q53 0 79.5 19t26.5 78z" />
    <glyph glyph-name="rcaron" unicode="&#x159;" horiz-adv-x="389" 
d="M265 607h-107l-103 150h78l82 -97l82 97h76zM63 540h140v-106q22 55 62 85t88 30q9 0 17 -1v-142q-25 4 -44 4q-123 0 -123 -123v-287h-140v540z" />
    <glyph glyph-name="Sacute" unicode="&#x15a;" horiz-adv-x="667" 
d="M465 936l-126 -150h-70l70 150h126zM607 507h-140q-8 114 -153 114q-58 0 -92 -24.5t-34 -65.5q0 -40 29 -59.5t109 -35.5l114 -22q101 -20 147 -67.5t46 -133.5q0 -111 -79 -173.5t-220 -62.5q-140 0 -217.5 62t-84.5 179h146q4 -59 46 -90t118 -31q68 0 107.5 26
t39.5 72q0 44 -31 68t-106 38l-102 20q-111 21 -158 66t-47 130q0 107 72.5 165.5t203.5 58.5q38 0 73.5 -5t75.5 -20.5t69 -40t48.5 -68t19.5 -100.5z" />
    <glyph glyph-name="sacute" unicode="&#x15b;" horiz-adv-x="556" 
d="M419 757l-126 -150h-70l70 150h126zM166 157q7 -34 28.5 -52t81.5 -18q49 0 76.5 14t27.5 39q0 16 -10.5 26t-36.5 18l-167 52q-1 0 -12 3.5t-15.5 5.5t-16.5 6.5t-18.5 9.5t-16.5 12.5t-15.5 16.5t-11.5 20.5t-9 26.5t-3 32q0 83 59.5 131.5t162.5 48.5q109 0 171 -48.5
t64 -134.5h-135q-1 73 -101 73q-37 0 -59 -13.5t-22 -36.5q0 -16 10 -24.5t39 -17.5l177 -51q106 -31 106 -136q0 -31 -11 -60.5t-35.5 -58.5t-73.5 -46.5t-116 -17.5q-249 0 -255 180h137z" />
    <glyph glyph-name="Scircumflex" unicode="&#x15c;" horiz-adv-x="667" 
d="M282 979h107l103 -150h-78l-82 100l-82 -100h-76zM607 507h-140q-8 114 -153 114q-58 0 -92 -24.5t-34 -65.5q0 -40 29 -59.5t109 -35.5l114 -22q101 -20 147 -67.5t46 -133.5q0 -111 -79 -173.5t-220 -62.5q-140 0 -217.5 62t-84.5 179h146q4 -59 46 -90t118 -31
q68 0 107.5 26t39.5 72q0 44 -31 68t-106 38l-102 20q-111 21 -158 66t-47 130q0 107 72.5 165.5t203.5 58.5q38 0 73.5 -5t75.5 -20.5t69 -40t48.5 -68t19.5 -100.5z" />
    <glyph glyph-name="scircumflex" unicode="&#x15d;" horiz-adv-x="556" 
d="M228 790h107l103 -150h-78l-82 100l-82 -100h-76zM166 157q7 -34 28.5 -52t81.5 -18q49 0 76.5 14t27.5 39q0 16 -10.5 26t-36.5 18l-167 52q-1 0 -12 3.5t-15.5 5.5t-16.5 6.5t-18.5 9.5t-16.5 12.5t-15.5 16.5t-11.5 20.5t-9 26.5t-3 32q0 83 59.5 131.5t162.5 48.5
q109 0 171 -48.5t64 -134.5h-135q-1 73 -101 73q-37 0 -59 -13.5t-22 -36.5q0 -16 10 -24.5t39 -17.5l177 -51q106 -31 106 -136q0 -31 -11 -60.5t-35.5 -58.5t-73.5 -46.5t-116 -17.5q-249 0 -255 180h137z" />
    <glyph glyph-name="Scedilla" unicode="&#x15e;" horiz-adv-x="667" 
d="M340 -23l-17 -39q23 6 41 6q36 0 56.5 -19t20.5 -52q0 -45 -33.5 -69t-95.5 -24q-57 0 -138 28l19 52q68 -30 105 -30q24 0 40.5 12t16.5 29q0 16 -14 25.5t-37 9.5q-24 0 -49 -12l42 83q-128 13 -192.5 72t-72.5 169h146q4 -59 46 -90t118 -31q68 0 107.5 26t39.5 72
q0 44 -31 68t-106 38l-102 20q-111 21 -158 66t-47 130q0 107 72.5 165.5t203.5 58.5q38 0 73.5 -5t75.5 -20.5t69 -40t48.5 -68t19.5 -100.5h-140q-8 114 -153 114q-58 0 -92 -24.5t-34 -65.5q0 -40 29 -59.5t109 -35.5l114 -22q101 -20 147 -67.5t46 -132.5
q0 -223 -293 -237z" />
    <glyph glyph-name="scedilla" unicode="&#x15f;" horiz-adv-x="556" 
d="M166 157q7 -34 28.5 -52t81.5 -18q49 0 76.5 14t27.5 39q0 16 -10.5 26t-36.5 18l-167 52q-1 0 -12 3.5t-15.5 5.5t-16.5 6.5t-18.5 9.5t-16.5 12.5t-15.5 16.5t-11.5 20.5t-9 26.5t-3 32q0 83 59.5 131.5t162.5 48.5q109 0 171 -48.5t64 -134.5h-135q-1 73 -101 73
q-37 0 -59 -13.5t-22 -36.5q0 -16 10 -24.5t39 -17.5l177 -51q106 -31 106 -136q0 -81 -61 -132t-158 -51h-18l-19 -40q21 7 42 7q35 0 55.5 -19t20.5 -52q0 -45 -33 -69t-95 -24q-56 0 -139 28l19 52q69 -30 105 -30q24 0 40.5 12t16.5 29q0 16 -14 25.5t-37 9.5
q-24 0 -49 -12l43 84q-107 13 -156.5 55t-53.5 124h137z" />
    <glyph glyph-name="Scaron" unicode="&#x160;" horiz-adv-x="667" 
d="M379 786h-107l-103 150h78l82 -97l82 97h76zM607 507h-140q-8 114 -153 114q-58 0 -92 -24.5t-34 -65.5q0 -40 29 -59.5t109 -35.5l114 -22q101 -20 147 -67.5t46 -133.5q0 -111 -79 -173.5t-220 -62.5q-140 0 -217.5 62t-84.5 179h146q4 -59 46 -90t118 -31
q68 0 107.5 26t39.5 72q0 44 -31 68t-106 38l-102 20q-111 21 -158 66t-47 130q0 107 72.5 165.5t203.5 58.5q38 0 73.5 -5t75.5 -20.5t69 -40t48.5 -68t19.5 -100.5z" />
    <glyph glyph-name="scaron" unicode="&#x161;" horiz-adv-x="556" 
d="M332 607h-107l-103 150h78l82 -97l82 97h76zM166 157q7 -34 28.5 -52t81.5 -18q49 0 76.5 14t27.5 39q0 16 -10.5 26t-36.5 18l-167 52q-1 0 -12 3.5t-15.5 5.5t-16.5 6.5t-18.5 9.5t-16.5 12.5t-15.5 16.5t-11.5 20.5t-9 26.5t-3 32q0 83 59.5 131.5t162.5 48.5
q109 0 171 -48.5t64 -134.5h-135q-1 73 -101 73q-37 0 -59 -13.5t-22 -36.5q0 -16 10 -24.5t39 -17.5l177 -51q106 -31 106 -136q0 -31 -11 -60.5t-35.5 -58.5t-73.5 -46.5t-116 -17.5q-249 0 -255 180h137z" />
    <glyph glyph-name="Tcedilla" unicode="&#x162;" horiz-adv-x="611" 
d="M385 604v-604h-30l-29 -63q21 7 42 7q35 0 55.5 -19t20.5 -52q0 -45 -33.5 -69t-95.5 -24q-55 0 -138 28l19 52q69 -30 105 -30q24 0 40.5 12t16.5 29q0 16 -14 25.5t-37 9.5q-24 0 -49 -12l54 106h-77v604h-221v125h584v-125h-213z" />
    <glyph glyph-name="tcedilla" unicode="&#x163;" horiz-adv-x="333" 
d="M301 529v-93h-78v-294q0 -36 9 -47.5t37 -11.5q11 0 32 3v-98q-29 -9 -65 -11l-28 -61q21 7 42 7q35 0 55.5 -19t20.5 -52q0 -45 -33.5 -69t-95.5 -24q-55 0 -138 28l19 52q69 -30 105 -30q24 0 40.5 12t16.5 29q0 16 -14 25.5t-37 9.5q-24 0 -49 -12l54 105
q-111 12 -111 126v332h-69v93h69v145h140v-145h78z" />
    <glyph glyph-name="Tcaron" unicode="&#x164;" horiz-adv-x="611" 
d="M361 786h-107l-103 150h78l82 -97l82 97h76zM385 604v-604h-150v604h-221v125h584v-125h-213z" />
    <glyph glyph-name="tcaron" unicode="&#x165;" horiz-adv-x="414" 
d="M306 802h122v-103q0 -61 -34.5 -101.5t-87.5 -42.5v46q67 13 67 86v3h-67v112zM301 529v-93h-78v-294q0 -36 9 -47.5t37 -11.5q11 0 32 3v-98q-34 -11 -81 -11q-137 0 -137 127v332h-69v93h69v145h140v-145h78z" />
    <glyph glyph-name="Tbar" unicode="&#x166;" horiz-adv-x="611" 
d="M385 604v-604h-150v604h-221v125h584v-125h-213z" />
    <glyph glyph-name="tbar" unicode="&#x167;" horiz-adv-x="333" 
d="M301 529v-93h-78v-294q0 -36 9 -47.5t37 -11.5q11 0 32 3v-98q-34 -11 -81 -11q-137 0 -137 127v332h-69v93h69v145h140v-145h78z" />
    <glyph glyph-name="Utilde" unicode="&#x168;" horiz-adv-x="722" 
d="M479 957h63q-6 -127 -95 -127q-24 0 -55 12l-71 26q-18 6 -30 6q-18 0 -27 -10.5t-13 -34.5h-63q3 58 28 91t66 33q20 0 56 -13l71 -25q14 -6 34 -6q32 0 36 48zM365 -23q-40 0 -77.5 7t-77 25t-68.5 46t-47.5 74.5t-18.5 105.5v494h150v-494q0 -130 139 -130t139 130
v494h150v-494q0 -59 -18.5 -105.5t-47.5 -74.5t-68.5 -46t-77 -25t-77.5 -7z" />
    <glyph glyph-name="utilde" unicode="&#x169;" horiz-adv-x="611" 
d="M414 768h63q-6 -127 -95 -127q-24 0 -55 12l-71 26q-18 6 -30 6q-18 0 -27 -10.5t-13 -34.5h-63q3 58 28 91t66 33q20 0 56 -13l71 -25q14 -6 34 -6q32 0 36 48zM541 0h-140v64q-58 -87 -162 -87q-86 0 -133.5 49t-47.5 138v376h140v-347q0 -97 90 -97q51 0 82 29t31 77
v338h140v-540z" />
    <glyph glyph-name="Umacron" unicode="&#x16a;" horiz-adv-x="722" 
d="M515 898v-79h-299v79h299zM365 -23q-40 0 -77.5 7t-77 25t-68.5 46t-47.5 74.5t-18.5 105.5v494h150v-494q0 -130 139 -130t139 130v494h150v-494q0 -59 -18.5 -105.5t-47.5 -74.5t-68.5 -46t-77 -25t-77.5 -7z" />
    <glyph glyph-name="umacron" unicode="&#x16b;" horiz-adv-x="611" 
d="M449 719v-79h-299v79h299zM541 0h-140v64q-58 -87 -162 -87q-86 0 -133.5 49t-47.5 138v376h140v-347q0 -97 90 -97q51 0 82 29t31 77v338h140v-540z" />
    <glyph glyph-name="Ubreve" unicode="&#x16c;" horiz-adv-x="722" 
d="M497 972v-11q0 -56 -38 -94t-94 -38t-94 38t-38 95v10h56q9 -66 77 -66q64 0 75 66h56zM365 -23q-40 0 -77.5 7t-77 25t-68.5 46t-47.5 74.5t-18.5 105.5v494h150v-494q0 -130 139 -130t139 130v494h150v-494q0 -59 -18.5 -105.5t-47.5 -74.5t-68.5 -46t-77 -25t-77.5 -7
z" />
    <glyph glyph-name="ubreve" unicode="&#x16d;" horiz-adv-x="611" 
d="M431 783v-11q0 -56 -38 -94t-94 -38t-94 38t-38 95v10h56q9 -66 77 -66q64 0 75 66h56zM541 0h-140v64q-58 -87 -162 -87q-86 0 -133.5 49t-47.5 138v376h140v-347q0 -97 90 -97q51 0 82 29t31 77v338h140v-540z" />
    <glyph glyph-name="Uring" unicode="&#x16e;" horiz-adv-x="722" 
d="M366 949q37 0 63 -26.5t26 -64.5q0 -37 -26.5 -63t-63.5 -26t-63.5 26t-26.5 64t26.5 64t64.5 26zM366 901q-18 0 -30.5 -12.5t-12.5 -29.5t12.5 -29.5t30.5 -12.5q17 0 29 12.5t12 29.5t-12 29.5t-29 12.5zM365 -23q-40 0 -77.5 7t-77 25t-68.5 46t-47.5 74.5
t-18.5 105.5v494h150v-494q0 -130 139 -130t139 130v494h150v-494q0 -59 -18.5 -105.5t-47.5 -74.5t-68.5 -46t-77 -25t-77.5 -7z" />
    <glyph glyph-name="uring" unicode="&#x16f;" horiz-adv-x="611" 
d="M300 770q37 0 63 -26.5t26 -64.5q0 -37 -26.5 -63t-63.5 -26t-63.5 26t-26.5 64t26.5 64t64.5 26zM300 722q-18 0 -30.5 -12.5t-12.5 -29.5t12.5 -29.5t30.5 -12.5q17 0 29 12.5t12 29.5t-12 29.5t-29 12.5zM541 0h-140v64q-58 -87 -162 -87q-86 0 -133.5 49t-47.5 138
v376h140v-347q0 -97 90 -97q51 0 82 29t31 77v338h140v-540z" />
    <glyph glyph-name="Uhungarumlaut" unicode="&#x170;" horiz-adv-x="722" 
d="M433 936l-126 -147h-70l70 147h126zM621 936l-126 -147h-70l70 147h126zM365 -23q-40 0 -77.5 7t-77 25t-68.5 46t-47.5 74.5t-18.5 105.5v494h150v-494q0 -130 139 -130t139 130v494h150v-494q0 -59 -18.5 -105.5t-47.5 -74.5t-68.5 -46t-77 -25t-77.5 -7z" />
    <glyph glyph-name="uhungarumlaut" unicode="&#x171;" horiz-adv-x="611" 
d="M370 757l-126 -147h-70l70 147h126zM558 757l-126 -147h-70l70 147h126zM541 0h-140v64q-58 -87 -162 -87q-86 0 -133.5 49t-47.5 138v376h140v-347q0 -97 90 -97q51 0 82 29t31 77v338h140v-540z" />
    <glyph glyph-name="Uogonek" unicode="&#x172;" horiz-adv-x="722" 
d="M654 235q0 -60 -20 -108t-48 -79.5t-56 -58.5t-48 -57.5t-20 -63.5q0 -51 77 -51q29 0 58 6v-47q-39 -10 -80 -10q-34 0 -64 7.5t-55 30t-25 58.5t23.5 65.5t80.5 65.5q-59 -16 -109 -16q-53 0 -100.5 12t-92.5 39t-72 80.5t-27 126.5v494h150v-494q0 -130 139 -130
t139 130v494h150v-494z" />
    <glyph glyph-name="uogonek" unicode="&#x173;" horiz-adv-x="611" 
d="M340 -138q0 29 13.5 54t36 41.5t40 26t35.5 16.5h-64v64q-58 -87 -162 -87q-86 0 -133.5 49t-47.5 138v376h140v-347q0 -97 90 -97q51 0 82 29t31 77v338h140v-540q-111 -56 -111 -129q0 -53 76 -53q26 0 58 5v-47q-36 -9 -75 -9q-71 0 -110 25t-39 70z" />
    <glyph glyph-name="Wcircumflex" unicode="&#x174;" horiz-adv-x="944" 
d="M422 979h107l103 -150h-78l-82 100l-82 -100h-76zM730 0h-135l-122 569l-119 -569h-135l-206 729h159l113 -546l113 546h148l118 -547l109 547h159z" />
    <glyph glyph-name="wcircumflex" unicode="&#x175;" horiz-adv-x="778" 
d="M334 790h107l103 -150h-78l-82 100l-82 -100h-76zM613 0h-145l-81 381l-86 -381h-144l-152 540h145l86 -378l82 378h140l81 -378l82 378h145z" />
    <glyph glyph-name="Ycircumflex" unicode="&#x176;" horiz-adv-x="667" 
d="M288 979h107l103 -150h-78l-82 100l-82 -100h-76zM419 270v-270h-150v270l-242 459h167l149 -322l139 322h168z" />
    <glyph glyph-name="ycircumflex" unicode="&#x177;" horiz-adv-x="556" 
d="M222 790h107l103 -150h-78l-82 100l-82 -100h-76zM210 -26v4l-201 562h154l119 -393l112 393h144l-222 -639q0 -1 -4 -13.5t-6.5 -17t-8 -17t-11.5 -18t-16 -16t-22.5 -16t-28.5 -11.5t-37 -8.5t-46 -2.5q-22 0 -50 4v105q22 -6 37 -6q37 0 62 26t25 64z" />
    <glyph glyph-name="Ydieresis" unicode="&#x178;" horiz-adv-x="667" 
d="M495 922v-122h-110v122h110zM299 922v-122h-110v122h110zM419 270v-270h-150v270l-242 459h167l149 -322l139 322h168z" />
    <glyph glyph-name="Zacute" unicode="&#x179;" horiz-adv-x="611" 
d="M441 936l-126 -150h-70l70 150h126zM578 729v-125l-372 -479h372v-125h-548v125l373 479h-373v125h548z" />
    <glyph glyph-name="zacute" unicode="&#x17a;" horiz-adv-x="500" 
d="M387 757l-126 -150h-70l70 150h126zM459 540v-113l-265 -314h274v-113h-447v113l267 314h-249v113h420z" />
    <glyph glyph-name="Zdotaccent" unicode="&#x17b;" horiz-adv-x="611" 
d="M362 922v-122h-110v122h110zM578 729v-125l-372 -479h372v-125h-548v125l373 479h-373v125h548z" />
    <glyph glyph-name="zdotaccent" unicode="&#x17c;" horiz-adv-x="500" 
d="M306 743v-122h-110v122h110zM459 540v-113l-265 -314h274v-113h-447v113l267 314h-249v113h420z" />
    <glyph glyph-name="Zcaron" unicode="&#x17d;" horiz-adv-x="611" 
d="M358 786h-107l-103 150h78l82 -97l82 97h76zM578 729v-125l-372 -479h372v-125h-548v125l373 479h-373v125h548z" />
    <glyph glyph-name="zcaron" unicode="&#x17e;" horiz-adv-x="500" 
d="M302 607h-107l-103 150h78l82 -97l82 97h76zM459 540v-113l-265 -314h274v-113h-447v113l267 314h-249v113h420z" />
    <glyph glyph-name="longs" unicode="&#x17f;" horiz-adv-x="333" 
d="M230 0h-140v436h-76v93h76v65q0 135 138 135q41 0 80 -3v-105q-18 3 -40 3q-38 0 -38 -42v-582z" />
    <glyph glyph-name="uni0180" unicode="&#x180;" horiz-adv-x="611" 
d="M317 432q-52 0 -85 -46.5t-33 -120.5q0 -77 32.5 -124t85.5 -47q52 0 85 47t33 121q0 75 -33 122.5t-85 47.5zM348 549q97 0 162 -80.5t65 -205.5q0 -122 -65 -204t-162 -82q-99 0 -149 78v-55h-140v596h-60v67h60v66h140v-66h133v-67h-133v-126q50 79 149 79z" />
    <glyph glyph-name="uni0181" unicode="&#x181;" horiz-adv-x="963" 
d="M473 314v-189h179q111 0 111 94q0 95 -111 95h-179zM473 604v-165h163q106 0 106 82q0 83 -106 83h-163zM267 316q-67 0 -114 20t-69 53t-31 64.5t-9 66.5q0 100 55.5 154.5t157.5 54.5h391q68 0 117.5 -20t74 -51.5t35.5 -61.5t11 -59q0 -47 -23 -81t-77 -69
q121 -71 121 -177q0 -36 -12 -70t-38.5 -67t-79.5 -53t-126 -20h-328v579h-66q-85 0 -85 -57q0 -30 22.5 -43t72.5 -13v-150z" />
    <glyph glyph-name="uni0182" unicode="&#x182;" horiz-adv-x="704" 
d="M666 222q0 -40 -12 -76t-38.5 -70.5t-79.5 -55t-126 -20.5h-328v729h512v-125h-362v-141h163q63 0 113 -18.5t79 -45.5t47.5 -61.5t25 -62.5t6.5 -53zM232 338v-213h179q53 0 82 29.5t29 76.5q0 48 -29 77.5t-82 29.5h-179z" />
    <glyph glyph-name="uni0183" unicode="&#x183;" horiz-adv-x="611" 
d="M317 432q-52 0 -85 -46.5t-33 -120.5q0 -77 32.5 -124t85.5 -47q52 0 85 47t33 121q0 75 -33 122.5t-85 47.5zM348 549q97 0 162 -80.5t65 -205.5q0 -122 -65 -204t-162 -82q-99 0 -149 78v-55h-140v729h379v-125h-239v-134q50 79 149 79z" />
    <glyph glyph-name="uni0184" unicode="&#x184;" horiz-adv-x="687" 
d="M226 729v-260h187q100 0 160 -66t60 -177q0 -110 -60.5 -168t-174.5 -58h-322v468l-97 75zM226 344v-219h140q60 0 88.5 27t28.5 83q0 109 -117 109h-140z" />
    <glyph glyph-name="uni0185" unicode="&#x185;" horiz-adv-x="611" 
d="M317 432q-52 0 -85 -46.5t-33 -120.5q0 -77 32.5 -124t85.5 -47q52 0 85 47t33 121q0 75 -33 122.5t-85 47.5zM348 549q97 0 162 -80.5t65 -205.5q0 -122 -65 -204t-162 -82q-99 0 -149 78v-55h-140v493l-97 81l237 155v-259q50 79 149 79z" />
    <glyph glyph-name="uni0186" unicode="&#x186;" horiz-adv-x="722" 
d="M190 236q28 -131 156 -131q89 0 139 68t50 189q0 119 -48.5 186t-135.5 67q-70 0 -112 -38t-49 -108h-146q7 125 91 198.5t220 73.5q152 0 241 -102.5t89 -278.5q0 -177 -90 -280t-244 -103q-129 0 -211.5 69t-92.5 190h143z" />
    <glyph glyph-name="uni0187" unicode="&#x187;" horiz-adv-x="752" 
d="M539 482q-28 131 -156 131q-89 0 -139 -68t-50 -189q0 -119 48.5 -186t135.5 -67q72 0 116.5 39t44.5 107h146q0 -124 -86.5 -198t-224.5 -74q-152 0 -241 102.5t-89 278.5q0 177 90 280t244 103q100 0 174 -44q21 51 104 51q36 0 83 -5v-112q-13 4 -15 4
q-23 0 -32.5 -9.5t-9.5 -32.5v-111h-143z" />
    <glyph glyph-name="uni0188" unicode="&#x188;" horiz-adv-x="562" 
d="M288 436q-114 0 -114 -177q0 -79 30.5 -124t83.5 -45q41 0 64 22.5t36 74.5h134q-10 -97 -73.5 -153.5t-161.5 -56.5q-120 0 -186.5 74t-66.5 208q0 138 67 214t188 76q70 0 121 -27q27 36 100 36q30 0 77 -5v-112q-13 4 -25 4q-23 0 -32 -9.5t-9 -32.5l1 -65h-134
q-12 53 -34.5 75.5t-65.5 22.5z" />
    <glyph glyph-name="uni0189" unicode="&#x189;" horiz-adv-x="722" 
d="M77 339h-77v80h77v310h285q87 0 141 -19.5t90 -64.5q42 -51 65 -125t23 -155t-23.5 -154.5t-64.5 -125.5q-36 -45 -90.5 -65t-140.5 -20h-285v339zM537 364q0 129 -45 184.5t-130 55.5h-135v-185h150v-80h-150v-214h135q82 0 128.5 53t46.5 186z" />
    <glyph glyph-name="uni018A" unicode="&#x18a;" horiz-adv-x="968" 
d="M473 125h135q169 0 169 239q0 240 -169 240h-135v-479zM267 316q-67 0 -114 20t-69 53t-31 64.5t-9 66.5q0 100 55.5 154.5t157.5 54.5h351q84 0 138.5 -20t91.5 -64q89 -106 89 -280q0 -176 -89 -280q-71 -85 -230 -85h-285v579h-66q-85 0 -85 -57q0 -30 22.5 -43
t72.5 -13v-150z" />
    <glyph glyph-name="uni018B" unicode="&#x18b;" horiz-adv-x="722" 
d="M82 222q0 25 6.5 53t25 62.5t47.5 61.5t79 45.5t113 18.5h163v141h-362v125h512v-729h-328q-73 0 -126 20.5t-79.5 55t-38.5 70.5t-12 76zM516 338h-179q-53 0 -82 -29.5t-29 -77.5q0 -47 29 -76.5t82 -29.5h179v213z" />
    <glyph glyph-name="uni018C" unicode="&#x18c;" horiz-adv-x="611" 
d="M317 432q-52 0 -85 -47.5t-33 -122.5q0 -74 33 -121t85 -47q53 0 85.5 47t32.5 124q0 74 -33 120.5t-85 46.5zM286 549q99 0 149 -79v134h-239v125h379v-729h-140v55q-50 -78 -149 -78q-97 0 -162 82t-65 204q0 125 65 205.5t162 80.5z" />
    <glyph glyph-name="uni018D" unicode="&#x18d;" horiz-adv-x="609" 
d="M302 424q-43 0 -72.5 -14t-43.5 -38t-19.5 -47.5t-5.5 -49.5q0 -25 5.5 -47t18.5 -46t41.5 -38t69.5 -14q57 0 93 42t36 104q0 148 -123 148zM565 284q0 -59 -16.5 -105.5t-38.5 -72.5t-52 -45t-49.5 -25.5t-38.5 -10.5l159 -105v-103h-448v114h217l-113 76l-9 6
q-22 15 -36 25.5t-39 35t-39.5 50t-26.5 66t-12 86.5q0 79 21.5 133.5t61 83.5t87 41.5t109.5 12.5q34 0 66 -5.5t69 -23t64.5 -45t45.5 -76.5t18 -113z" />
    <glyph glyph-name="uni018E" unicode="&#x18e;" horiz-adv-x="667" 
d="M474 314h-349v125h349v165h-377v125h527v-729h-545v125h395v189z" />
    <glyph glyph-name="uni018F" unicode="&#x18f;" horiz-adv-x="778" 
d="M195 293q15 -87 67 -137.5t129 -50.5q76 0 129 51t67 137h-392zM391 -23q-158 0 -254.5 107.5t-96.5 274.5q0 34 4 59h150h393q-14 91 -65.5 143t-130.5 52q-117 0 -171 -109h-157q29 87 85.5 142.5t115.5 75t126 19.5q158 0 255 -106.5t97 -280.5q0 -161 -96 -269
t-255 -108z" />
    <glyph glyph-name="uni0190" unicode="&#x190;" horiz-adv-x="672" 
d="M620 507h-140q-8 114 -153 114q-58 0 -92 -24.5t-34 -65.5q0 -103 138 -103h76v-120h-102q-71 0 -104 -32t-33 -81q0 -46 39.5 -72t107.5 -26q76 0 118 31t46 90h146q-7 -117 -84.5 -179t-217.5 -62q-141 0 -220 62.5t-79 173.5q0 115 89 164q-63 47 -63 140
q0 107 72.5 165.5t203.5 58.5q39 0 74 -5t75.5 -20.5t69.5 -40t48 -68t19 -100.5z" />
    <glyph glyph-name="uni0191" unicode="&#x191;" horiz-adv-x="611" 
d="M224 439h319v-125h-318v-408q0 -66 -29 -95t-94 -29q-36 0 -83 5v112q13 -4 14 -4q23 0 32 9.5t9 32.5v792h512v-125h-362v-165z" />
    <glyph glyph-name="florin" unicode="&#x192;" horiz-adv-x="333" 
d="M313 529v-93h-83v-530q0 -66 -29 -95t-94 -29q-36 0 -83 5v112q13 -4 25 -4q23 0 32 9.5t9 32.5v499h-76v93h76v65q0 135 138 135q41 0 80 -3v-105q-18 3 -40 3q-38 0 -38 -42v-53h83z" />
    <glyph glyph-name="uni0193" unicode="&#x193;" horiz-adv-x="778" 
d="M570 496q-40 117 -174 117q-95 0 -149.5 -67t-54.5 -185q0 -112 58.5 -184t149.5 -72q80 0 132.5 52t52.5 110h-166v125h292v-392h-90l-18 94q-42 -61 -94 -89t-126 -28q-148 0 -244.5 108t-96.5 274q0 170 98 276t255 106q107 0 186 -45q22 52 104 52q36 0 83 -5v-112
q-13 4 -15 4q-23 0 -32.5 -9.5t-9.5 -32.5v-97h-141z" />
    <glyph glyph-name="uni0194" unicode="&#x194;" horiz-adv-x="667" 
d="M343 136q-20 -20 -20 -36q0 -9 6 -14.5t14 -5.5q20 0 20 20q0 16 -20 36zM419 270q32 -51 53 -104t21 -85q0 -43 -42 -72t-108 -29q-70 0 -110 27.5t-40 73.5q0 67 76 189l-242 459h167l149 -322l139 322h168z" />
    <glyph glyph-name="uni0195" unicode="&#x195;" horiz-adv-x="940" 
d="M401 330q0 100 -86 100q-47 0 -77.5 -30t-30.5 -76v-324h-140v729h140v-267q58 87 158 87q32 0 60.5 -8.5t56 -28t43.5 -58.5t16 -92v-124q0 -72 19 -102.5t78 -30.5q55 0 75 33.5t20 105.5v296h138v-328q0 -105 -54.5 -166.5t-176.5 -61.5q-73 0 -122 16.5t-73.5 49.5
t-34 71t-9.5 91v118z" />
    <glyph glyph-name="uni0196" unicode="&#x196;" horiz-adv-x="278" 
d="M174 97q1 -17 3 -20q4 -2 18 -2q22 0 33 3l32 9v-124l-21 -4q-41 -7 -72 -7q-60 0 -93 29t-33 79v694h133v-657z" />
    <glyph glyph-name="uni0197" unicode="&#x197;" horiz-adv-x="395" 
d="M122 293h-122l-1 125h123v311h150v-311h120v-125h-120v-293h-150v293z" />
    <glyph glyph-name="uni0198" unicode="&#x198;" horiz-adv-x="778" 
d="M658 559q0 18 -15.5 34t-36.5 16q-18 0 -41 -15l-170 -179l322 -415h-179l-239 322l-75 -78v-244h-150v729h150v-320l224 248q83 88 157 88q62 0 124 -58q32 -30 40.5 -54.5t8.5 -69.5q0 -80 -73 -158l-88 82q41 44 41 72z" />
    <glyph glyph-name="uni0199" unicode="&#x199;" horiz-adv-x="556" 
d="M199 330l177 210h159l-184 -204l197 -336h-164l-129 238l-56 -61v-177h-140v605q0 66 29 95t94 29q36 0 83 -5v-112q-13 4 -25 4q-23 0 -32 -9.5t-9 -32.5v-244z" />
    <glyph glyph-name="uni019a" unicode="&#x19a;" horiz-adv-x="333" 
d="M99 314h-124v117h124v323h134v-323h125v-117h-125v-339h-134v339z" />
    <glyph glyph-name="uni019B" unicode="&#x19b;" horiz-adv-x="620" 
d="M283 334l-122 -336h-144l178 464l-145 -91v89l153 95q-14 34 -28.5 44.5t-36.5 10.5q-16 0 -36.5 -4.5t-42.5 -6.5l15 122q50 18 76 18q59 0 95 -31.5t62 -88.5l138 86v-88l-110 -69l6 -16l146 -389q11 -30 18 -30q13 0 48 21l33 -112q-67 -35 -107 -35q-23 0 -39.5 6.5
t-28 20.5t-18 27t-14.5 35z" />
    <glyph glyph-name="uni019C" unicode="&#x19c;" horiz-adv-x="944" 
d="M876 0h-149v72q-37 -44 -73 -63t-85 -19q-114 0 -158 86q-65 -86 -169 -86q-87 0 -135.5 47.5t-48.5 131.5v560h150v-536q0 -35 22 -55t59 -20q48 0 75.5 30t27.5 83v498h150v-536q0 -35 22 -55t59 -20q49 0 76 30t27 83v498h150v-729z" />
    <glyph glyph-name="uni019D" unicode="&#x19d;" horiz-adv-x="722" 
d="M70 729h152l289 -496v496h150v-729h-150l-292 502v-596q0 -66 -29 -95t-94 -29q-36 0 -83 5v112q13 -4 16 -4q23 0 32 9.5t9 32.5v792z" />
    <glyph glyph-name="uni019E" unicode="&#x19e;" horiz-adv-x="611" 
d="M63 540h140v-78q58 87 162 87q86 0 133.5 -49t47.5 -138v-563h-140v534q0 97 -90 97q-51 0 -82 -29t-31 -77v-324h-140v540z" />
    <glyph glyph-name="Obar" unicode="&#x19f;" horiz-adv-x="778" 
d="M390 741q72 0 131.5 -22t100 -59.5t68 -88t40 -105t12.5 -112.5q0 -43 -9 -89t-34 -99t-62.5 -93.5t-101.5 -68t-144 -27.5q-89 0 -159 34t-110.5 90t-61 122t-20.5 136q0 72 21.5 138.5t62.5 122t110 88.5t156 33zM195 293q15 -87 67 -137.5t129 -50.5q76 0 129 51
t67 137h-392zM587 418q-14 91 -65.5 143t-130.5 52q-78 0 -130.5 -52.5t-66.5 -142.5h393z" />
    <glyph glyph-name="Ohorn" unicode="&#x1a0;" horiz-adv-x="811" 
d="M391 613q-91 0 -146 -69.5t-55 -184.5t55 -184.5t146 -69.5q90 0 145.5 69t55.5 181q0 118 -54.5 188t-146.5 70zM40 359q0 168 96.5 275t253.5 107q150 0 245 -96q17 29 17 74q0 19 -4 44h142q1 -8 1 -17q0 -48 -30.5 -88t-85.5 -62q67 -100 67 -242
q0 -162 -95.5 -269.5t-255.5 -107.5q-159 0 -255 107t-96 275z" />
    <glyph glyph-name="ohorn" unicode="&#x1a1;" horiz-adv-x="673" 
d="M302 436q-57 0 -92 -48t-35 -125t35 -125t92 -48q56 0 91.5 47.5t35.5 123.5q0 80 -34.5 127.5t-92.5 47.5zM536 418q33 -66 33 -159q0 -130 -72 -206t-195 -76q-125 0 -196 76.5t-71 209.5t71 209.5t195 76.5q128 0 199 -78q14 28 14 70q0 19 -4 44h142q1 -8 1 -17
q0 -48 -30 -88t-85 -62h-2z" />
    <glyph glyph-name="uni01A2" unicode="&#x1a2;" horiz-adv-x="1111" 
d="M391 613q-91 0 -146 -69.5t-55 -184.5t55 -184.5t146 -69.5q90 0 145.5 69t55.5 181q0 118 -54.5 188t-146.5 70zM40 359q0 168 96.5 275t253.5 107q138 0 225 -77q62 88 193 88q112 0 173 -55.5t61 -157.5v-739h-150v739q0 41 -21 63t-60 22q-43 0 -62 -22.5t-19 -72.5
v-66q12 -51 12 -109q0 -161 -96 -269t-255 -108q-158 0 -254.5 107.5t-96.5 274.5z" />
    <glyph glyph-name="uni01a3" unicode="&#x1a3;" horiz-adv-x="722" 
d="M273 437q-58 0 -91.5 -47t-33.5 -132q0 -86 33.5 -132.5t91.5 -46.5q57 0 91 46.5t34 129.5q0 46 -9.5 84t-39 68t-76.5 30zM697 369v-594h-134v614q0 27 -4 39q-4 14 -19 16q-3 1 -8 1q-22 0 -38 -5q41 -75 41 -186q0 -139 -70.5 -220.5t-191.5 -81.5q-122 0 -192 81.5
t-70 224.5t70 224.5t191 81.5q82 0 141 -36q63 36 125 36q88 0 123.5 -48t35.5 -147z" />
    <glyph glyph-name="uni01A4" unicode="&#x1a4;" horiz-adv-x="914" 
d="M473 385h140q117 0 117 109q0 56 -28.5 83t-88.5 27h-140v-219zM267 316q-67 0 -114 20t-69 53t-31 64.5t-9 66.5q0 100 55.5 154.5t157.5 54.5h388q114 0 174.5 -58t60.5 -168q0 -111 -60 -177t-160 -66h-187v-260h-150v579h-66q-85 0 -85 -57q0 -30 22.5 -43t72.5 -13
v-150z" />
    <glyph glyph-name="uni01A5" unicode="&#x1a5;" horiz-adv-x="611" 
d="M316 432q-53 0 -85.5 -47t-32.5 -123t32.5 -122.5t85.5 -46.5q52 0 85 47t33 120q0 77 -32.5 124.5t-85.5 47.5zM348 549q102 0 164 -82t62 -205t-64.5 -204.5t-161.5 -81.5q-100 0 -150 88v-282h-140v782q0 65 30.5 94.5t96.5 29.5q30 0 77 -5v-112q-13 4 -23 4
q-41 0 -41 -35v-80q50 89 150 89z" />
    <glyph glyph-name="uni01A6" unicode="&#x1a6;" horiz-adv-x="647" 
d="M210 297h122q41 0 60 14.5t19 48.5q0 70 -79 70h-122v-133zM210 187v-187h-150v729h150v-189h151q54 0 93 -16t58.5 -42t28.5 -52.5t9 -54.5q0 -42 -15 -79t-39 -58q77 -34 77 -161v-169q0 -24 6 -39.5t11.5 -20t16.5 -11.5v-27h-161q-23 42 -23 105v174q0 41 -34.5 69.5
t-78.5 28.5h-100z" />
    <glyph glyph-name="uni01A7" unicode="&#x1a7;" horiz-adv-x="667" 
d="M58 507q0 57 19.5 100.5t48.5 68t69 40t75.5 20.5t73.5 5q131 0 203.5 -58.5t72.5 -165.5q0 -85 -47 -130t-158 -66l-102 -20q-75 -14 -106 -38t-31 -68q0 -46 39.5 -72t107.5 -26q76 0 118 31t46 90h146q-7 -117 -84.5 -179t-217.5 -62q-141 0 -220 62.5t-79 173.5
q0 86 46 133.5t147 67.5l114 22q80 16 109 35.5t29 59.5q0 41 -34 65.5t-92 24.5q-145 0 -153 -114h-140z" />
    <glyph glyph-name="uni01A8" unicode="&#x1a8;" horiz-adv-x="556" 
d="M383 157h137q-6 -180 -255 -180q-67 0 -116 17.5t-73.5 46.5t-35.5 58.5t-11 60.5q0 105 106 136l177 51q29 9 39 17.5t10 24.5q0 23 -22 36.5t-59 13.5q-100 0 -101 -73h-135q2 86 64 134.5t171 48.5q103 0 162.5 -48.5t59.5 -131.5q0 -17 -3 -32t-9 -26.5t-11.5 -20.5
t-15.5 -16.5t-16.5 -12.5t-18.5 -9.5t-16.5 -6.5t-15.5 -5.5t-12 -3.5l-167 -52q-26 -8 -36.5 -18t-10.5 -26q0 -25 27.5 -39t76.5 -14q60 0 81.5 18t28.5 52z" />
    <glyph glyph-name="uni01A9" unicode="&#x1a9;" horiz-adv-x="673" 
d="M410 390l-223 -262h429v-128h-616v117l229 273l-195 226v113h562v-128h-368z" />
    <glyph glyph-name="uni01aa" unicode="&#x1aa;" horiz-adv-x="441" 
d="M184 628q-15 0 -26 -10.5t-11 -24.5t11 -25t26 -11t26 10.5t11 24.5q0 16 -10.5 26t-26.5 10zM184 445q-61 0 -104.5 43.5t-43.5 104.5q0 60 43.5 103.5t104.5 43.5q67 0 107.5 -40.5t40.5 -108.5v-637q0 -14 2 -24q3 -15 19 -18q9 -2 23 -2q2 0 19 1l26 2v-118l-20 -5
q-18 -3 -33 -3q-81 0 -125 35t-44 99v525q-7 -1 -15 -1z" />
    <glyph glyph-name="uni01AB" unicode="&#x1ab;" horiz-adv-x="333" 
d="M301 529v-93h-78v-294q0 -36 9 -47.5t37 -11.5q11 0 32 3v-180q0 -66 -29 -95t-94 -29q-36 0 -83 5v112q13 -4 25 -4q23 0 32 9.5t9 32.5v48q-78 23 -78 119v332h-69v93h69v145h140v-145h78z" />
    <glyph glyph-name="uni01AC" unicode="&#x1ac;" horiz-adv-x="742" 
d="M259 604q-40 0 -64.5 -16t-24.5 -39q0 -24 25.5 -41t73.5 -17v-125q-110 0 -165 54q-32 32 -46 59.5t-14 70.5q0 74 58.5 126.5t156.5 52.5h470v-125h-213v-604h-150v604h-107z" />
    <glyph glyph-name="uni01AD" unicode="&#x1ad;" horiz-adv-x="333" 
d="M301 529v-93h-78v-294q0 -36 9 -47.5t37 -11.5q11 0 32 3v-98q-34 -11 -81 -11q-137 0 -137 127v332h-69v93h69v76q0 66 29 95t94 29q36 0 83 -5v-112q-13 4 -25 4q-23 0 -32 -9.5t-9 -32.5v-45h78z" />
    <glyph glyph-name="uni01AE" unicode="&#x1ae;" horiz-adv-x="611" 
d="M235 -94v698h-221v125h584v-125h-213v-667q0 -42 34 -42q6 0 22 4v-112q-47 -5 -83 -5q-65 0 -94 29t-29 95z" />
    <glyph glyph-name="Uhorn" unicode="&#x1af;" horiz-adv-x="789" 
d="M365 -23q-40 0 -77.5 7t-77 25t-68.5 46t-47.5 74.5t-18.5 105.5v494h150v-494q0 -130 139 -130t139 130v494h3q123 0 123 123q0 19 -4 44h142q1 -8 1 -17q0 -48 -30 -88t-85 -62v-494q0 -59 -18.5 -105.5t-47.5 -74.5t-68.5 -46t-77 -25t-77.5 -7z" />
    <glyph glyph-name="uhorn" unicode="&#x1b0;" horiz-adv-x="676" 
d="M541 0h-140v64q-58 -87 -162 -87q-86 0 -133.5 49t-47.5 138v376h140v-347q0 -97 90 -97q51 0 82 29t31 77v338q61 0 88.5 30.5t27.5 92.5q0 19 -4 44h142q1 -8 1 -17q0 -48 -30 -88t-85 -62v-540z" />
    <glyph glyph-name="uni01B1" unicode="&#x1b1;" horiz-adv-x="766" 
d="M170 350q0 -105 60.5 -175.5t161.5 -70.5q94 0 152.5 71t58.5 178q0 188 -174 260v118h317v-122h-123q118 -98 118 -257q0 -98 -41 -181.5t-121.5 -136t-184.5 -52.5q-167 0 -267 105t-100 261q0 167 122 261h-120v122h328v-117q-187 -75 -187 -264z" />
    <glyph glyph-name="uni01b2" unicode="&#x1b2;" horiz-adv-x="722" 
d="M60 243v488h143v-528q0 -39 32.5 -61t68.5 -22q31 0 58.5 4.5t58.5 19t53 37t36.5 62t14.5 91.5v2q0 54 -7.5 97t-28 88t-40 77.5t-60.5 93.5l-25 39h167l7 -10q69 -93 99.5 -182.5t30.5 -192.5q0 -184 -87 -271t-247 -87q-274 0 -274 255z" />
    <glyph glyph-name="uni01B3" unicode="&#x1b3;" horiz-adv-x="839" 
d="M671 546q0 27 -19 38.5t-34 11.5q-37 0 -64 -56l-135 -270v-270h-150v270l-242 459h167l149 -322l84 194q60 128 175 128q40 0 76.5 -10.5t69 -33t52 -62.5t19.5 -93q0 -46 -32 -115l-135 65q19 39 19 66z" />
    <glyph glyph-name="uni01B4" unicode="&#x1b4;" horiz-adv-x="620" 
d="M283 204l96 258q8 22 14.5 35t18 27t28 20.5t39.5 6.5q40 0 107 -35l-33 -112q-35 21 -48 21q-7 0 -18 -30l-146 -389q-37 -99 -56 -129q-49 -78 -135 -78q-26 0 -76 18l-15 122q22 -2 42.5 -6.5t36.5 -4.5q26 0 42 15.5t32 67.5l4 12l-199 517h144z" />
    <glyph glyph-name="uni01B5" unicode="&#x1b5;" horiz-adv-x="611" 
d="M578 729v-125l-159 -205h107v-67h-159l-161 -207h372v-125h-548v125l161 207h-103v67h155l160 205h-373v125h548z" />
    <glyph glyph-name="uni01B6" unicode="&#x1b6;" horiz-adv-x="500" 
d="M459 540v-113l-96 -114h51v-67h-108l-112 -133h274v-113h-447v113l113 133h-53v67h110l97 114h-249v113h420z" />
    <glyph glyph-name="Yogh" unicode="&#x1b7;" horiz-adv-x="556" 
d="M356 393q82 -21 121 -73.5t39 -115.5q0 -104 -67.5 -165.5t-180.5 -61.5q-109 0 -173.5 62.5t-65.5 168.5h136q6 -111 106 -111q46 0 75.5 30t29.5 77q0 39 -21 67.5t-56 38.5q-28 7 -82 7v94l108 193h-255v125h401v-125z" />
    <glyph glyph-name="uni01B8" unicode="&#x1b8;" horiz-adv-x="556" 
d="M29 204q0 61 38.5 114.5t121.5 74.5l-115 211v125h401v-125h-255l108 -193v-94q-54 0 -82 -7q-35 -10 -56 -38.5t-21 -67.5q0 -47 29.5 -77t75.5 -30q100 0 106 111h136q-1 -106 -65.5 -168.5t-173.5 -62.5q-113 0 -180.5 61.5t-67.5 165.5z" />
    <glyph glyph-name="uni01b9" unicode="&#x1b9;" horiz-adv-x="645" 
d="M208 293l-130 132v99h491v-123h-296l135 -112v-109h-86q-78 0 -111 -26.5t-33 -76.5q0 -45 38 -68.5t106 -23.5q69 0 105 23t41 81l1 47h142l-2 -50q-9 -117 -78 -173t-206 -56t-213.5 60t-76.5 161q0 86 44 140.5t129 74.5z" />
    <glyph glyph-name="uni01ba" unicode="&#x1ba;" horiz-adv-x="569" 
d="M529 108q0 -90 -70.5 -146.5t-178.5 -56.5q-16 0 -58.5 10.5t-52.5 10.5q-8 0 -8 -4q0 -17 28 -35t60 -18q82 0 176 36l24 10l39 -117l-22 -8q-38 -14 -55.5 -20t-65.5 -15t-96 -9q-105 0 -162 57t-57 137q0 17 4 32.5t15.5 33t37.5 28t64 10.5q31 0 77 -8t52 -8
q37 0 78.5 19.5t41.5 55.5q0 34 -36.5 55.5t-93.5 21.5h-73v109l115 137h-264v123h441v-108l-121 -148q80 -18 120.5 -65.5t40.5 -119.5z" />
    <glyph glyph-name="uni01bb" unicode="&#x1bb;" horiz-adv-x="579" 
d="M297 740q111 0 181.5 -65t70.5 -168q0 -116 -103 -197l60 -24v-131l-191 77l-29 -15q-3 -2 -9 -5q-36 -19 -50.5 -28t-28.5 -22.5t-20 -29.5h366v-131h-523l1 26q4 71 19.5 117.5t44 79t81.5 69.5l-44 17v131l174 -70l29 16q83 47 83 118q0 47 -32.5 77.5t-82.5 30.5
q-35 0 -59 -12.5t-35.5 -35.5t-16.5 -45t-7 -53l-1 -23h-138l1 26q1 41 8 76.5t25 72.5t46 62.5t74 42t106 16.5z" />
    <glyph glyph-name="uni01be" unicode="&#x1be;" horiz-adv-x="611" 
d="M64 248h136q0 -73 32 -109t78 -36q45 0 75 33t30 82q0 35 -17.5 60.5t-42.5 44t-50 41t-42.5 64t-17.5 100.5v18h-88v93h88v90h124v-90h87v-93h-87v-18q0 -49 11 -68t56 -51q70 -49 95 -90t25 -104q0 -102 -69.5 -166t-179.5 -64q-43 0 -80 10t-76.5 36t-63 81.5
t-23.5 135.5z" />
    <glyph glyph-name="uni01bf" unicode="&#x1bf;" horiz-adv-x="608" 
d="M189 340v-268q42 29 68.5 48t64.5 51.5t60 60.5t38.5 64.5t16.5 73.5q0 57 -72 57q-35 0 -81.5 -19.5t-94.5 -67.5zM189 -77v-123h-134v739h134v-49q47 38 93 51.5t116 13.5q76 0 127 -54t51 -143q0 -45 -15.5 -89t-37.5 -78.5t-58.5 -71t-65.5 -60.5t-72 -53t-65 -41.5
t-57 -32.5q-11 -7 -16 -9z" />
    <glyph glyph-name="uni01c0" unicode="&#x1c0;" horiz-adv-x="260" 
d="M180 729v-929h-80v929h80z" />
    <glyph glyph-name="uni01c1" unicode="&#x1c1;" horiz-adv-x="370" 
d="M180 729v-929h-80v929h80zM290 729v-929h-80v929h80z" />
    <glyph glyph-name="uni01c2" unicode="&#x1c2;" horiz-adv-x="584" 
d="M255 731h70v-373h214v-80h-214v-92h214v-80h-214v-306h-70v306h-210v80h210v92h-210v80h210v373z" />
    <glyph glyph-name="uni01c3" unicode="&#x1c3;" horiz-adv-x="278" 
d="M262 726v-210l-42 -309h-67l-41 309v210h150zM262 146v-146h-150v146h150z" />
    <glyph glyph-name="uni01C4" unicode="&#x1c4;" horiz-adv-x="1333" 
d="M1080 786h-107l-103 150h78l82 -97l82 97h76zM1300 729v-125l-372 -479h372v-125h-548v125l373 479h-373v125h548zM77 0v729h285q84 0 138.5 -20t91.5 -64q89 -106 89 -280q0 -176 -89 -280q-71 -85 -230 -85h-285zM227 125h135q169 0 169 239q0 240 -169 240h-135v-479z
" />
    <glyph glyph-name="uni01C5" unicode="&#x1c5;" horiz-adv-x="1222" 
d="M1024 607h-107l-103 150h78l82 -97l82 97h76zM1181 540v-113l-265 -314h274v-113h-447v113l267 314h-249v113h420zM77 0v729h285q84 0 138.5 -20t91.5 -64q89 -106 89 -280q0 -176 -89 -280q-71 -85 -230 -85h-285zM227 125h135q169 0 169 239q0 240 -169 240h-135v-479z
" />
    <glyph glyph-name="uni01C6" unicode="&#x1c6;" horiz-adv-x="1111" 
d="M913 607h-107l-103 150h78l82 -97l82 97h76zM1070 540v-113l-265 -314h274v-113h-447v113l267 314h-249v113h420zM256 -23q-100 0 -163.5 82t-63.5 203q0 122 65 204.5t162 82.5q98 0 149 -79v259h140v-729h-140v55q-52 -78 -149 -78zM287 432q-52 0 -85 -47.5
t-33 -122.5q0 -74 33 -121t85 -47t85 46t33 120q0 77 -32.5 124.5t-85.5 47.5z" />
    <glyph glyph-name="uni01C7" unicode="&#x1c7;" horiz-adv-x="1167" 
d="M863 -23q-41 0 -78.5 10t-72.5 33.5t-56 69t-21 108.5v72h150v-70q0 -50 19 -72.5t62 -22.5q39 0 60 22t21 63v539h150v-539q0 -102 -61 -157.5t-173 -55.5zM230 729v-604h349v-125h-499v729h150z" />
    <glyph glyph-name="uni01C8" unicode="&#x1c8;" horiz-adv-x="889" 
d="M821 540v-634q0 -66 -29 -95t-94 -29q-36 0 -83 5v112q13 -4 25 -4q23 0 32 9.5t9 32.5v603h140zM821 729v-125h-140v125h140zM230 729v-604h349v-125h-499v729h150z" />
    <glyph glyph-name="uni01C9" unicode="&#x1c9;" horiz-adv-x="556" 
d="M488 540v-634q0 -66 -29 -95t-94 -29q-36 0 -83 5v112q13 -4 25 -4q23 0 32 9.5t9 32.5v603h140zM488 729v-125h-140v125h140zM207 729v-729h-140v729h140z" />
    <glyph glyph-name="uni01CA" unicode="&#x1ca;" horiz-adv-x="1278" 
d="M974 -23q-41 0 -78.5 10t-72.5 33.5t-56 69t-21 108.5v72h150v-70q0 -50 19 -72.5t62 -22.5q39 0 60 22t21 63v539h150v-539q0 -102 -61 -157.5t-173 -55.5zM511 0l-293 504v-504h-150v729h154l289 -496v496h150v-729h-150z" />
    <glyph glyph-name="uni01CB" unicode="&#x1cb;" horiz-adv-x="1000" 
d="M932 540v-634q0 -66 -29 -95t-94 -29q-36 0 -83 5v112q13 -4 25 -4q23 0 32 9.5t9 32.5v603h140zM932 729v-125h-140v125h140zM511 0l-293 504v-504h-150v729h154l289 -496v496h150v-729h-150z" />
    <glyph glyph-name="uni01CC" unicode="&#x1cc;" horiz-adv-x="889" 
d="M821 540v-634q0 -66 -29 -95t-94 -29q-36 0 -83 5v112q13 -4 25 -4q23 0 32 9.5t9 32.5v603h140zM821 729v-125h-140v125h140zM63 540h140v-78q58 87 162 87q86 0 133.5 -49t47.5 -138v-362h-140v333q0 97 -90 97q-51 0 -82 -29t-31 -77v-324h-140v540z" />
    <glyph glyph-name="uni01CD" unicode="&#x1cd;" horiz-adv-x="722" 
d="M419 801h-107l-103 150h78l82 -97l82 97h76zM501 147h-273l-49 -147h-153l259 729h166l252 -729h-154zM460 272l-95 285l-95 -285h190z" />
    <glyph glyph-name="uni01CE" unicode="&#x1ce;" horiz-adv-x="556" 
d="M322 609h-107l-103 150h78l82 -97l82 97h76zM192 -23q-74 0 -119 44.5t-45 117.5q0 143 159 170l56 10q2 0 20 2.5t23 4t19.5 4.5t20.5 7t14.5 10.5t11.5 15t3 19.5q0 54 -81 54q-52 0 -73 -16t-26 -58h-135q13 187 231 187q221 0 221 -166v-300q0 -37 32 -66v-17h-152
q-16 20 -16 54q-74 -77 -164 -77zM355 217v38q-19 -9 -59 -17l-48 -9q-44 -9 -62 -26t-18 -48q0 -30 20.5 -47.5t55.5 -17.5q53 0 82 33t29 94z" />
    <glyph glyph-name="uni01CF" unicode="&#x1cf;" horiz-adv-x="278" 
d="M189 801h-107l-103 150h78l82 -97l82 97h76zM213 729v-729h-150v729h150z" />
    <glyph glyph-name="uni01D0" unicode="&#x1d0;" horiz-adv-x="278" 
d="M188 609h-107l-103 150h78l82 -97l82 97h76zM207 540v-540h-140v540h140z" />
    <glyph glyph-name="uni01D1" unicode="&#x1d1;" horiz-adv-x="778" 
d="M441 801h-107l-103 150h78l82 -97l82 97h76zM40 359q0 168 96.5 275t253.5 107q158 0 255 -106.5t97 -280.5q0 -162 -95.5 -269.5t-255.5 -107.5q-159 0 -255 107t-96 275zM391 613q-91 0 -146 -69.5t-55 -184.5t55 -184.5t146 -69.5q90 0 145.5 69t55.5 181
q0 118 -54.5 188t-146.5 70z" />
    <glyph glyph-name="uni01D2" unicode="&#x1d2;" horiz-adv-x="611" 
d="M352 609h-107l-103 150h78l82 -97l82 97h76zM301 549q127 0 197.5 -76.5t70.5 -213.5q0 -130 -72 -206t-195 -76q-125 0 -196 76.5t-71 209.5t71 209.5t195 76.5zM302 436q-57 0 -92 -48t-35 -125t35 -125t92 -48q56 0 91.5 47.5t35.5 123.5q0 80 -34.5 127.5t-92.5 47.5
z" />
    <glyph glyph-name="uni01D3" unicode="&#x1d3;" horiz-adv-x="722" 
d="M416 801h-107l-103 150h78l82 -97l82 97h76zM365 -23q-40 0 -77.5 7t-77 25t-68.5 46t-47.5 74.5t-18.5 105.5v494h150v-494q0 -130 139 -130t139 130v494h150v-494q0 -59 -18.5 -105.5t-47.5 -74.5t-68.5 -46t-77 -25t-77.5 -7z" />
    <glyph glyph-name="uni01D4" unicode="&#x1d4;" horiz-adv-x="611" 
d="M351 609h-107l-103 150h78l82 -97l82 97h76zM541 0h-140v64q-58 -87 -162 -87q-86 0 -133.5 49t-47.5 138v376h140v-347q0 -97 90 -97q51 0 82 29t31 77v338h140v-540z" />
    <glyph glyph-name="uni01D5" unicode="&#x1d5;" horiz-adv-x="722" 
d="M518 886v-122h-110v122h110zM322 886v-122h-110v122h110zM365 -23q-40 0 -77.5 7t-77 25t-68.5 46t-47.5 74.5t-18.5 105.5v494h150v-494q0 -130 139 -130t139 130v494h150v-494q0 -59 -18.5 -105.5t-47.5 -74.5t-68.5 -46t-77 -25t-77.5 -7zM515 999v-79h-299v79h299z
" />
    <glyph glyph-name="uni01D6" unicode="&#x1d6;" horiz-adv-x="611" 
d="M448 882v-79h-299v79h299zM451 743v-122h-110v122h110zM255 743v-122h-110v122h110zM541 0h-140v64q-58 -87 -162 -87q-86 0 -133.5 49t-47.5 138v376h140v-347q0 -97 90 -97q51 0 82 29t31 77v338h140v-540z" />
    <glyph glyph-name="uni01D7" unicode="&#x1d7;" horiz-adv-x="722" 
d="M518 892v-122h-110v122h110zM322 892v-122h-110v122h110zM365 -23q-40 0 -77.5 7t-77 25t-68.5 46t-47.5 74.5t-18.5 105.5v494h150v-494q0 -130 139 -130t139 130v494h150v-494q0 -59 -18.5 -105.5t-47.5 -74.5t-68.5 -46t-77 -25t-77.5 -7zM526 1064l-126 -150h-70
l70 150h126z" />
    <glyph glyph-name="uni01D8" unicode="&#x1d8;" horiz-adv-x="611" 
d="M459 953l-126 -150h-70l70 150h126zM451 743v-122h-110v122h110zM255 743v-122h-110v122h110zM541 0h-140v64q-58 -87 -162 -87q-86 0 -133.5 49t-47.5 138v376h140v-347q0 -97 90 -97q51 0 82 29t31 77v338h140v-540z" />
    <glyph glyph-name="uni01D9" unicode="&#x1d9;" horiz-adv-x="722" 
d="M518 890v-122h-110v122h110zM322 890v-122h-110v122h110zM365 -23q-40 0 -77.5 7t-77 25t-68.5 46t-47.5 74.5t-18.5 105.5v494h150v-494q0 -130 139 -130t139 130v494h150v-494q0 -59 -18.5 -105.5t-47.5 -74.5t-68.5 -46t-77 -25t-77.5 -7zM416 909h-107l-103 150h78
l82 -97l82 97h76z" />
    <glyph glyph-name="uni01DA" unicode="&#x1da;" horiz-adv-x="611" 
d="M349 803h-107l-103 150h78l82 -97l82 97h76zM451 743v-122h-110v122h110zM255 743v-122h-110v122h110zM541 0h-140v64q-58 -87 -162 -87q-86 0 -133.5 49t-47.5 138v376h140v-347q0 -97 90 -97q51 0 82 29t31 77v338h140v-540z" />
    <glyph glyph-name="uni01DB" unicode="&#x1db;" horiz-adv-x="722" 
d="M518 894v-122h-110v122h110zM322 894v-122h-110v122h110zM365 -23q-40 0 -77.5 7t-77 25t-68.5 46t-47.5 74.5t-18.5 105.5v494h150v-494q0 -130 139 -130t139 130v494h150v-494q0 -59 -18.5 -105.5t-47.5 -74.5t-68.5 -46t-77 -25t-77.5 -7zM204 1068h126l70 -150h-70z
" />
    <glyph glyph-name="uni01DC" unicode="&#x1dc;" horiz-adv-x="611" 
d="M137 953h126l70 -150h-70zM451 743v-122h-110v122h110zM255 743v-122h-110v122h110zM541 0h-140v64q-58 -87 -162 -87q-86 0 -133.5 49t-47.5 138v376h140v-347q0 -97 90 -97q51 0 82 29t31 77v338h140v-540z" />
    <glyph glyph-name="uni01DD" unicode="&#x1dd;" horiz-adv-x="556" 
d="M275 -23q-35 0 -68 8t-67.5 29t-60 53.5t-41.5 86t-16 122.5q0 12 1 24h362q-1 31 -5.5 53.5t-16 44t-34 33t-56.5 11.5q-80 0 -107 -68h-138q23 80 91 127.5t159 47.5q115 0 181 -74.5t66 -204.5q0 -136 -67 -214.5t-183 -78.5zM168 207q5 -59 32.5 -91t76.5 -32
q92 0 106 123h-215z" />
    <glyph glyph-name="uni01DE" unicode="&#x1de;" horiz-adv-x="722" 
d="M517 891v-122h-110v122h110zM321 891v-122h-110v122h110zM501 147h-273l-49 -147h-153l259 729h166l252 -729h-154zM460 272l-95 285l-95 -285h190zM514 1000v-79h-299v79h299z" />
    <glyph glyph-name="uni01DF" unicode="&#x1df;" horiz-adv-x="556" 
d="M421 882v-79h-299v79h299zM425 743v-122h-110v122h110zM229 743v-122h-110v122h110zM192 -23q-74 0 -119 44.5t-45 117.5q0 143 159 170l56 10q2 0 20 2.5t23 4t19.5 4.5t20.5 7t14.5 10.5t11.5 15t3 19.5q0 54 -81 54q-52 0 -73 -16t-26 -58h-135q13 187 231 187
q221 0 221 -166v-300q0 -37 32 -66v-17h-152q-16 20 -16 54q-74 -77 -164 -77zM355 217v38q-19 -9 -59 -17l-48 -9q-44 -9 -62 -26t-18 -48q0 -30 20.5 -47.5t55.5 -17.5q53 0 82 33t29 94z" />
    <glyph glyph-name="uni01E0" unicode="&#x1e0;" horiz-adv-x="722" 
d="M501 147h-273l-49 -147h-153l259 729h166l252 -729h-154zM460 272l-95 285l-95 -285h190zM423 890v-122h-110v122h110zM517 999v-79h-299v79h299z" />
    <glyph glyph-name="uni01E1" unicode="&#x1e1;" horiz-adv-x="556" 
d="M421 870v-79h-299v79h299zM326 731v-122h-110v122h110zM192 -23q-74 0 -119 44.5t-45 117.5q0 143 159 170l56 10q2 0 20 2.5t23 4t19.5 4.5t20.5 7t14.5 10.5t11.5 15t3 19.5q0 54 -81 54q-52 0 -73 -16t-26 -58h-135q13 187 231 187q221 0 221 -166v-300q0 -37 32 -66
v-17h-152q-16 20 -16 54q-74 -77 -164 -77zM355 217v38q-19 -9 -59 -17l-48 -9q-44 -9 -62 -26t-18 -48q0 -30 20.5 -47.5t55.5 -17.5q53 0 82 33t29 94z" />
    <glyph glyph-name="uni01E2" unicode="&#x1e2;" horiz-adv-x="1000" 
d="M755 880v-79h-299v79h299zM430 152h-223l-53 -152h-153l263 729h682v-125h-366v-165h339v-125h-339v-189h386v-125h-536v152zM430 277v327h-67l-114 -327h181z" />
    <glyph glyph-name="uni01E3" unicode="&#x1e3;" horiz-adv-x="889" 
d="M585 688v-79h-299v79h299zM495 226q0 -142 114 -142q36 0 65.5 19.5t38.5 48.5h138q-23 -80 -91 -127.5t-159 -47.5q-136 0 -200 104q-89 -105 -205 -105q-77 0 -122.5 44.5t-45.5 120.5q0 145 159 171l56 10q5 1 22.5 3.5t23.5 4l20 5t19.5 7t13 9.5t10.5 14t3 18
q0 53 -85 53q-47 0 -68.5 -16.5t-26.5 -57.5h-131q3 187 228 187q117 0 175 -50q62 50 155 50q46 0 88 -14t81.5 -45.5t63 -93t23.5 -146.5q0 -12 -1 -24h-362zM355 216v38q-22 -13 -59 -19l-48 -7q-80 -11 -80 -73q0 -31 20.5 -48.5t55.5 -17.5q54 0 82.5 32.5t28.5 94.5z
M496 319h216q-11 123 -109 123t-107 -123z" />
    <glyph glyph-name="uni01E4" unicode="&#x1e4;" horiz-adv-x="778" 
d="M419 149v80h159q5 16 7 38h-166v125h292v-163h85v-80h-85v-151h-90l-18 96q-42 -61 -94 -89t-126 -28q-148 0 -244.5 108t-96.5 274q0 170 98 276t255 106q132 0 217 -66t99 -179h-141q-17 49 -45 73q-50 44 -129 44q-95 0 -149.5 -67t-54.5 -185q0 -112 58.5 -184
t149.5 -72q70 0 123 44h-104z" />
    <glyph glyph-name="uni01E5" unicode="&#x1e5;" horiz-adv-x="611" 
d="M288 432q-51 0 -82.5 -48t-31.5 -125q0 -73 31 -119t81 -46q55 0 89.5 46t34.5 119q0 75 -34.5 124t-87.5 49zM408 540h133v-558q0 -15 -2 -29h93v-67h-114q-57 -104 -234 -104q-108 0 -173 41.5t-66 111.5h145q17 -63 99 -63q35 0 62 14h-52v67h105q4 14 4 29v73
q-39 -44 -72.5 -61t-80.5 -17q-100 0 -160.5 77t-60.5 203q0 125 64 208.5t160 83.5q90 0 150 -92v83z" />
    <glyph glyph-name="Gcaron" unicode="&#x1e6;" horiz-adv-x="778" 
d="M446 801h-107l-103 150h78l82 -97l82 97h76zM570 498q-40 117 -174 117q-95 0 -149.5 -67t-54.5 -185q0 -112 58.5 -184t149.5 -72q14 0 32.5 3.5t44.5 14t48 27.5t39 47.5t21 69.5h-166v125h292v-394h-90l-18 96q-42 -61 -94 -89t-126 -28q-148 0 -244.5 108t-96.5 274
q0 170 98 276t255 106q132 0 217 -66t99 -179h-141z" />
    <glyph glyph-name="gcaron" unicode="&#x1e7;" horiz-adv-x="611" 
d="M309 609h-107l-103 150h78l82 -97l82 97h76zM408 540h133v-558q0 -95 -67.5 -147.5t-189.5 -52.5q-108 0 -173 41.5t-66 111.5h145q17 -63 99 -63q53 0 86 30.5t33 79.5v73q-39 -44 -72.5 -61t-80.5 -17q-100 0 -160.5 77t-60.5 203q0 125 64 208.5t160 83.5
q90 0 150 -92v83zM288 432q-51 0 -82.5 -48t-31.5 -125q0 -73 31 -119t81 -46q55 0 89.5 46t34.5 119q0 75 -34.5 124t-87.5 49z" />
    <glyph glyph-name="uni01E8" unicode="&#x1e8;" horiz-adv-x="722" 
d="M431 801h-107l-103 150h78l82 -97l82 97h76zM224 244v-244h-150v729h150v-320l285 320h177l-291 -314l322 -415h-179l-239 322z" />
    <glyph glyph-name="uni01E9" unicode="&#x1e9;" horiz-adv-x="556" 
d="M361 729h-107l-103 150h78l82 -97l82 97h76zM199 330l177 210h159l-184 -204l197 -336h-164l-129 238l-56 -61v-177h-140v729h140v-399z" />
    <glyph glyph-name="Oogonek" unicode="&#x1ea;" horiz-adv-x="778" 
d="M391 613q-91 0 -146 -69.5t-55 -184.5t55 -184.5t146 -69.5q90 0 145.5 69t55.5 181q0 118 -54.5 188t-146.5 70zM40 359q0 168 96.5 275t253.5 107q158 0 255 -106.5t97 -280.5q0 -101 -38.5 -183.5t-113 -134.5t-173.5 -58q-57 -37 -77.5 -63t-20.5 -63q0 -50 76 -50
q30 0 57 6v-47q-39 -10 -79 -10q-67 0 -105.5 25.5t-38.5 69.5q0 42 29.5 77t81.5 57q-137 17 -218.5 121t-81.5 258z" />
    <glyph glyph-name="oogonek" unicode="&#x1eb;" horiz-adv-x="611" 
d="M302 436q-57 0 -92 -48t-35 -125t35 -125t92 -48q56 0 91.5 47.5t35.5 123.5q0 80 -34.5 127.5t-92.5 47.5zM301 549q127 0 197.5 -76.5t70.5 -213.5q0 -122 -64.5 -197t-175.5 -84q-57 -36 -77.5 -62.5t-20.5 -63.5q0 -50 76 -50q30 0 57 6v-47q-39 -10 -79 -10
q-67 0 -105.5 25.5t-38.5 69.5q0 42 29.5 77.5t82.5 56.5q-103 15 -160.5 89.5t-57.5 193.5q0 133 71 209.5t195 76.5z" />
    <glyph glyph-name="uni01EC" unicode="&#x1ec;" horiz-adv-x="778" 
d="M539 880v-79h-299v79h299zM391 613q-91 0 -146 -69.5t-55 -184.5t55 -184.5t146 -69.5q90 0 145.5 69t55.5 181q0 118 -54.5 188t-146.5 70zM40 359q0 168 96.5 275t253.5 107q158 0 255 -106.5t97 -280.5q0 -101 -38.5 -183.5t-113 -134.5t-173.5 -58q-57 -37 -77.5 -63
t-20.5 -63q0 -50 76 -50q30 0 57 6v-47q-39 -10 -79 -10q-67 0 -105.5 25.5t-38.5 69.5q0 42 29.5 77t81.5 57q-137 17 -218.5 121t-81.5 258z" />
    <glyph glyph-name="uni01ED" unicode="&#x1ed;" horiz-adv-x="611" 
d="M451 688v-79h-299v79h299zM302 436q-57 0 -92 -48t-35 -125t35 -125t92 -48q56 0 91.5 47.5t35.5 123.5q0 80 -34.5 127.5t-92.5 47.5zM301 549q127 0 197.5 -76.5t70.5 -213.5q0 -122 -64.5 -197t-175.5 -84q-57 -36 -77.5 -62.5t-20.5 -63.5q0 -50 76 -50q30 0 57 6
v-47q-39 -10 -79 -10q-67 0 -105.5 25.5t-38.5 69.5q0 42 29.5 77.5t82.5 56.5q-103 15 -160.5 89.5t-57.5 193.5q0 133 71 209.5t195 76.5z" />
    <glyph glyph-name="uni01EE" unicode="&#x1ee;" horiz-adv-x="556" 
d="M321 801h-107l-103 150h78l82 -97l82 97h76zM356 393q82 -21 121 -73.5t39 -115.5q0 -104 -67.5 -165.5t-180.5 -61.5q-109 0 -173.5 62.5t-65.5 168.5h136q6 -111 106 -111q46 0 75.5 30t29.5 77q0 39 -21 67.5t-56 38.5q-28 7 -82 7v94l108 193h-255v125h401v-125z" />
    <glyph glyph-name="uni01EF" unicode="&#x1ef;" horiz-adv-x="556" 
d="M344 609h-107l-103 150h78l82 -97l82 97h76zM370 272q62 -18 104 -64t42 -124q0 -104 -67.5 -165.5t-180.5 -61.5q-109 0 -173.5 62.5t-65.5 168.5h136q6 -111 106 -111q46 0 75.5 30t29.5 77q0 39 -21 67.5t-56 38.5q-28 7 -82 7v94l115 136h-249v113h420v-113z" />
    <glyph glyph-name="uni01F0" unicode="&#x1f0;" horiz-adv-x="278" 
d="M210 540v-634q0 -66 -29 -95t-94 -29q-36 0 -83 5v112q13 -4 25 -4q23 0 32 9.5t9 32.5v603h140zM191 600h-107l-103 150h78l82 -97l82 97h76z" />
    <glyph glyph-name="uni01F1" unicode="&#x1f1;" horiz-adv-x="1333" 
d="M1300 729v-125l-372 -479h372v-125h-548v125l373 479h-373v125h548zM77 0v729h285q84 0 138.5 -20t91.5 -64q89 -106 89 -280q0 -176 -89 -280q-71 -85 -230 -85h-285zM227 125h135q169 0 169 239q0 240 -169 240h-135v-479z" />
    <glyph glyph-name="uni01F2" unicode="&#x1f2;" horiz-adv-x="1222" 
d="M1181 540v-113l-265 -314h274v-113h-447v113l267 314h-249v113h420zM77 0v729h285q84 0 138.5 -20t91.5 -64q89 -106 89 -280q0 -176 -89 -280q-71 -85 -230 -85h-285zM227 125h135q169 0 169 239q0 240 -169 240h-135v-479z" />
    <glyph glyph-name="uni01F3" unicode="&#x1f3;" horiz-adv-x="1111" 
d="M1070 540v-113l-265 -314h274v-113h-447v113l267 314h-249v113h420zM256 -23q-100 0 -163.5 82t-63.5 203q0 122 65 204.5t162 82.5q98 0 149 -79v259h140v-729h-140v55q-52 -78 -149 -78zM287 432q-52 0 -85 -47.5t-33 -122.5q0 -74 33 -121t85 -47t85 46t33 120
q0 77 -32.5 124.5t-85.5 47.5z" />
    <glyph glyph-name="uni01F4" unicode="&#x1f4;" horiz-adv-x="778" 
d="M556 951l-126 -150h-70l70 150h126zM570 498q-40 117 -174 117q-95 0 -149.5 -67t-54.5 -185q0 -112 58.5 -184t149.5 -72q14 0 32.5 3.5t44.5 14t48 27.5t39 47.5t21 69.5h-166v125h292v-394h-90l-18 96q-42 -61 -94 -89t-126 -28q-148 0 -244.5 108t-96.5 274
q0 170 98 276t255 106q132 0 217 -66t99 -179h-141z" />
    <glyph glyph-name="uni01F5" unicode="&#x1f5;" horiz-adv-x="611" 
d="M419 759l-126 -150h-70l70 150h126zM408 540h133v-558q0 -95 -67.5 -147.5t-189.5 -52.5q-108 0 -173 41.5t-66 111.5h145q17 -63 99 -63q53 0 86 30.5t33 79.5v73q-39 -44 -72.5 -61t-80.5 -17q-100 0 -160.5 77t-60.5 203q0 125 64 208.5t160 83.5q90 0 150 -92v83z
M288 432q-51 0 -82.5 -48t-31.5 -125q0 -73 31 -119t81 -46q55 0 89.5 46t34.5 119q0 75 -34.5 124t-87.5 49z" />
    <glyph glyph-name="Wynn" unicode="&#x1f7;" horiz-adv-x="630" 
d="M211 520v-270q49 33 86 62.5t77.5 70t62.5 85.5t22 90q0 21 -23 35.5t-49 14.5q-35 0 -81.5 -20t-94.5 -68zM211 93v-92h-145v726h145v-49q47 38 93 51.5t116 13.5q76 0 130.5 -54.5t54.5 -142.5q0 -47 -17.5 -94.5t-42 -84.5t-65 -77t-71.5 -66t-77 -56.5t-67 -43
t-54 -31.5z" />
    <glyph glyph-name="uni01F8" unicode="&#x1f8;" horiz-adv-x="722" 
d="M203 951h126l70 -150h-70zM511 0l-293 504v-504h-150v729h154l289 -496v496h150v-729h-150z" />
    <glyph glyph-name="uni01F9" unicode="&#x1f9;" horiz-adv-x="611" 
d="M143 759h126l70 -150h-70zM63 540h140v-78q58 87 162 87q86 0 133.5 -49t47.5 -138v-362h-140v333q0 97 -90 97q-51 0 -82 -29t-31 -77v-324h-140v540z" />
    <glyph glyph-name="Aringacute" unicode="&#x1fa;" horiz-adv-x="722" 
d="M364 752q37 0 63 -26.5t26 -64.5q0 -37 -26.5 -63t-63.5 -26t-63.5 26t-26.5 64t26.5 64t64.5 26zM364 704q-18 0 -30.5 -12.5t-12.5 -29.5t12.5 -29.5t30.5 -12.5q17 0 29 12.5t12 29.5t-12 29.5t-29 12.5zM501 110.25h-273l-49 -110.25h-153l259 546.75h166
l252 -546.75h-154zM460 204l-95 213.75l-95 -213.75h190zM525 944l-126 -150h-70l70 150h126z" />
    <glyph glyph-name="aringacute" unicode="&#x1fb;" horiz-adv-x="556" 
d="M434 980l-126 -150h-70l70 150h126zM273 770q37 0 63 -26.5t26 -64.5q0 -37 -26.5 -63t-63.5 -26t-63.5 26t-26.5 64t26.5 64t64.5 26zM273 722q-18 0 -30.5 -12.5t-12.5 -29.5t12.5 -29.5t30.5 -12.5q17 0 29 12.5t12 29.5t-12 29.5t-29 12.5zM192 -23q-74 0 -119 44.5
t-45 117.5q0 143 159 170l56 10q2 0 20 2.5t23 4t19.5 4.5t20.5 7t14.5 10.5t11.5 15t3 19.5q0 54 -81 54q-52 0 -73 -16t-26 -58h-135q13 187 231 187q221 0 221 -166v-300q0 -37 32 -66v-17h-152q-16 20 -16 54q-74 -77 -164 -77zM355 217v38q-19 -9 -59 -17l-48 -9
q-44 -9 -62 -26t-18 -48q0 -30 20.5 -47.5t55.5 -17.5q53 0 82 33t29 94z" />
    <glyph glyph-name="AEacute" unicode="&#x1fc;" horiz-adv-x="1000" 
d="M766 951l-126 -150h-70l70 150h126zM430 152h-223l-53 -152h-153l263 729h682v-125h-366v-165h339v-125h-339v-189h386v-125h-536v152zM430 277v327h-67l-114 -327h181z" />
    <glyph glyph-name="aeacute" unicode="&#x1fd;" horiz-adv-x="889" 
d="M597 759l-126 -150h-70l70 150h126zM495 226q0 -142 114 -142q36 0 65.5 19.5t38.5 48.5h138q-23 -80 -91 -127.5t-159 -47.5q-136 0 -200 104q-89 -105 -205 -105q-77 0 -122.5 44.5t-45.5 120.5q0 145 159 171l56 10q5 1 22.5 3.5t23.5 4l20 5t19.5 7t13 9.5t10.5 14
t3 18q0 53 -85 53q-47 0 -68.5 -16.5t-26.5 -57.5h-131q3 187 228 187q117 0 175 -50q62 50 155 50q46 0 88 -14t81.5 -45.5t63 -93t23.5 -146.5q0 -12 -1 -24h-362zM355 216v38q-22 -13 -59 -19l-48 -7q-80 -11 -80 -73q0 -31 20.5 -48.5t55.5 -17.5q54 0 82.5 32.5
t28.5 94.5zM496 319h216q-11 123 -109 123t-107 -123z" />
    <glyph glyph-name="Oslashacute" unicode="&#x1fe;" horiz-adv-x="778" 
d="M552 959l-126 -150h-70l70 150h126zM740 357q0 -163 -96 -271.5t-256 -108.5q-136 0 -223 75l-83 -91l-51 46l86 95q-82 110 -82 257q0 167 97 274.5t256 107.5q137 0 232 -84l83 92l52 -45l-89 -99q74 -101 74 -248zM567 497l-311 -344q50 -48 132 -48q92 0 147 70
t55 186q0 75 -23 136zM214 209l314 346q-55 58 -140 58q-93 0 -148 -70t-55 -187q0 -83 29 -147z" />
    <glyph glyph-name="oslashacute" unicode="&#x1ff;" horiz-adv-x="611" 
d="M463 767l-126 -150h-70l70 150h126zM126 35l-72 -73l-43 40l75 77q-50 72 -50 184q0 133 72 209.5t197 76.5q107 0 182 -62l68 70l43 -41l-72 -73q47 -73 47 -180q0 -133 -71.5 -209.5t-195.5 -76.5q-116 0 -180 58zM421 336l-201 -204q36 -42 86 -42q55 0 91 48t36 122
q0 40 -12 76zM190 184l202 206q-39 47 -89 47q-56 0 -91.5 -48t-35.5 -123q0 -46 14 -82z" />
    <glyph glyph-name="uni0200" unicode="&#x200;" horiz-adv-x="722" 
d="M301 948h126l70 -147h-70zM113 948h126l70 -147h-70zM501 147h-273l-49 -147h-153l259 729h166l252 -729h-154zM460 272l-95 285l-95 -285h190z" />
    <glyph glyph-name="uni0201" unicode="&#x201;" horiz-adv-x="556" 
d="M204 756h126l70 -147h-70zM16 756h126l70 -147h-70zM192 -23q-74 0 -119 44.5t-45 117.5q0 143 159 170l56 10q2 0 20 2.5t23 4t19.5 4.5t20.5 7t14.5 10.5t11.5 15t3 19.5q0 54 -81 54q-52 0 -73 -16t-26 -58h-135q13 187 231 187q221 0 221 -166v-300q0 -37 32 -66v-17
h-152q-16 20 -16 54q-74 -77 -164 -77zM355 217v38q-19 -9 -59 -17l-48 -9q-44 -9 -62 -26t-18 -48q0 -30 20.5 -47.5t55.5 -17.5q53 0 82 33t29 94z" />
    <glyph glyph-name="uni0202" unicode="&#x202;" horiz-adv-x="722" 
d="M236 801v11q0 56 38 94t94 38t94 -38t38 -95v-10h-56q-9 66 -77 66q-64 0 -75 -66h-56zM501 147h-273l-49 -147h-153l259 729h166l252 -729h-154zM460 272l-95 285l-95 -285h190z" />
    <glyph glyph-name="uni0203" unicode="&#x203;" horiz-adv-x="556" 
d="M139 609v11q0 56 38 94t94 38t94 -38t38 -95v-10h-56q-9 66 -77 66q-64 0 -75 -66h-56zM192 -23q-74 0 -119 44.5t-45 117.5q0 143 159 170l56 10q2 0 20 2.5t23 4t19.5 4.5t20.5 7t14.5 10.5t11.5 15t3 19.5q0 54 -81 54q-52 0 -73 -16t-26 -58h-135q13 187 231 187
q221 0 221 -166v-300q0 -37 32 -66v-17h-152q-16 20 -16 54q-74 -77 -164 -77zM355 217v38q-19 -9 -59 -17l-48 -9q-44 -9 -62 -26t-18 -48q0 -30 20.5 -47.5t55.5 -17.5q53 0 82 33t29 94z" />
    <glyph glyph-name="uni0204" unicode="&#x204;" horiz-adv-x="667" 
d="M275 948h126l70 -147h-70zM87 948h126l70 -147h-70zM229 314v-189h395v-125h-545v729h527v-125h-377v-165h349v-125h-349z" />
    <glyph glyph-name="uni0205" unicode="&#x205;" horiz-adv-x="556" 
d="M205 756h126l70 -147h-70zM17 756h126l70 -147h-70zM272 549q35 0 68 -8t67.5 -29t60 -53.5t41.5 -86t16 -122.5q0 -12 -1 -24h-362q1 -31 5.5 -53.5t16 -44t34 -33t56.5 -11.5q80 0 107 68h138q-23 -80 -91 -127.5t-159 -47.5q-115 0 -181 74.5t-66 204.5
q0 136 67 214.5t183 78.5zM379 319q-5 59 -32.5 91t-76.5 32q-92 0 -106 -123h215z" />
    <glyph glyph-name="uni0206" unicode="&#x206;" horiz-adv-x="667" 
d="M210 801v11q0 56 38 94t94 38t94 -38t38 -95v-10h-56q-9 66 -77 66q-64 0 -75 -66h-56zM229 314v-189h395v-125h-545v729h527v-125h-377v-165h349v-125h-349z" />
    <glyph glyph-name="uni0207" unicode="&#x207;" horiz-adv-x="556" 
d="M140 609v11q0 56 38 94t94 38t94 -38t38 -95v-10h-56q-9 66 -77 66q-64 0 -75 -66h-56zM272 549q35 0 68 -8t67.5 -29t60 -53.5t41.5 -86t16 -122.5q0 -12 -1 -24h-362q1 -31 5.5 -53.5t16 -44t34 -33t56.5 -11.5q80 0 107 68h138q-23 -80 -91 -127.5t-159 -47.5
q-115 0 -181 74.5t-66 204.5q0 136 67 214.5t183 78.5zM379 319q-5 59 -32.5 91t-76.5 32q-92 0 -106 -123h215z" />
    <glyph glyph-name="uni0208" unicode="&#x208;" horiz-adv-x="278" 
d="M71 948h126l70 -147h-70zM-117 948h126l70 -147h-70zM213 729v-729h-150v729h150z" />
    <glyph glyph-name="uni0209" unicode="&#x209;" horiz-adv-x="278" 
d="M70 756h126l70 -147h-70zM-118 756h126l70 -147h-70zM207 540v-540h-140v540h140z" />
    <glyph glyph-name="uni020A" unicode="&#x20a;" horiz-adv-x="278" 
d="M6 801v11q0 56 38 94t94 38t94 -38t38 -95v-10h-56q-9 66 -77 66q-64 0 -75 -66h-56zM213 729v-729h-150v729h150z" />
    <glyph glyph-name="uni020B" unicode="&#x20b;" horiz-adv-x="278" 
d="M5 609v11q0 56 38 94t94 38t94 -38t38 -95v-10h-56q-9 66 -77 66q-64 0 -75 -66h-56zM207 540v-540h-140v540h140z" />
    <glyph glyph-name="uni020C" unicode="&#x20c;" horiz-adv-x="778" 
d="M323 948h126l70 -147h-70zM135 948h126l70 -147h-70zM40 359q0 168 96.5 275t253.5 107q158 0 255 -106.5t97 -280.5q0 -162 -95.5 -269.5t-255.5 -107.5q-159 0 -255 107t-96 275zM391 613q-91 0 -146 -69.5t-55 -184.5t55 -184.5t146 -69.5q90 0 145.5 69t55.5 181
q0 118 -54.5 188t-146.5 70z" />
    <glyph glyph-name="uni020D" unicode="&#x20d;" horiz-adv-x="611" 
d="M234 756h126l70 -147h-70zM46 756h126l70 -147h-70zM301 549q127 0 197.5 -76.5t70.5 -213.5q0 -130 -72 -206t-195 -76q-125 0 -196 76.5t-71 209.5t71 209.5t195 76.5zM302 436q-57 0 -92 -48t-35 -125t35 -125t92 -48q56 0 91.5 47.5t35.5 123.5q0 80 -34.5 127.5
t-92.5 47.5z" />
    <glyph glyph-name="uni020E" unicode="&#x20e;" horiz-adv-x="778" 
d="M258 791v11q0 56 38 94t94 38t94 -38t38 -95v-10h-56q-9 66 -77 66q-64 0 -75 -66h-56zM40 359q0 168 96.5 275t253.5 107q158 0 255 -106.5t97 -280.5q0 -162 -95.5 -269.5t-255.5 -107.5q-159 0 -255 107t-96 275zM391 613q-91 0 -146 -69.5t-55 -184.5t55 -184.5
t146 -69.5q90 0 145.5 69t55.5 181q0 118 -54.5 188t-146.5 70z" />
    <glyph glyph-name="uni020F" unicode="&#x20f;" horiz-adv-x="611" 
d="M172 609v11q0 56 38 94t94 38t94 -38t38 -95v-10h-56q-9 66 -77 66q-64 0 -75 -66h-56zM301 549q127 0 197.5 -76.5t70.5 -213.5q0 -130 -72 -206t-195 -76q-125 0 -196 76.5t-71 209.5t71 209.5t195 76.5zM302 436q-57 0 -92 -48t-35 -125t35 -125t92 -48
q56 0 91.5 47.5t35.5 123.5q0 80 -34.5 127.5t-92.5 47.5z" />
    <glyph glyph-name="uni0210" unicode="&#x210;" horiz-adv-x="722" 
d="M279 948h126l70 -147h-70zM91 948h126l70 -147h-70zM493 125q0 30 1 47t1 30q0 46 -22 66.5t-71 20.5h-172v-289h-150v729h391q56 0 96.5 -19t61 -50t29.5 -62.5t9 -65.5q0 -132 -123 -180q27 -11 40 -17.5t26.5 -21.5t18 -27t9 -44t5.5 -63t2 -92q0 -42 32 -60v-27h-161
q-14 26 -18.5 50t-4.5 75zM517 511q0 56 -26 74.5t-80 18.5h-181v-190h181q53 0 79.5 19t26.5 78z" />
    <glyph glyph-name="uni0211" unicode="&#x211;" horiz-adv-x="389" 
d="M149 756h126l70 -147h-70zM-39 756h126l70 -147h-70zM63 540h140v-106q22 55 62 85t88 30q9 0 17 -1v-142q-25 4 -44 4q-123 0 -123 -123v-287h-140v540z" />
    <glyph glyph-name="uni0212" unicode="&#x212;" horiz-adv-x="722" 
d="M226 791v11q0 56 38 94t94 38t94 -38t38 -95v-10h-56q-9 66 -77 66q-64 0 -75 -66h-56zM493 125q0 30 1 47t1 30q0 46 -22 66.5t-71 20.5h-172v-289h-150v729h391q56 0 96.5 -19t61 -50t29.5 -62.5t9 -65.5q0 -132 -123 -180q27 -11 40 -17.5t26.5 -21.5t18 -27t9 -44
t5.5 -63t2 -92q0 -42 32 -60v-27h-161q-14 26 -18.5 50t-4.5 75zM517 511q0 56 -26 74.5t-80 18.5h-181v-190h181q53 0 79.5 19t26.5 78z" />
    <glyph glyph-name="uni0213" unicode="&#x213;" horiz-adv-x="389" 
d="M80 609v11q0 56 38 94t94 38t94 -38t38 -95v-10h-56q-9 66 -77 66q-64 0 -75 -66h-56zM63 540h140v-106q22 55 62 85t88 30q9 0 17 -1v-142q-25 4 -44 4q-123 0 -123 -123v-287h-140v540z" />
    <glyph glyph-name="uni0214" unicode="&#x214;" horiz-adv-x="722" 
d="M298 948h126l70 -147h-70zM110 948h126l70 -147h-70zM365 -23q-40 0 -77.5 7t-77 25t-68.5 46t-47.5 74.5t-18.5 105.5v494h150v-494q0 -130 139 -130t139 130v494h150v-494q0 -59 -18.5 -105.5t-47.5 -74.5t-68.5 -46t-77 -25t-77.5 -7z" />
    <glyph glyph-name="uni0215" unicode="&#x215;" horiz-adv-x="611" 
d="M233 756h126l70 -147h-70zM45 756h126l70 -147h-70zM541 0h-140v64q-58 -87 -162 -87q-86 0 -133.5 49t-47.5 138v376h140v-347q0 -97 90 -97q51 0 82 29t31 77v338h140v-540z" />
    <glyph glyph-name="uni0216" unicode="&#x216;" horiz-adv-x="722" 
d="M239 791v11q0 56 38 94t94 38t94 -38t38 -95v-10h-56q-9 66 -77 66q-64 0 -75 -66h-56zM365 -23q-40 0 -77.5 7t-77 25t-68.5 46t-47.5 74.5t-18.5 105.5v494h150v-494q0 -130 139 -130t139 130v494h150v-494q0 -59 -18.5 -105.5t-47.5 -74.5t-68.5 -46t-77 -25t-77.5 -7
z" />
    <glyph glyph-name="uni0217" unicode="&#x217;" horiz-adv-x="611" 
d="M167 609v11q0 56 38 94t94 38t94 -38t38 -95v-10h-56q-9 66 -77 66q-64 0 -75 -66h-56zM541 0h-140v64q-58 -87 -162 -87q-86 0 -133.5 49t-47.5 138v376h140v-347q0 -97 90 -97q51 0 82 29t31 77v338h140v-540z" />
    <glyph glyph-name="Scommaaccent" unicode="&#x218;" horiz-adv-x="667" 
d="M258 -68h122v-108q0 -50 -35 -86.5t-87 -37.5v46q36 7 51.5 29.5t15.5 49.5h-67v107zM607 507h-140q-8 114 -153 114q-58 0 -92 -24.5t-34 -65.5q0 -40 29 -59.5t109 -35.5l114 -22q101 -20 147 -67.5t46 -133.5q0 -111 -79 -173.5t-220 -62.5q-140 0 -217.5 62
t-84.5 179h146q4 -59 46 -90t118 -31q68 0 107.5 26t39.5 72q0 44 -31 68t-106 38l-102 20q-111 21 -158 66t-47 130q0 107 72.5 165.5t203.5 58.5q38 0 73.5 -5t75.5 -20.5t69 -40t48.5 -68t19.5 -100.5z" />
    <glyph glyph-name="scommaaccent" unicode="&#x219;" horiz-adv-x="556" 
d="M207 -68h122v-108q0 -50 -35 -86.5t-87 -37.5v46q36 7 51.5 29.5t15.5 49.5h-67v107zM166 157q7 -34 28.5 -52t81.5 -18q49 0 76.5 14t27.5 39q0 16 -10.5 26t-36.5 18l-167 52q-1 0 -12 3.5t-15.5 5.5t-16.5 6.5t-18.5 9.5t-16.5 12.5t-15.5 16.5t-11.5 20.5t-9 26.5
t-3 32q0 83 59.5 131.5t162.5 48.5q109 0 171 -48.5t64 -134.5h-135q-1 73 -101 73q-37 0 -59 -13.5t-22 -36.5q0 -16 10 -24.5t39 -17.5l177 -51q106 -31 106 -136q0 -31 -11 -60.5t-35.5 -58.5t-73.5 -46.5t-116 -17.5q-249 0 -255 180h137z" />
    <glyph glyph-name="uni021A" unicode="&#x21a;" horiz-adv-x="611" 
d="M244 -68h122v-108q0 -50 -35 -86.5t-87 -37.5v46q36 7 51.5 29.5t15.5 49.5h-67v107zM385 604v-604h-150v604h-221v125h584v-125h-213z" />
    <glyph glyph-name="uni021B" unicode="&#x21b;" horiz-adv-x="333" 
d="M117 -68h122v-108q0 -50 -35 -86.5t-87 -37.5v46q36 7 51.5 29.5t15.5 49.5h-67v107zM301 529v-93h-78v-294q0 -36 9 -47.5t37 -11.5q11 0 32 3v-98q-34 -11 -81 -11q-137 0 -137 127v332h-69v93h69v145h140v-145h78z" />
    <glyph glyph-name="uni021c" unicode="&#x21c;" horiz-adv-x="569" 
d="M165 486l-1 -24h-138l1 25q2 126 66.5 190t180.5 64q113 0 177 -59.5t64 -160.5q0 -82 -59 -141q80 -59 80 -175q0 -31 -9 -60t-23 -52.5t-39 -46t-47 -39.5t-58.5 -35t-63 -30t-69.5 -27.5t-69 -24t-70 -22.5l-26 -8l-37 146q19 -2 35 -2l12 4q324 106 324 196
q0 31 -8 49.5t-18 25.5t-30 16q-60 -31 -149 -58l-24 -7l-33 121l20 8q5 2 13 5q37 15 55 23t47.5 22t44 24t31 24t23.5 29t7 32q0 47 -26.5 71.5t-73.5 24.5q-57 0 -82.5 -29.5t-27.5 -98.5z" />
    <glyph glyph-name="uni021d" unicode="&#x21d;" horiz-adv-x="486" 
d="M166 344v-25h-136v25q0 91 56.5 149t145.5 58q86 0 141.5 -51t55.5 -130q0 -64 -38 -107q53 -44 53 -131q0 -24 -7 -45.5t-17 -39t-29 -34.5t-35.5 -29.5t-44.5 -26t-46.5 -22t-52 -20.5t-51.5 -18t-53 -17q-9 -2 -13 -4l-26 -8l-23 100l3 40l15 -10q11 2 47 13.5
t81.5 29t80 43t34.5 48.5q0 21 -4.5 31t-19.5 21q-42 -22 -111 -42l-25 -7l-28 115l20 8q3 1 9 4q32 13 47.5 19.5t37.5 18t32 20.5t18 21t8 26q0 56 -58 56q-29 0 -48 -21t-19 -58z" />
    <glyph glyph-name="uni021E" unicode="&#x21e;" horiz-adv-x="722" 
d="M413 801h-107l-103 150h78l82 -97l82 97h76zM507 331h-289v-331h-150v729h150v-273h288v273h151v-729h-150v331z" />
    <glyph glyph-name="uni021F" unicode="&#x21f;" horiz-adv-x="611" 
d="M379 732h-107l-103 150h78l82 -97l82 97h76zM401 330q0 100 -86 100q-47 0 -77.5 -30t-30.5 -76v-324h-140v729h140v-267q58 87 158 87q32 0 60.5 -8.5t56 -28t43.5 -58.5t16 -92v-362h-140v330z" />
    <glyph glyph-name="uni0224" unicode="&#x224;" horiz-adv-x="645" 
d="M623 729v-118l-409 -490h411v-202q0 -23 -7 -44t-24 -42.5t-52.5 -34.5t-85.5 -13q-15 0 -33 3l-20 5v118l26 -2q17 -1 19 -1q27 0 35 7t8 37v49h-458v116l411 492h-383v120h562z" />
    <glyph glyph-name="uni0225" unicode="&#x225;" horiz-adv-x="500" 
d="M346 0h-325v109l281 320h-260v112h426v-108l-279 -321h291v-194q0 -23 -7 -44t-24 -42.5t-52.5 -34.5t-85.5 -13q-15 0 -33 3l-20 5v118l26 -2q17 -1 19 -1q26 0 34.5 7t8.5 37v49z" />
    <glyph glyph-name="uni0226" unicode="&#x226;" horiz-adv-x="722" 
d="M501 147h-273l-49 -147h-153l259 729h166l252 -729h-154zM460 272l-95 285l-95 -285h190zM423 923v-122h-110v122h110z" />
    <glyph glyph-name="uni0227" unicode="&#x227;" horiz-adv-x="556" 
d="M326 731v-122h-110v122h110zM192 -23q-74 0 -119 44.5t-45 117.5q0 143 159 170l56 10q2 0 20 2.5t23 4t19.5 4.5t20.5 7t14.5 10.5t11.5 15t3 19.5q0 54 -81 54q-52 0 -73 -16t-26 -58h-135q13 187 231 187q221 0 221 -166v-300q0 -37 32 -66v-17h-152q-16 20 -16 54
q-74 -77 -164 -77zM355 217v38q-19 -9 -59 -17l-48 -9q-44 -9 -62 -26t-18 -48q0 -30 20.5 -47.5t55.5 -17.5q53 0 82 33t29 94z" />
    <glyph glyph-name="uni0228" unicode="&#x228;" horiz-adv-x="667" 
d="M229 314v-189h395v-125h-254l-26 -56q21 7 42 7q35 0 55.5 -19t20.5 -52q0 -45 -33.5 -69t-95.5 -24q-55 0 -138 28l19 52q69 -30 105 -30q24 0 40.5 12t16.5 29q0 16 -14 25.5t-37 9.5q-24 0 -49 -12l50 99h-247v729h527v-125h-377v-165h349v-125h-349z" />
    <glyph glyph-name="uni0229" unicode="&#x229;" horiz-adv-x="556" 
d="M379 319q-5 59 -32.5 91t-76.5 32q-92 0 -106 -123h215zM272 549q35 0 68 -8t67.5 -29t60 -53.5t41.5 -86t16 -122.5q0 -12 -1 -24h-362q1 -31 5.5 -53.5t16 -44t34 -33t56.5 -11.5q80 0 107 68h138q-22 -75 -84.5 -122t-146.5 -52l-26 -57q21 7 42 7q35 0 55.5 -19
t20.5 -52q0 -45 -33.5 -69t-95.5 -24q-55 0 -138 28l19 52q69 -30 105 -30q24 0 40.5 12t16.5 29q0 16 -14 25.5t-37 9.5q-24 0 -49 -12l51 100q-104 8 -163.5 81.5t-59.5 196.5q0 136 67 214.5t183 78.5z" />
    <glyph glyph-name="uni022A" unicode="&#x22a;" horiz-adv-x="778" 
d="M544 894v-122h-110v122h110zM348 894v-122h-110v122h110zM40 359q0 168 96.5 275t253.5 107q158 0 255 -106.5t97 -280.5q0 -162 -95.5 -269.5t-255.5 -107.5q-159 0 -255 107t-96 275zM391 613q-91 0 -146 -69.5t-55 -184.5t55 -184.5t146 -69.5q90 0 145.5 69t55.5 181
q0 118 -54.5 188t-146.5 70zM541 1002v-79h-299v79h299z" />
    <glyph glyph-name="uni022B" unicode="&#x22b;" horiz-adv-x="611" 
d="M451 882v-79h-299v79h299zM455 743v-122h-110v122h110zM259 743v-122h-110v122h110zM301 549q127 0 197.5 -76.5t70.5 -213.5q0 -130 -72 -206t-195 -76q-125 0 -196 76.5t-71 209.5t71 209.5t195 76.5zM302 436q-57 0 -92 -48t-35 -125t35 -125t92 -48q56 0 91.5 47.5
t35.5 123.5q0 80 -34.5 127.5t-92.5 47.5z" />
    <glyph glyph-name="uni022C" unicode="&#x22c;" horiz-adv-x="778" 
d="M512 902h63q-6 -127 -95 -127q-24 0 -55 12l-71 26q-18 6 -30 6q-18 0 -27 -10.5t-13 -34.5h-63q3 58 28 91t66 33q20 0 56 -13l71 -25q14 -6 34 -6q32 0 36 48zM40 359q0 168 96.5 275t253.5 107q158 0 255 -106.5t97 -280.5q0 -162 -95.5 -269.5t-255.5 -107.5
q-159 0 -255 107t-96 275zM391 613q-91 0 -146 -69.5t-55 -184.5t55 -184.5t146 -69.5q90 0 145.5 69t55.5 181q0 118 -54.5 188t-146.5 70zM553 1000v-79h-299v79h299z" />
    <glyph glyph-name="uni022D" unicode="&#x22d;" horiz-adv-x="611" 
d="M460 888v-79h-299v79h299zM419 749h63q-6 -127 -95 -127q-24 0 -55 12l-71 26q-18 6 -30 6q-18 0 -27 -10.5t-13 -34.5h-63q3 58 28 91t66 33q20 0 56 -13l71 -25q14 -6 34 -6q32 0 36 48zM301 549q127 0 197.5 -76.5t70.5 -213.5q0 -130 -72 -206t-195 -76
q-125 0 -196 76.5t-71 209.5t71 209.5t195 76.5zM302 436q-57 0 -92 -48t-35 -125t35 -125t92 -48q56 0 91.5 47.5t35.5 123.5q0 80 -34.5 127.5t-92.5 47.5z" />
    <glyph glyph-name="uni022E" unicode="&#x22e;" horiz-adv-x="778" 
d="M40 359q0 168 96.5 275t253.5 107q158 0 255 -106.5t97 -280.5q0 -162 -95.5 -269.5t-255.5 -107.5q-159 0 -255 107t-96 275zM391 613q-91 0 -146 -69.5t-55 -184.5t55 -184.5t146 -69.5q90 0 145.5 69t55.5 181q0 118 -54.5 188t-146.5 70zM445 923v-122h-110v122h110z
" />
    <glyph glyph-name="uni022F" unicode="&#x22f;" horiz-adv-x="611" 
d="M356 731v-122h-110v122h110zM301 549q127 0 197.5 -76.5t70.5 -213.5q0 -130 -72 -206t-195 -76q-125 0 -196 76.5t-71 209.5t71 209.5t195 76.5zM302 436q-57 0 -92 -48t-35 -125t35 -125t92 -48q56 0 91.5 47.5t35.5 123.5q0 80 -34.5 127.5t-92.5 47.5z" />
    <glyph glyph-name="uni0230" unicode="&#x230;" horiz-adv-x="778" 
d="M40 359q0 168 96.5 275t253.5 107q158 0 255 -106.5t97 -280.5q0 -162 -95.5 -269.5t-255.5 -107.5q-159 0 -255 107t-96 275zM391 613q-91 0 -146 -69.5t-55 -184.5t55 -184.5t146 -69.5q90 0 145.5 69t55.5 181q0 118 -54.5 188t-146.5 70zM445 897v-122h-110v122h110z
M539 1000v-79h-299v79h299z" />
    <glyph glyph-name="uni0231" unicode="&#x231;" horiz-adv-x="611" 
d="M451 870v-79h-299v79h299zM356 731v-122h-110v122h110zM301 549q127 0 197.5 -76.5t70.5 -213.5q0 -130 -72 -206t-195 -76q-125 0 -196 76.5t-71 209.5t71 209.5t195 76.5zM302 436q-57 0 -92 -48t-35 -125t35 -125t92 -48q56 0 91.5 47.5t35.5 123.5q0 80 -34.5 127.5
t-92.5 47.5z" />
    <glyph glyph-name="uni0232" unicode="&#x232;" horiz-adv-x="667" 
d="M488 880v-79h-299v79h299zM419 270v-270h-150v270l-242 459h167l149 -322l139 322h168z" />
    <glyph glyph-name="uni0233" unicode="&#x233;" horiz-adv-x="556" 
d="M423 688v-79h-299v79h299zM210 -26v4l-201 562h154l119 -393l112 393h144l-222 -639q0 -1 -4 -13.5t-6.5 -17t-8 -17t-11.5 -18t-16 -16t-22.5 -16t-28.5 -11.5t-37 -8.5t-46 -2.5q-22 0 -50 4v105q22 -6 37 -6q37 0 62 26t25 64z" />
    <glyph glyph-name="dotlessj" unicode="&#x237;" horiz-adv-x="278" 
d="M210 540v-634q0 -66 -29 -95t-94 -29q-36 0 -83 5v112q13 -4 25 -4q23 0 32 9.5t9 32.5v603h140z" />
    <glyph glyph-name="uni0250" unicode="&#x250;" horiz-adv-x="556" 
d="M360 549q74 0 119 -44.5t45 -117.5q0 -143 -159 -170l-56 -10q-2 0 -20 -2.5t-23 -4t-19.5 -4.5t-20.5 -7t-14.5 -10.5t-11.5 -15t-3 -19.5q0 -54 81 -54q52 0 73 16t26 58h135q-13 -187 -231 -187q-221 0 -221 166v300q0 37 -32 66v17h152q16 -20 16 -54q74 77 164 77z
M197 309v-38q19 9 59 17l48 9q44 9 62 26t18 48q0 30 -20.5 47.5t-55.5 17.5q-53 0 -82 -33t-29 -94z" />
    <glyph glyph-name="uni0251" unicode="&#x251;" horiz-adv-x="677" 
d="M256 -23q-100 0 -163.5 82t-63.5 203q0 122 65 204.5t162 82.5q98 0 149 -79v70h138v-398q0 -26 22 -26q15 0 63 25l48 -127q-78 -31 -122 -31q-107 0 -138 90q-52 -96 -160 -96zM287 432q-52 0 -85 -47.5t-33 -122.5q0 -74 33 -121t85 -47t85 46t33 120
q0 77 -32.5 124.5t-85.5 47.5z" />
    <glyph glyph-name="uni0252" unicode="&#x252;" horiz-adv-x="678" 
d="M421 563q100 0 163.5 -82t63.5 -203q0 -122 -65 -204.5t-162 -82.5q-98 0 -149 79v-70h-138v398q0 26 -22 26q-15 0 -63 -25l-48 127q78 31 122 31q107 0 138 -90q52 96 160 96zM390 108q52 0 85 47.5t33 122.5q0 74 -33 121t-85 47t-85 -46t-33 -120q0 -77 32.5 -124.5
t85.5 -47.5z" />
    <glyph glyph-name="uni0253" unicode="&#x253;" horiz-adv-x="611" 
d="M317 432q-52 0 -85 -46.5t-33 -120.5q0 -77 32.5 -124t85.5 -47q52 0 85 47t33 121q0 75 -33 122.5t-85 47.5zM348 549q97 0 162 -80.5t65 -205.5q0 -122 -65 -204t-162 -82q-99 0 -149 78v-55h-140v605q0 66 29 95t94 29q36 0 83 -5v-112q-13 4 -25 4q-23 0 -32 -9.5
t-9 -32.5v-104q50 79 149 79z" />
    <glyph glyph-name="uni0254" unicode="&#x254;" horiz-adv-x="556" 
d="M268 90q114 0 114 177q0 79 -30.5 124t-83.5 45q-41 0 -64 -22.5t-36 -74.5h-134q10 97 73.5 153.5t161.5 56.5q120 0 186.5 -74t66.5 -208q0 -138 -67 -214t-188 -76q-101 0 -163.5 56t-69.5 155h134q12 -53 34.5 -75.5t65.5 -22.5z" />
    <glyph glyph-name="uni0255" unicode="&#x255;" horiz-adv-x="600" 
d="M310 436q-114 0 -114 -177q0 -46 11 -81q80 53 132.5 71t104.5 18q38 0 68 -26.5t30 -53.5q0 -53 -17.5 -93.5t-42 -61.5t-56.5 -34.5t-54.5 -17t-42.5 -3.5q-49 0 -84.5 6t-71.5 27q-13 -9 -42 -29t-44 -32l-76 90l80 58q-35 67 -35 162q0 138 67 214t188 76
q101 0 163.5 -56t69.5 -155h-134q-12 53 -34.5 75.5t-65.5 22.5zM414 126q-7 23 -26 23q-12 0 -50 -21t-55 -34q16 -4 26 -4q67 0 105 36z" />
    <glyph glyph-name="uni0256" unicode="&#x256;" horiz-adv-x="625" 
d="M287 432q-52 0 -85 -47.5t-33 -122.5q0 -74 33 -121t85 -47t85 46t33 120q0 77 -32.5 124.5t-85.5 47.5zM256 -23q-100 0 -163.5 82t-63.5 203q0 122 65 204.5t162 82.5q98 0 149 -79v259h140v-792q0 -23 9 -32.5t32 -9.5q12 0 25 4v-112q-47 -5 -83 -5q-65 0 -94 29
t-29 95v149q-52 -78 -149 -78z" />
    <glyph glyph-name="uni0257" unicode="&#x257;" horiz-adv-x="625" 
d="M287 432q-52 0 -85 -47.5t-33 -122.5q0 -74 33 -121t85 -47t85 46t33 120q0 77 -32.5 124.5t-85.5 47.5zM256 -23q-100 0 -163.5 82t-63.5 203q0 122 65 204.5t162 82.5q98 0 149 -79v135q0 66 29 95t94 29q36 0 83 -5v-112q-13 4 -25 4q-23 0 -32 -9.5t-9 -32.5v-574
h-140v55q-52 -78 -149 -78z" />
    <glyph glyph-name="uni0258" unicode="&#x258;" horiz-adv-x="556" 
d="M275 549q116 0 183 -78.5t67 -214.5q0 -130 -66 -204.5t-181 -74.5q-91 0 -159 47.5t-91 127.5h138q27 -68 107 -68q34 0 56.5 11.5t34 33t16 44t5.5 53.5h-362q-1 12 -1 24q0 69 16 122.5t41.5 86t60 53.5t67.5 29t68 8zM168 319h215q-13 123 -106 123q-49 0 -76.5 -32
t-32.5 -91z" />
    <glyph glyph-name="uni0259" unicode="&#x259;" horiz-adv-x="556" 
d="M275 -23q-35 0 -68 8t-67.5 29t-60 53.5t-41.5 86t-16 122.5q0 12 1 24h362q-1 31 -5.5 53.5t-16 44t-34 33t-56.5 11.5q-80 0 -107 -68h-138q23 80 91 127.5t159 47.5q115 0 181 -74.5t66 -204.5q0 -136 -67 -214.5t-183 -78.5zM168 207q5 -59 32.5 -91t76.5 -32
q92 0 106 123h-215z" />
    <glyph glyph-name="uni025A" unicode="&#x25a;" horiz-adv-x="834" 
d="M168 207q5 -59 32.5 -91t76.5 -32q93 0 106 123h-215zM275 -23q-35 0 -68 8t-67.5 29t-60 53.5t-41.5 86t-16 122.5q0 12 1 24h362q-1 31 -5.5 53.5t-16 44t-34 33t-56.5 11.5q-80 0 -107 -68h-138q23 80 91 127.5t159 47.5t152 -48l72 69h106q20 -47 39.5 -102.5t31 -87
t20.5 -43.5q4 1 7.5 2.5t7 4.5l7 6t8.5 9.5t9 12.5t11.5 17t13.5 20t17 25t20 29v-195q-33 -30 -56.5 -42t-55.5 -12q-13 0 -24 2.5t-29 15.5t-34 34.5t-36 63t-38 98.5l-27 -20q25 -60 25 -138q0 -136 -67 -214.5t-183 -78.5z" />
    <glyph glyph-name="uni025B" unicode="&#x25b;" horiz-adv-x="571" 
d="M531 174q-7 -42 -18 -70t-37 -56.5t-75.5 -43t-121.5 -14.5q-239 0 -239 161q0 44 16 70.5t49 46.5q-65 40 -65 118q0 86 62 122.5t177 38.5h9q69 0 117 -15t73 -44t36 -57.5t17 -68.5h-127q-5 33 -32 52.5t-96 19.5q-104 0 -104 -54q0 -35 25.5 -48t77.5 -13h71v-102
h-71q-53 0 -78 -13t-25 -48q0 -53 104 -53q69 0 96 19.5t32 51.5h127z" />
    <glyph glyph-name="uni025C" unicode="&#x25c;" horiz-adv-x="557" 
d="M169 157q7 -34 28.5 -52t81.5 -18q55 0 79.5 13.5t24.5 42.5q0 32 -17.5 48.5t-64.5 16.5h-92v110h94q65 0 65 71q0 23 -22 36.5t-59 13.5q-100 0 -101 -73h-135q2 86 64 134.5t171 48.5q103 0 162.5 -48.5t59.5 -131.5q0 -64 -44 -98q59 -37 59 -111q0 -31 -11 -60.5
t-35.5 -58.5t-73.5 -46.5t-116 -17.5q-249 0 -255 180h137z" />
    <glyph glyph-name="uni025D" unicode="&#x25d;" horiz-adv-x="820" 
d="M166 157q7 -34 28.5 -52t81.5 -18q104 0 104 56q0 12 -2 20.5t-9 20t-25 18t-46 6.5h-92v110h94q28 0 43.5 10.5t18.5 21.5t3 26q0 9 -2.5 18t-10 20t-25 18t-43.5 7q-100 0 -101 -73h-135q2 86 64 134.5t171 48.5q90 0 148 -38l70 59h105q19 -45 39 -102.5t32 -90
t22 -43.5q12 2 22.5 14.5t42.5 61.5q21 32 35 52v-197q-33 -31 -57 -43.5t-55 -12.5q-27 0 -50.5 15t-40 36t-32 55.5t-24.5 61.5t-20 65l-22 -20q7 -25 7 -53q0 -64 -44 -98q59 -37 59 -111q0 -31 -11 -60.5t-35.5 -58.5t-73.5 -46.5t-116 -17.5q-249 0 -255 180h137z" />
    <glyph glyph-name="uni025E" unicode="&#x25e;" horiz-adv-x="570" 
d="M295 103q104 0 104 53q0 35 -25 48t-78 13h-71v102h71q52 0 77.5 13t25.5 48q0 54 -104 54q-38 0 -62 -5t-39 -14.5t-22 -31.5t-9 -46t-2 -68q0 -54 3 -80.5t16.5 -49t40 -29.5t74.5 -7zM288 547q243 0 243 -161q0 -78 -65 -118q33 -20 49 -46.5t16 -70.5
q0 -161 -239 -161q-80 0 -132 18t-79 57t-37 86t-10 119q0 68 9.5 114.5t36 85.5t78 58t130.5 19z" />
    <glyph glyph-name="uni025F" unicode="&#x25f;" horiz-adv-x="316" 
d="M237 207v-301q0 -66 -29 -95t-94 -29q-36 0 -83 5v112q13 -4 25 -4q23 0 32 9.5t9 32.5v270h-67v135h67v198h140v-198h65v-135h-65z" />
    <glyph glyph-name="uni0260" unicode="&#x260;" horiz-adv-x="619" 
d="M288 432q-51 0 -82.5 -48t-31.5 -125q0 -73 31 -119t81 -46q54 0 88.5 41t34.5 124q0 87 -34.5 130t-86.5 43zM541 -18q0 -95 -67.5 -147.5t-189.5 -52.5q-110 0 -174.5 42t-64.5 111h145q17 -63 99 -63q53 0 86 30.5t33 79.5v73q-39 -44 -72.5 -61t-80.5 -17
q-100 0 -160.5 77t-60.5 203q0 125 64 208.5t160 83.5q90 0 150 -92v107q0 66 29 95t94 29q27 0 74 -5v-112q-13 4 -23 4q-41 0 -41 -35v-558z" />
    <glyph glyph-name="uni0261" unicode="&#x261;" horiz-adv-x="611" 
d="M288 432q-51 0 -82.5 -48t-31.5 -125q0 -73 31 -119t81 -46q55 0 89.5 46t34.5 119q0 75 -34.5 124t-87.5 49zM541 410v-428q0 -95 -67.5 -147.5t-189.5 -52.5q-108 0 -173.5 41.5t-65.5 111.5h145q17 -63 99 -63q53 0 86 30.5t33 79.5v73q-39 -44 -72.5 -61t-80.5 -17
q-100 0 -160.5 77t-60.5 203q0 125 64 208.5t160 83.5q90 0 150 -92q30 91 99 91q35 0 90 -20l-23 -114q-14 5 -22 5q-11 0 -11 -9z" />
    <glyph glyph-name="uni0262" unicode="&#x262;" horiz-adv-x="566" 
d="M288 437q-114 0 -114 -177q0 -79 30.5 -124t83.5 -45q66 0 91 67h-88v105h232v-263h-90l-5 29q-63 -51 -141 -51q-120 0 -186.5 74t-66.5 208q0 138 67 214t188 76q101 0 163.5 -56t69.5 -155h-134q-12 53 -34.5 75.5t-65.5 22.5z" />
    <glyph glyph-name="gammalatin" unicode="&#x263;" horiz-adv-x="556" 
d="M279 -88q7 0 13.5 5.5t6.5 15.5q0 23 -21 55q-20 -33 -20 -55q0 -10 7.5 -15.5t13.5 -5.5zM362 140q43 -79 60 -121t17 -74q0 -61 -45.5 -117t-107.5 -56q-71 0 -120 46.5t-49 119.5q0 28 16 69t61 132l-184 401h154l114 -244l114 244h154z" />
    <glyph glyph-name="uni0264" unicode="&#x264;" horiz-adv-x="656" 
d="M383 195q0 13 -15.5 49t-41.5 78q-50 -79 -50 -130t17.5 -77t38.5 -26q25 0 38 30.5t13 75.5zM199 550q33 0 62.5 -16t63.5 -45q38 30 72.5 45.5t55.5 15.5q29 0 61 -17t62 -48t49.5 -84.5t19.5 -117.5h-127q0 36 -13 70t-27 51.5t-20 17.5q-3 0 -6.5 -2t-8.5 -6
t-8.5 -7.5l-9 -9l-7.5 -7.5q45 -56 77.5 -119t32.5 -100q0 -54 -18 -94t-47.5 -61t-61 -30.5t-65.5 -9.5q-28 0 -55 5.5t-55 20t-48.5 36.5t-34 57.5t-13.5 79.5q0 37 28.5 101.5t75.5 125.5q-1 2 -8.5 10t-14 14t-9.5 6q-1 0 -6.5 -4t-14.5 -13.5t-17.5 -23.5t-15.5 -37
t-9 -50h-127q3 58 20.5 104t39.5 72t48.5 42.5t45.5 22t33 5.5z" />
    <glyph glyph-name="uni0265" unicode="&#x265;" horiz-adv-x="619" 
d="M541 -218h-140v282q-58 -87 -162 -87q-86 0 -133.5 49t-47.5 138v376h140v-347q0 -97 90 -97q51 0 82 29t31 77v338h140v-758z" />
    <glyph glyph-name="hhook" unicode="&#x266;" horiz-adv-x="611" 
d="M401 330q0 100 -86 100q-47 0 -77.5 -30t-30.5 -76v-324h-140v605q0 66 29 95t94 29q36 0 83 -5v-112q-13 4 -25 4q-23 0 -32 -9.5t-9 -32.5v-112q58 87 158 87q32 0 60.5 -8.5t56 -28t43.5 -58.5t16 -92v-362h-140v330z" />
    <glyph glyph-name="uni0267" unicode="&#x267;" horiz-adv-x="611" 
d="M401 330q0 100 -86 100q-47 0 -77.5 -30t-30.5 -76v-324h-140v605q0 66 29 95t94 29q36 0 83 -5v-112q-13 4 -25 4q-23 0 -32 -9.5t-9 -32.5v-112q58 87 158 87q32 0 60.5 -8.5t56 -28t43.5 -58.5t16 -92v-456q0 -66 -29 -95t-94 -29q-36 0 -83 5v112q13 -4 25 -4
q23 0 32 9.5t9 32.5v393z" />
    <glyph glyph-name="uni0268" unicode="&#x268;" horiz-adv-x="300" 
d="M218 729v-125h-140v125h140zM286 342v-135h-68v-207h-140v207h-64v135h64v198h140v-198h68z" />
    <glyph glyph-name="uni0269" unicode="&#x269;" horiz-adv-x="344" 
d="M67 540h140v-409q0 -23 9 -32.5t32 -9.5q12 0 25 4v-112q-37 -4 -83 -4q-65 0 -94 28.5t-29 94.5v440z" />
    <glyph glyph-name="uni026A" unicode="&#x26a;" horiz-adv-x="300" 
d="M14 540h272v-135h-68v-270h68v-135h-272v135h64v270h-64v135z" />
    <glyph glyph-name="uni026B" unicode="&#x26b;" horiz-adv-x="473" 
d="M335 346q33 0 42.5 15.5t10.5 50.5h78q-9 -146 -127 -146q-17 0 -32 3v-269h-140v353q-14 5 -29 5q-32 0 -41.5 -15t-11.5 -50h-78q7 145 127 145q18 0 33 -3v294h140v-378q13 -5 28 -5z" />
    <glyph glyph-name="uni026C" unicode="&#x26c;" horiz-adv-x="527" 
d="M191 435q-42 0 -42 -27t42 -27h44v54h-44zM235 558v171h140v-348h132v-127h-132v-254h-140v254h-25q-28 0 -50.5 2t-50 10.5t-46 22.5t-31 40.5t-12.5 62.5q0 24 9 50t29 52.5t59.5 44t91.5 19.5h26z" />
    <glyph glyph-name="uni026D" unicode="&#x26d;" horiz-adv-x="298" 
d="M67 -94v823h140v-792q0 -23 9 -32.5t32 -9.5q12 0 25 4v-112q-47 -5 -83 -5q-65 0 -94 29t-29 95z" />
    <glyph glyph-name="uni026E" unicode="&#x26e;" horiz-adv-x="778" 
d="M560 272q62 -18 104 -64t42 -124q0 -104 -67.5 -165.5t-180.5 -61.5q-109 0 -173.5 62.5t-65.5 168.5h136q6 -111 106 -111q46 0 75.5 30t29.5 77q0 39 -21 67.5t-56 38.5q-28 7 -82 7v94l115 136h-315v-427h-140v729h140v-189h486v-113z" />
    <glyph glyph-name="uni026F" unicode="&#x26f;" horiz-adv-x="893" 
d="M824 0h-139v67q-35 -41 -68.5 -58.5t-79.5 -17.5q-106 0 -147 80q-60 -80 -158 -80q-81 0 -126.5 44t-45.5 123v382h140v-360q0 -32 20.5 -51t55.5 -19q45 0 70.5 28t25.5 78v324h140v-360q0 -32 20.5 -51t55.5 -19q45 0 70.5 28t25.5 78v324h140v-540z" />
    <glyph glyph-name="uni0270" unicode="&#x270;" horiz-adv-x="889" 
d="M825 -218h-140v285q-35 -41 -68.5 -58.5t-79.5 -17.5q-106 0 -147 80q-60 -80 -158 -80q-81 0 -126.5 44t-45.5 123v382h140v-360q0 -32 20.5 -51t55.5 -19q45 0 70.5 28t25.5 78v324h140v-360q0 -32 20.5 -51t55.5 -19q45 0 70.5 28t25.5 78v324h141v-758z" />
    <glyph glyph-name="uni0271" unicode="&#x271;" horiz-adv-x="889" 
d="M60 540h139v-67q35 41 68.5 58.5t79.5 17.5q106 0 147 -80q60 80 158 80q81 0 126.5 -44t45.5 -123v-476q0 -66 -29 -95t-94 -29q-36 0 -83 5v112q13 -4 25 -4q23 0 32 9.5t9 32.5v423q0 32 -20.5 51t-55.5 19q-45 0 -70.5 -28t-25.5 -78v-324h-140v360q0 32 -20.5 51
t-55.5 19q-45 0 -70.5 -28t-25.5 -78v-324h-140v540z" />
    <glyph glyph-name="uni0272" unicode="&#x272;" horiz-adv-x="628" 
d="M80 540h140v-78q54 87 162 87q86 0 133.5 -49t47.5 -138v-362h-140v333q0 97 -90 97q-51 0 -82 -29t-31 -77v-418q0 -66 -29 -95t-94 -29q-36 0 -83 5v112q13 -4 25 -4q23 0 32 9.5t9 32.5v603z" />
    <glyph glyph-name="uni0273" unicode="&#x273;" horiz-adv-x="626" 
d="M63 540h140v-78q58 87 162 87q86 0 133.5 -49t47.5 -138v-425q0 -23 9 -32.5t32 -9.5q12 0 25 4v-112q-47 -5 -83 -5q-65 0 -94 29t-29 95v427q0 97 -90 97q-51 0 -82 -29t-31 -77v-324h-140v540z" />
    <glyph glyph-name="uni0274" unicode="&#x274;" horiz-adv-x="615" 
d="M555 540v-540h-160l-195 338v-338h-140v540h160l195 -338v338h140z" />
    <glyph glyph-name="uni0275" unicode="&#x275;" horiz-adv-x="606" 
d="M302 549q127 0 197.5 -76.5t70.5 -213.5q0 -130 -72 -206t-195 -76q-125 0 -196 76.5t-71 209.5t71 209.5t195 76.5zM427 303q-8 62 -41.5 97.5t-82.5 35.5t-82.5 -36t-41.5 -97h248zM428 224h-249q8 -61 41.5 -97.5t82.5 -36.5q48 0 82 36.5t43 97.5z" />
    <glyph glyph-name="uni0276" unicode="&#x276;" horiz-adv-x="878" 
d="M836 416h-259v-74h225v-136h-225v-80h263v-126h-404q-55 -23 -124 -23q-131 0 -203.5 79t-72.5 212q0 132 72 206.5t203 74.5q63 0 119 -13v5h406v-125zM430 362q-33 67 -118 67q-63 0 -100 -43.5t-37 -117.5q0 -75 37 -119.5t100 -44.5q83 0 118 67v191z" />
    <glyph glyph-name="uni0277" unicode="&#x277;" horiz-adv-x="839" 
d="M668 239q0 99 -61.5 136.5t-187.5 37.5q-120 0 -184.5 -45t-64.5 -129q0 -24 4.5 -44.5t14 -40t28.5 -30.5t46 -11t44.5 7.5t25 19t10 20.5t2.5 18v150h148v-150q0 -24 17.5 -44.5t63.5 -20.5q27 0 46 11t29 30t14.5 40t4.5 45zM35 243q0 44 9.5 83.5t36 80t68 69.5
t111 47.5t159.5 18.5t159.5 -18t111 -47t68 -69.5t36 -80t9.5 -84.5q0 -57 -14 -101.5t-36.5 -72.5t-52.5 -46t-60 -25t-62 -7q-100 0 -159 68q-57 -68 -159 -68q-48 0 -87 12.5t-71 40.5t-49.5 78.5t-17.5 120.5z" />
    <glyph glyph-name="uni0278" unicode="&#x278;" horiz-adv-x="738" 
d="M299 92v342q-49 -8 -78 -54.5t-29 -116.5t29 -116.5t78 -54.5zM439 435v-343q48 9 77.5 55t29.5 114q0 72 -29 119t-78 55zM439 548q117 -7 182 -82.5t65 -206.5q0 -124 -66.5 -199t-180.5 -82v-179h-140v178q-116 6 -181.5 82t-65.5 204t66 204t181 82v180h140v-181z
" />
    <glyph glyph-name="uni0279" unicode="&#x279;" horiz-adv-x="411" 
d="M346 1h-140v106q-22 -55 -62 -85t-88 -30q-9 0 -17 1v142q25 -4 44 -4q123 0 123 123v287h140v-540z" />
    <glyph glyph-name="uni027A" unicode="&#x27a;" horiz-adv-x="406" 
d="M346 0h-140v107q-22 -55 -62 -85t-88 -30q-9 0 -17 1v142q25 -4 44 -4q123 0 123 123v475h140v-729z" />
    <glyph glyph-name="rturnrthook" unicode="&#x27b;" horiz-adv-x="426" 
d="M205 541h140v-603q0 -23 9 -32.5t32 -9.5q12 0 25 4v-112q-47 -5 -83 -5q-65 0 -94 29t-29 95v200q-22 -55 -62 -85t-88 -30q-9 0 -17 1v142q25 -4 44 -4q123 0 123 123v287z" />
    <glyph glyph-name="uni027C" unicode="&#x27c;" horiz-adv-x="396" 
d="M70 540h140v-106q22 55 62 85t88 30q9 0 17 -1v-142q-25 4 -44 4q-123 0 -123 -123v-487h-140v740z" />
    <glyph glyph-name="uni027D" unicode="&#x27d;" horiz-adv-x="396" 
d="M70 540h140v-106q22 55 62 85t88 30q9 0 17 -1v-142q-25 4 -44 4q-123 0 -123 -123v-350q0 -23 9 -32.5t32 -9.5q12 0 25 4v-112q-47 -5 -83 -5q-65 0 -94 29t-29 95v634z" />
    <glyph glyph-name="uni027E" unicode="&#x27e;" horiz-adv-x="455" 
d="M436 362v-29h-140q0 55 -7.5 76t-36.5 21q-30 0 -39.5 -22.5t-9.5 -74.5v-333h-140v362q0 89 47.5 138t133.5 49q192 0 192 -187z" />
    <glyph glyph-name="uni027F" unicode="&#x27f;" horiz-adv-x="475" 
d="M36 362q0 187 192 187q86 0 133.5 -49t47.5 -138v-562h-140v533q0 52 -9.5 74.5t-39.5 22.5q-29 0 -36.5 -21t-7.5 -76h-140v29z" />
    <glyph glyph-name="Rsmallcap" unicode="&#x280;" horiz-adv-x="620" 
d="M540 385q0 -69 -37.5 -110.5t-91.5 -56.5l155 -218h-179l-143 207h-44v-207h-140v540h291q54 0 93 -14.5t58.5 -38.5t28.5 -49.5t9 -52.5zM200 317h122q44 0 61.5 10t17.5 43t-18.5 46.5t-60.5 13.5h-122v-113z" />
    <glyph glyph-name="Rsmallcapinv" unicode="&#x281;" horiz-adv-x="620" 
d="M545 155q0 -27 -9 -52.5t-28.5 -49.5t-58.5 -38.5t-93 -14.5h-291v540h140v-207h44l143 207h179l-155 -218q61 -17 95 -61t34 -103v-3zM205 223v-113h122q42 0 60.5 13.5t18.5 46.5t-17.5 43t-61.5 10h-122z" />
    <glyph glyph-name="shook" unicode="&#x282;" horiz-adv-x="610" 
d="M220 157q7 -34 28.5 -52t81.5 -18q49 0 76.5 14t27.5 39q0 16 -10.5 26t-36.5 18l-167 52q-1 0 -12 3.5t-15.5 5.5t-16.5 6.5t-18.5 9.5t-16.5 12.5t-15.5 16.5t-11.5 20.5t-9 26.5t-3 32q0 83 59.5 131.5t162.5 48.5q109 0 171 -48.5t64 -134.5h-135q-1 73 -101 73
q-37 0 -59 -13.5t-22 -36.5q0 -16 10 -24.5t39 -17.5l177 -51q106 -31 106 -136q0 -31 -11 -60.5t-35.5 -58.5t-73.5 -46.5t-116 -17.5t-118 14v-85q0 -66 -29 -95t-94 -29q-36 0 -83 5v112q13 -4 25 -4q23 0 33.5 9.5t10.5 32.5v220h137z" />
    <glyph glyph-name="esh" unicode="&#x283;" horiz-adv-x="333" 
d="M230 582v-676q0 -66 -29 -95t-94 -29q-36 0 -83 5v112q13 -4 25 -4q23 0 32 9.5t9 32.5v657q0 135 138 135q41 0 80 -3v-105q-18 3 -40 3q-38 0 -38 -42z" />
    <glyph glyph-name="dotlessjstrokehook" unicode="&#x284;" horiz-adv-x="331" 
d="M317 315v-93h-83v-316q0 -66 -29 -95t-94 -29q-36 0 -83 5v112q13 -4 25 -4q23 0 32 9.5t9 32.5v285h-76v93h76v279q0 135 138 135q41 0 80 -3v-105q-18 3 -40 3q-38 0 -38 -42v-267h83z" />
    <glyph glyph-name="eshshortrev" unicode="&#x285;" horiz-adv-x="333" 
d="M102 413q0 42 -38 42q-22 0 -40 -3v105q39 3 80 3q138 0 138 -135v-488q0 -23 9 -32.5t32 -9.5q12 0 25 4v-112q-47 -5 -83 -5q-65 0 -94 29t-29 95v507z" />
    <glyph glyph-name="eshcurl" unicode="&#x286;" horiz-adv-x="553" 
d="M551 12l-41 -113q-11 4 -47.5 16t-46.5 15q0 -34 -3 -54.5t-14 -45t-37.5 -36.5t-68.5 -12q-69 0 -123 12.5t-84 31.5t-50 42.5t-26.5 42.5t-6.5 35q0 23 9.5 47.5t29.5 50t60 41.5t94 16q35 0 80 -9v502q0 135 138 135q41 0 80 -3v-105q-18 3 -40 3q-38 0 -38 -42v-525
q84 -26 135 -45zM191 -22q-17 0 -33 -10t-16 -26q0 -21 36.5 -34t56.5 -13q27 0 33.5 13.5t6.5 58.5q-42 11 -84 11z" />
    <glyph glyph-name="tturn" unicode="&#x287;" horiz-adv-x="328" 
d="M27 -2v93h78v294q0 36 -9 47.5t-37 11.5q-11 0 -32 -3v98q34 11 81 11q137 0 137 -127v-332h69v-93h-69v-145h-140v145h-78z" />
    <glyph glyph-name="trthook" unicode="&#x288;" horiz-adv-x="333" 
d="M301 529v-93h-78v-489q0 -36 9 -47.5t37 -11.5q11 0 32 3v-98q-34 -11 -81 -11q-137 0 -137 127v527h-69v93h69v145h140v-145h78z" />
    <glyph glyph-name="ubar" unicode="&#x289;" horiz-adv-x="643" 
d="M561 0h-140v64q-58 -87 -162 -87q-86 0 -133.5 49t-47.5 138v43h-63v135h63v198h140v-198h203v198h140v-198h67v-135h-67v-207zM218 207v-14q0 -97 90 -97q51 0 82 29t31 77v5h-203z" />
    <glyph glyph-name="upsilonlatin" unicode="&#x28a;" horiz-adv-x="726" 
d="M606 418q35 -38 55.5 -84.5t20.5 -91.5q0 -22 -8.5 -52t-32 -68t-58 -69.5t-93.5 -53.5t-132 -22q-76 0 -136 21.5t-94 53t-56.5 70t-30 68t-7.5 52.5q0 45 20.5 91.5t55.5 84.5h-74v123h282v-103q-142 -79 -142 -179q0 -11 4.5 -28t17.5 -40.5t32 -43t52.5 -33.5
t75.5 -14q44 0 78.5 14t53 33.5t31 43.5t16 40.5t3.5 27.5q0 100 -142 179v103h282v-123h-74z" />
    <glyph glyph-name="vhook" unicode="&#x28b;" horiz-adv-x="639" 
d="M260 -23h-67q-60 0 -93.5 26.5t-33.5 72.5v464h136v-420q0 -7 2 -10t15.5 -6.5t40.5 -3.5q47 0 83.5 15.5t56.5 37.5t33 49t16.5 45.5t3.5 31.5q0 28 -9 54t-26.5 47.5t-34 39t-41.5 34.5t-39.5 26t-36.5 21t-25 13l201 27q57 -36 105.5 -112t48.5 -155q0 -16 -4.5 -38
t-15.5 -51t-27.5 -57t-43.5 -55.5t-60.5 -48.5t-81.5 -34t-103 -13z" />
    <glyph glyph-name="vturn" unicode="&#x28c;" horiz-adv-x="556" 
d="M200 540h147l189 -540h-148l-117 395l-109 -395h-148z" />
    <glyph glyph-name="wturn" unicode="&#x28d;" horiz-adv-x="778" 
d="M158 540h145l81 -381l86 381h144l152 -540h-145l-86 378l-82 -378h-140l-81 378l-82 -378h-145z" />
    <glyph glyph-name="yturn" unicode="&#x28e;" horiz-adv-x="556" 
d="M337 567v-4l201 -562h-154l-119 393l-112 -393h-144l222 639q0 1 4 13.5t6.5 17t8 17t11.5 18t16 16t22.5 16t28.5 11.5t37 8.5t46 2.5q22 0 50 -4v-105q-22 6 -37 6q-37 0 -62 -26t-25 -64z" />
    <glyph glyph-name="Ysmallcap" unicode="&#x28f;" horiz-adv-x="556" 
d="M350 168v-168h-147v168l-189 372h148l117 -227l109 227h148z" />
    <glyph glyph-name="zrthook" unicode="&#x290;" horiz-adv-x="551" 
d="M459 540v-113l-265 -314h274v-176q0 -23 10.5 -32.5t33.5 -9.5q12 0 25 4v-112q-47 -5 -83 -5q-65 0 -94 29t-29 95v94h-310v113l267 314h-249v113h420z" />
    <glyph glyph-name="zcurl" unicode="&#x291;" horiz-adv-x="591" 
d="M570 107q0 -61 -36.5 -84t-134.5 -23v-96h-117v96h-261v113l267 314h-249v113h420v-113l-265 -314h88q2 52 43.5 92.5t100.5 40.5q60 0 102 -39t42 -100zM454 119q0 8 -7 16t-20 8q-24 0 -26 -30q53 0 53 6z" />
    <glyph glyph-name="ezh" unicode="&#x292;" horiz-adv-x="556" 
d="M370 272q62 -18 104 -64t42 -124q0 -104 -67.5 -165.5t-180.5 -61.5q-109 0 -173.5 62.5t-65.5 168.5h136q6 -111 106 -111q46 0 75.5 30t29.5 77q0 39 -21 67.5t-56 38.5q-28 7 -82 7v94l115 136h-249v113h420v-113z" />
    <glyph glyph-name="ezhcurl" unicode="&#x293;" horiz-adv-x="642" 
d="M254 15q-49 0 -49 -15q0 -4 4.5 -9t19.5 -9.5t39 -4.5q44 0 74 27q-42 11 -88 11zM614 50l-41 -114q-9 3 -40.5 11.5t-47.5 13.5q-1 -1 -6.5 -9t-10 -12.5t-13 -14t-18 -16t-22 -15.5t-27.5 -15t-33 -11.5t-40.5 -8t-46.5 -2.5q-100 0 -151 47t-51 100q0 51 45.5 92.5
t147.5 41.5q43 0 111 -15q-27 74 -153 74v94l115 136h-249v113h420v-113l-133 -155q61 -18 103.5 -64.5t42.5 -124.5q65 -20 98 -33z" />
    <glyph glyph-name="glottalstop" unicode="&#x294;" horiz-adv-x="611" 
d="M64 481q0 80 23.5 135.5t63 81.5t76.5 36t80 10q110 0 179.5 -64t69.5 -166q0 -63 -25 -104t-95 -90q-45 -32 -56 -51t-11 -68v-201h-124v201q0 59 17.5 100.5t42.5 64t50 41t42.5 44t17.5 60.5q0 49 -30 82t-75 33q-46 0 -78 -36t-32 -109h-136z" />
    <glyph glyph-name="glottalstoprevinv" unicode="&#x295;" horiz-adv-x="611" 
d="M556 481h-136q0 73 -32 109t-78 36q-45 0 -75 -33t-30 -82q0 -35 17.5 -60.5t42.5 -44t50 -41t42.5 -64t17.5 -100.5v-201h-124v201q0 49 -11 68t-56 51q-70 49 -95 90t-25 104q0 102 69.5 166t179.5 64q43 0 80 -10t76.5 -36t63 -81.5t23.5 -135.5z" />
    <glyph glyph-name="glottalstopinv" unicode="&#x296;" horiz-adv-x="611" 
d="M64 248h136q0 -73 32 -109t78 -36q45 0 75 33t30 82q0 35 -17.5 60.5t-42.5 44t-50 41t-42.5 64t-17.5 100.5v201h124v-201q0 -49 11 -68t56 -51q70 -49 95 -90t25 -104q0 -102 -69.5 -166t-179.5 -64q-43 0 -80 10t-76.5 36t-63 81.5t-23.5 135.5z" />
    <glyph glyph-name="cstretch" unicode="&#x297;" horiz-adv-x="556" 
d="M174 450v-369q0 -79 30.5 -124t83.5 -45q41 0 64 22.5t36 74.5h134q-10 -97 -73.5 -153.5t-161.5 -56.5q-120 0 -186.5 74t-66.5 208v368q0 138 67 214t188 76q101 0 163.5 -56t69.5 -155h-134q-12 53 -34.5 75.5t-65.5 22.5q-34 0 -58 -16t-35.5 -44t-16 -55.5
t-4.5 -60.5z" />
    <glyph glyph-name="bilabialclick" unicode="&#x298;" horiz-adv-x="611" 
d="M241 325h124v-123h-124v123zM301 549q127 0 197.5 -76.5t70.5 -213.5q0 -130 -72 -206t-195 -76q-125 0 -196 76.5t-71 209.5t71 209.5t195 76.5zM302 436q-57 0 -92 -48t-35 -125t35 -125t92 -48q56 0 91.5 47.5t35.5 123.5q0 80 -34.5 127.5t-92.5 47.5z" />
    <glyph glyph-name="Bsmallcap" unicode="&#x299;" horiz-adv-x="554" 
d="M518 155q0 -27 -9 -52.5t-28.5 -49.5t-58.5 -38.5t-93 -14.5h-269v540h266q51 0 88 -14.5t55 -38t26 -45.5t8 -44q0 -36 -20.5 -69t-53.5 -43q43 -13 66 -50.5t23 -80.5zM200 430v-97h94q40 0 57 9.5t17 37.5q0 29 -17 39.5t-57 10.5h-94zM200 223v-113h100
q42 0 60.5 13.5t18.5 46.5t-17.5 43t-61.5 10h-100z" />
    <glyph glyph-name="eopenclosed" unicode="&#x29a;" horiz-adv-x="590" 
d="M280 103q48 0 74.5 7t40 29.5t16.5 49t3 80.5q0 104 -22 134.5t-112 30.5q-104 0 -104 -54q0 -35 25.5 -48t77.5 -13h71v-102h-71q-53 0 -78 -13t-25 -48q0 -53 104 -53zM292 547q76 0 126.5 -19t76.5 -58t36 -85.5t10 -114.5q0 -72 -10 -119t-37 -86t-79 -57t-132 -18
q-239 0 -239 161q0 44 16 70.5t49 46.5q-65 40 -65 118t57 119.5t191 41.5z" />
    <glyph glyph-name="Gsmallhook" unicode="&#x29b;" horiz-adv-x="616" 
d="M288 436q-114 0 -114 -177q0 -79 30.5 -124t83.5 -45q66 0 91 67h-88v105h232v-262h-90l-5 29q-23 -22 -62.5 -37t-78.5 -15q-120 0 -186.5 74t-66.5 208q0 138 67 214t188 76q77 0 130 -32q35 27 97 27q41 0 80 -3v-105q-18 3 -40 3q-45 0 -45 -41q8 -24 11 -60h-134
q-12 53 -34.5 75.5t-65.5 22.5z" />
    <glyph glyph-name="Hsmallcap" unicode="&#x29c;" horiz-adv-x="603" 
d="M60 540h140v-220h203v220h140v-540h-140v207h-203v-207h-140v540z" />
    <glyph glyph-name="jcrossedtail" unicode="&#x29d;" horiz-adv-x="552" 
d="M191 -22q-17 0 -33 -10t-16 -26q0 -21 36.5 -34t56.5 -13q27 0 33.5 13.5t6.5 58.5q-42 11 -84 11zM551 12l-41 -113q-11 4 -47.5 16t-46.5 15q0 -34 -3 -54.5t-14 -45t-37.5 -36.5t-68.5 -12q-69 0 -123 12.5t-84 31.5t-50 42.5t-26.5 42.5t-6.5 35q0 23 9.5 47.5
t29.5 50t60 41.5t94 16q35 0 80 -9v448h140v-483q84 -26 135 -45zM416 729v-125h-140v125h140z" />
    <glyph glyph-name="kturned" unicode="&#x29e;" horiz-adv-x="588" 
d="M388 207l-177 -210h-159l184 204l-197 336h164l129 -238l56 61v177h140v-729h-140v399z" />
    <glyph glyph-name="Lsmallcap" unicode="&#x29f;" horiz-adv-x="454" 
d="M408 0h-348v540h140v-427h208v-113z" />
    <glyph glyph-name="qhook" unicode="&#x2a0;" horiz-adv-x="626" 
d="M286 432q-53 0 -85.5 -47t-32.5 -123t32.5 -122.5t85.5 -46.5q52 0 85 46t33 120q0 79 -32.5 126t-85.5 47zM253 -24q-100 0 -162.5 81t-62.5 205t64.5 205.5t161.5 81.5q100 0 150 -89v104q0 66 29 95t94 29q36 0 83 -5v-112q-13 4 -25 4q-23 0 -32 -9.5t-9 -32.5v-751
h-140v282q-49 -88 -151 -88z" />
    <glyph glyph-name="glottalstopbar" unicode="&#x2a1;" horiz-adv-x="611" 
d="M64 481q0 80 23.5 135.5t63 81.5t76.5 36t80 10q110 0 179.5 -64t69.5 -166q0 -63 -25 -104t-95 -90q-45 -32 -56 -51t-11 -68v-18h86v-93h-86v-90h-124v90h-89v93h89v18q0 59 17.5 100.5t42.5 64t50 41t42.5 44t17.5 60.5q0 49 -30 82t-75 33q-46 0 -78 -36t-32 -109
h-136z" />
    <glyph glyph-name="glottalstopbarrev" unicode="&#x2a2;" horiz-adv-x="611" 
d="M556 481h-136q0 73 -32 109t-78 36q-45 0 -75 -33t-30 -82q0 -35 17.5 -60.5t42.5 -44t50 -41t42.5 -64t17.5 -100.5v-18h88v-93h-88v-90h-124v90h-87v93h87v18q0 49 -11 68t-56 51q-70 49 -95 90t-25 104q0 102 69.5 166t179.5 64q43 0 80 -10t76.5 -36t63 -81.5
t23.5 -135.5z" />
    <glyph glyph-name="dzaltone" unicode="&#x2a3;" horiz-adv-x="1004" 
d="M963 540v-113l-265 -314h274v-113h-567v55q-52 -78 -149 -78q-100 0 -163.5 82t-63.5 203q0 122 65 204.5t162 82.5q98 0 149 -79v259h140v-189h418zM287 432q-52 0 -85 -47.5t-33 -122.5q0 -74 33 -121t85 -47t85 46t33 120q0 77 -32.5 124.5t-85.5 47.5zM545 427v-290
l247 290h-247z" />
    <glyph glyph-name="dezh" unicode="&#x2a4;" horiz-adv-x="1018" 
d="M832 272q62 -18 104 -64t42 -124q0 -104 -67.5 -165.5t-180.5 -61.5q-84 0 -142.5 37.5t-82.5 105.5h-100v55q-52 -78 -149 -78q-100 0 -163.5 82t-63.5 203q0 122 65 204.5t162 82.5q98 0 149 -79v259h140v-189h420v-113zM287 432q-52 0 -85 -47.5t-33 -122.5
q0 -74 33 -121t85 -47t85 46t33 120q0 77 -32.5 124.5t-85.5 47.5zM545 427v-339h82q6 -111 106 -111q46 0 75.5 30t29.5 77q0 39 -21 67.5t-56 38.5q-28 7 -82 7v94l115 136h-249z" />
    <glyph glyph-name="dzcurl" unicode="&#x2a5;" horiz-adv-x="1097" 
d="M960 119q0 8 -7 16t-20 8q-24 0 -26 -30q53 0 53 6zM1076 107q0 -61 -36.5 -84t-134.5 -23v-96h-117v96h-383v55q-52 -78 -149 -78q-100 0 -163.5 82t-63.5 203q0 122 65 204.5t162 82.5q98 0 149 -79v259h140v-189h420v-113l-265 -314h88q2 52 43.5 92.5t100.5 40.5
q60 0 102 -39t42 -100zM287 432q-52 0 -85 -47.5t-33 -122.5q0 -74 33 -121t85 -47t85 46t33 120q0 77 -32.5 124.5t-85.5 47.5zM545 427v-293l249 293h-249z" />
    <glyph glyph-name="ts" unicode="&#x2a6;" horiz-adv-x="804" 
d="M301 529v-93h-78v-294q0 -36 9 -47.5t37 -11.5l259 2q48 0 76 15t28 40q0 16 -10.5 26t-36.5 18l-167 52q-1 0 -12 3.5t-15.5 5.5t-16.5 6.5t-18.5 9.5t-16.5 12.5t-15.5 16.5t-11.5 20.5t-9 26.5t-3 32q0 83 59.5 131.5t162.5 48.5q109 0 171 -48.5t64 -134.5h-135
q-1 73 -101 73q-37 0 -59 -13.5t-22 -36.5q0 -16 10 -24.5t39 -17.5l177 -51q106 -31 106 -136q0 -31 -11 -60.5t-35.5 -58.5t-73.5 -46.5t-116 -17.5h-316q-137 0 -137 127v332h-69v93h69v145h140v-145h78z" />
    <glyph glyph-name="tesh" unicode="&#x2a7;" horiz-adv-x="593" 
d="M490 582v-676q0 -66 -29 -95t-94 -29q-36 0 -83 5v112q13 -4 25 -4q23 0 32 9.5t9 32.5v50q-39 -10 -130 -10q-137 0 -137 127v332h-69v93h69v145h140v-145h127v65q0 135 138 135q41 0 80 -3v-105q-18 3 -40 3q-38 0 -38 -42zM350 86v350h-127v-294q0 -36 9 -47.5
t37 -11.5q52 0 81 3z" />
    <glyph glyph-name="tccurl" unicode="&#x2a8;" horiz-adv-x="840" 
d="M654 126q-7 23 -26 23q-12 0 -50 -21t-55 -34q16 -4 26 -4q67 0 105 36zM550 436q-114 0 -114 -177q0 -46 11 -81q80 53 132.5 71t104.5 18q38 0 68 -26.5t30 -53.5q0 -53 -17.5 -93.5t-42 -61.5t-56.5 -34.5t-54.5 -17t-42.5 -3.5q-49 0 -84.5 6t-71.5 27
q-32 -12 -81 -20.5t-76 -10.5t-36 -2q-137 0 -137 127v332h-69v93h69v145h140v-145h78v-93h-78v-294q0 -36 9 -47.5t37 -11.5q9 0 15.5 0.5t13 2t9.5 2.5t11.5 4.5t12.5 4.5q-35 67 -35 162q0 138 67 214t188 76q101 0 163.5 -56t69.5 -155h-134q-12 53 -34.5 75.5
t-65.5 22.5z" />
    <glyph glyph-name="uni02a9" unicode="&#x2a9;" horiz-adv-x="866" 
d="M323 540h140v-78q58 87 162 87q86 0 133.5 -49t47.5 -138v-456q0 -66 -29 -95t-94 -29q-36 0 -83 5v112q13 -4 25 -4q23 0 32 9.5t9 32.5v396q0 97 -90 97q-51 0 -82 -29t-31 -77v-324h-140v436h-93v-436h-140v436h-76v93h76v65q0 135 138 135q41 0 80 -3v-105
q-18 3 -40 3q-38 0 -38 -42v-53h93v11z" />
    <glyph glyph-name="uni02aa" unicode="&#x2aa;" horiz-adv-x="752" 
d="M207 42v-42h-140v729h140v-555q69 -51 131.5 -69t137.5 -18q49 0 76.5 14t27.5 39q0 16 -10.5 26t-36.5 18l-167 52q-1 0 -12 3.5t-15.5 5.5t-16.5 6.5t-18.5 9.5t-16.5 12.5t-15.5 16.5t-11.5 20.5t-9 26.5t-3 32q0 83 59.5 131.5t162.5 48.5q109 0 171 -48.5t64 -134.5
h-135q-1 73 -101 73q-37 0 -59 -13.5t-22 -36.5q0 -16 10 -24.5t39 -17.5l177 -51q106 -31 106 -136q0 -31 -11 -60.5t-35.5 -58.5t-73.5 -46.5t-116 -17.5q-106 0 -157 12t-120 53z" />
    <glyph glyph-name="uni02ab" unicode="&#x2ab;" horiz-adv-x="668" 
d="M627 540v-113l-265 -314h274v-113h-569v729h140v-189h420zM207 427v-293l249 293h-249z" />
    <glyph glyph-name="uni02AC" unicode="&#x2ac;" horiz-adv-x="525" 
d="M407.428 0h-94.2451l-52.6465 247.636l-55.8975 -247.636h-93.5947l-98.7939 350.98h94.2441l55.8975 -245.687l53.2969 245.687h90.9951l52.6465 -245.687l53.2969 245.687h94.2451zM407.428 389h-94.2451l-52.6465 247.636l-55.8975 -247.636h-93.5947l-98.7939 350.98
h94.2441l55.8975 -245.687l53.2969 245.687h90.9951l52.6465 -245.687l53.2969 245.687h94.2451z" />
    <glyph glyph-name="uni02ad" unicode="&#x2ad;" horiz-adv-x="486" 
d="M20 634h446v-165h-100v67h-246v-67h-100v165zM20 274h446v-165h-100v67h-246v-67h-100v165z" />
    <glyph glyph-name="uni02ae" unicode="&#x2ae;" horiz-adv-x="659" 
d="M581 -218h-140v282q-58 -87 -162 -87q-86 0 -133.5 49t-47.5 138v410q0 23 -9 32.5t-32 9.5q-12 0 -25 -4v112q47 5 83 5q65 0 94 -29t29 -95v-412q0 -97 90 -97q51 0 82 29t31 77v338h140v-758z" />
    <glyph glyph-name="uni02af" unicode="&#x2af;" horiz-adv-x="679" 
d="M238 193q0 -97 90 -97q51 0 82 29t31 77v338h140l-1 -685q0 -23 9 -32.5t32 -9.5q12 0 25 4v-112q-47 -5 -83 -5q-65 0 -94 29t-29 95l1 240q-58 -87 -162 -87q-86 0 -133.5 49t-47.5 138v410q0 23 -9 32.5t-32 9.5q-12 0 -25 -4v112q47 5 83 5q65 0 94 -29t29 -95v-412z
" />
    <glyph glyph-name="hsuper" unicode="&#x2b0;" horiz-adv-x="377" 
d="M249.636 500.488q0 64.9961 -55.8975 64.9961q-30.5479 0 -50.3721 -19.499t-19.8242 -49.3975v-210.588h-90.9941v473.823h90.9941v-173.54q37.6982 56.5469 102.694 56.5469q20.7988 0 39.3232 -5.52441q18.5234 -5.52539 36.3975 -18.1992
q17.874 -12.6748 28.2734 -38.0234t10.3994 -59.7959v-235.287h-90.9941v214.488z" />
    <glyph glyph-name="hhooksuper" unicode="&#x2b1;" horiz-adv-x="377" 
d="M249.636 500.488q0 64.9961 -55.8975 64.9961q-30.5479 0 -50.3721 -19.499t-19.8242 -49.3975v-210.588h-90.9941v393.228q0 42.8975 18.8486 61.7471q18.8486 18.8486 61.0967 18.8486q23.3984 0 53.9473 -3.25v-72.7959q-8.4502 2.59961 -16.249 2.59961
q-14.9492 0 -20.7988 -6.17383q-5.85059 -6.1748 -5.85059 -21.124v-72.7959q37.6982 56.5469 102.694 56.5469q20.7988 0 39.3232 -5.52441q18.5234 -5.52539 36.3975 -18.1992q17.874 -12.6748 28.2734 -38.0234t10.3994 -59.7959v-235.287h-90.9941v214.488z" />
    <glyph glyph-name="jsuper" unicode="&#x2b2;" horiz-adv-x="202" 
d="M161.492 635.98v-412.077q0 -42.8975 -18.8486 -61.7461q-18.8486 -18.8496 -61.0967 -18.8496q-23.3984 0 -53.9473 3.25v72.7959q8.4502 -2.59961 16.249 -2.59961q14.9492 0 20.7988 6.1748t5.84961 21.124v391.928h90.9951zM161.492 758.823v-81.2451h-90.9951
v81.2451h90.9951z" />
    <glyph glyph-name="rsuper" unicode="&#x2b3;" horiz-adv-x="272" 
d="M37.9473 635.98h90.9951v-68.8965q14.2998 35.748 40.2979 55.2471q25.999 19.499 57.1973 19.499q5.84961 0 11.0488 -0.650391v-92.2949q-16.249 2.60059 -28.5986 2.60059q-79.9453 0 -79.9453 -79.9463v-186.539h-90.9951v350.98z" />
    <glyph glyph-name="rturnsuper" unicode="&#x2b4;" horiz-adv-x="272" 
d="M234.049 285.986h-91.0039v68.9033q-14.3008 -35.752 -40.3018 -55.252q-26.001 -19.501 -57.2021 -19.501q-5.84961 0 -11.0498 0.650391v92.3027q16.25 -2.59961 28.6006 -2.59961q79.9531 0 79.9531 79.9531v186.557h91.0039v-351.014z" />
    <glyph glyph-name="rturnrthooksuper" unicode="&#x2b5;" horiz-adv-x="299" 
d="M135.242 635.63h90.9951v-391.928q0 -14.9492 5.84961 -21.124q5.84961 -6.17383 20.7988 -6.17383q7.7998 0 16.249 2.59961v-72.7959q-30.5479 -3.25 -53.9473 -3.25q-42.2471 0 -61.0957 18.8486q-18.8496 18.8496 -18.8496 61.7471v129.992
q-14.2988 -35.748 -40.2979 -55.2471q-25.998 -19.498 -57.1963 -19.498q-5.84961 0 -11.0498 0.649414v92.2949q16.249 -2.59961 28.5986 -2.59961q79.9453 0 79.9453 79.9453v186.539z" />
    <glyph glyph-name="Rturnsuper" unicode="&#x2b6;" horiz-adv-x="395" 
d="M354.099 385.74q0 -17.5508 -5.84961 -34.126q-5.85059 -16.5752 -18.5264 -32.1758q-12.6748 -15.6006 -38.0264 -25.0264q-25.3506 -9.42578 -60.4521 -9.42578h-189.157v351.014h91.0039v-134.555h28.6006l92.9541 134.555h116.354l-100.754 -141.705
q39.6514 -11.0508 61.752 -39.6514q22.1006 -28.6016 22.1006 -66.9531v-1.9502zM133.091 429.942v-73.4531h79.3027q27.3008 0 39.3262 8.77539t12.0254 30.2266q0 21.4502 -11.375 27.9512q-11.376 6.5 -39.9766 6.5h-79.3027z" />
    <glyph glyph-name="wsuper" unicode="&#x2b7;" horiz-adv-x="534" 
d="M416.428 286h-94.2451l-52.6465 247.636l-55.8975 -247.636h-93.5947l-98.7939 350.98h94.2441l55.8975 -245.687l53.2969 245.687h90.9951l52.6465 -245.687l53.2969 245.687h94.2451z" />
    <glyph glyph-name="ysuper" unicode="&#x2b8;" horiz-adv-x="364" 
d="M140.492 358.101v2.60059l-130.643 365.279h100.095l77.3457 -255.436l72.7959 255.436h93.5947l-144.292 -415.327q0 -0.649414 -2.59961 -8.77441q-2.60059 -8.12402 -4.22559 -11.0488t-5.19922 -11.0498q-3.5752 -8.12402 -7.47461 -11.6992t-10.3994 -10.3994
t-14.624 -10.3994q-8.125 -3.5752 -18.5244 -7.47461t-24.0488 -5.52441q-13.6484 -1.625 -29.8984 -1.625q-14.2988 0 -32.498 2.59961v68.2461q14.2998 -3.89941 24.0488 -3.89941q24.0488 0 40.2979 16.8984q16.249 16.8994 16.249 41.5977z" />
    <glyph glyph-name="primemod" unicode="&#x2b9;" horiz-adv-x="278" 
d="M219 707l-33 -126l-74 -114l-55 15l-5 135l34 125z" />
    <glyph glyph-name="primedblmod" unicode="&#x2ba;" horiz-adv-x="454" 
d="M219 707l-33 -126l-74 -114l-55 15l-5 135l34 125zM427 707l-33 -126l-74 -114l-55 15l-5 135l34 125z" />
    <glyph glyph-name="quoteleftmod" unicode="&#x2bb;" horiz-adv-x="278" 
d="M202 469h-135v109q0 143 135 151v-46q-44 -8 -62 -26.5t-18 -62.5h80v-125z" />
    <glyph glyph-name="apostrophe" unicode="&#x2bc;" horiz-adv-x="278" 
d="M105 673h122v-103q0 -61 -34.5 -101.5t-87.5 -42.5v46q67 13 67 86v3h-67v112z" />
    <glyph glyph-name="apostropherev" unicode="&#x2bd;" horiz-adv-x="278" 
d="M227 673v-112h-67v-3q0 -73 67 -86v-46q-53 2 -87.5 42.5t-34.5 101.5v103h122z" />
    <glyph glyph-name="ringhalfright" unicode="&#x2be;" horiz-adv-x="333" 
d="M116 798h25q47 0 80 -33t33 -79q0 -47 -33 -80t-80 -33h-25v94h25q7 0 13 6t6 13t-6 12.5t-13 5.5h-25v94z" />
    <glyph glyph-name="ringhalfleft" unicode="&#x2bf;" horiz-adv-x="333" 
d="M237 573h-25q-47 0 -80 33t-33 79q0 47 33 80t80 33h25v-94h-25q-7 0 -13 -6t-6 -13t6 -12.5t13 -5.5h25v-94z" />
    <glyph glyph-name="glottalstopmod" unicode="&#x2c0;" horiz-adv-x="333" 
d="M96 611h-87q0 66 36 112t123 46q72 0 114 -38.5t42 -103.5q0 -41 -27.5 -82.5t-89.5 -49.5v-119h-85v192q113 0 113 57q0 31 -17.5 47.5t-48.5 16.5q-73 0 -73 -78z" />
    <glyph glyph-name="glottalstopreversedmod" unicode="&#x2c1;" horiz-adv-x="333" 
d="M237 611q0 78 -73 78q-31 0 -48.5 -16.5t-17.5 -47.5q0 -57 113 -57v-192h-85v119q-62 8 -89.5 49.5t-27.5 82.5q0 65 42 103.5t114 38.5q87 0 123 -46t36 -112h-87z" />
    <glyph glyph-name="fronted" unicode="&#x2c2;" horiz-adv-x="333" 
d="M12 643v54l309 98v-69l-181 -55l181 -57v-69z" />
    <glyph glyph-name="backed" unicode="&#x2c3;" horiz-adv-x="333" 
d="M320 697v-54l-309 -98v69l181 55l-181 57v69z" />
    <glyph glyph-name="raised" unicode="&#x2c4;" horiz-adv-x="333" 
d="M141 765h51l116 -205h-73l-68 125l-69 -125h-73z" />
    <glyph glyph-name="lowered" unicode="&#x2c5;" horiz-adv-x="333" 
d="M192 560h-51l-116 205h73l68 -125l69 125h73z" />
    <glyph glyph-name="circumflex" unicode="&#x2c6;" horiz-adv-x="333" 
d="M116 757h107l103 -150h-78l-82 100l-82 -100h-76z" />
    <glyph glyph-name="caron" unicode="&#x2c7;" horiz-adv-x="333" 
d="M219 607h-107l-103 150h78l82 -97l82 97h76z" />
    <glyph glyph-name="uni02c8" unicode="&#x2c8;" horiz-adv-x="333" 
d="M207 588h-80v197h80v-197z" />
    <glyph glyph-name="macronmodifier" unicode="&#x2c9;" horiz-adv-x="333" 
d="M315 719v-79h-299v79h299z" />
    <glyph glyph-name="uni02CA" unicode="&#x2ca;" horiz-adv-x="333" 
d="M317 757l-126 -150h-70l70 150h126z" />
    <glyph glyph-name="gravemodifier" unicode="&#x2cb;" horiz-adv-x="333" 
d="M17 757h126l70 -150h-70z" />
    <glyph glyph-name="verticallinelowmod" unicode="&#x2cc;" horiz-adv-x="272" 
d="M172 -259h-72v197h72v-197z" />
    <glyph glyph-name="uni02cd" unicode="&#x2cd;" horiz-adv-x="333" 
d="M316 -52v-79h-299v79h299z" />
    <glyph glyph-name="uni02ce" unicode="&#x2ce;" horiz-adv-x="333" 
d="M78 -36h126l70 -150h-70z" />
    <glyph glyph-name="uni02cf" unicode="&#x2cf;" horiz-adv-x="333" 
d="M260 -36l-126 -150h-70l70 150h126z" />
    <glyph glyph-name="colontriangularmod" unicode="&#x2d0;" horiz-adv-x="333" 
d="M78 561h176l-88 -160zM254 0h-176l88 160z" />
    <glyph glyph-name="colontriangularhalfmod" unicode="&#x2d1;" horiz-adv-x="333" 
d="M78 561h176l-88 -160z" />
    <glyph glyph-name="ringhalfrightcentered" unicode="&#x2d2;" horiz-adv-x="333" 
d="M94 202h25q47 0 80 -33t33 -79q0 -47 -33 -80t-80 -33h-25v94h25q7 0 13 6t6 13t-6 12.5t-13 5.5h-25v94z" />
    <glyph glyph-name="ringhalfleftcentered" unicode="&#x2d3;" horiz-adv-x="333" 
d="M225 -23h-25q-47 0 -80 33t-33 79q0 47 33 80t80 33h25v-94h-25q-7 0 -13 -6t-6 -13t6 -12.5t13 -5.5h25v-94z" />
    <glyph glyph-name="tackupmid" unicode="&#x2d4;" horiz-adv-x="333" 
d="M117 234v178h100v-178h116v-100h-333v100h117z" />
    <glyph glyph-name="tackdownmid" unicode="&#x2d5;" horiz-adv-x="333" 
d="M216 317v-178h-100v178h-116v100h333v-100h-117z" />
    <glyph glyph-name="plusmod" unicode="&#x2d6;" horiz-adv-x="333" 
d="M216 216v-117h-100v117h-116v100h117v117h100v-117h116v-100h-117z" />
    <glyph glyph-name="minusmod" unicode="&#x2d7;" horiz-adv-x="333" 
d="M333 316v-100h-333v100h333z" />
    <glyph glyph-name="breve" unicode="&#x2d8;" horiz-adv-x="333" 
d="M299 748v-11q0 -56 -38 -94t-94 -38t-94 38t-38 95v10h56q9 -66 77 -66q64 0 75 66h56z" />
    <glyph glyph-name="dotaccent" unicode="&#x2d9;" horiz-adv-x="333" 
d="M222 743v-122h-110v122h110z" />
    <glyph glyph-name="ring" unicode="&#x2da;" horiz-adv-x="333" 
d="M168 770q37 0 63 -26.5t26 -64.5q0 -37 -26.5 -63t-63.5 -26t-63.5 26t-26.5 64t26.5 64t64.5 26zM168 722q-18 0 -30.5 -12.5t-12.5 -29.5t12.5 -29.5t30.5 -12.5q17 0 29 12.5t12 29.5t-12 29.5t-29 12.5z" />
    <glyph glyph-name="ogonek" unicode="&#x2db;" horiz-adv-x="333" 
d="M169 0h75q-64 -40 -86.5 -67.5t-22.5 -65.5q0 -50 76 -50q30 0 57 6v-47q-39 -10 -79 -10q-67 0 -105.5 25.5t-38.5 69.5t33 81t91 58z" />
    <glyph glyph-name="tilde" unicode="&#x2dc;" horiz-adv-x="333" 
d="M282 749h63q-6 -127 -95 -127q-24 0 -55 12l-71 26q-18 6 -30 6q-18 0 -27 -10.5t-13 -34.5h-63q3 58 28 91t66 33q20 0 56 -13l71 -25q14 -6 34 -6q32 0 36 48z" />
    <glyph glyph-name="hungarumlaut" unicode="&#x2dd;" horiz-adv-x="333" 
d="M152 757l-126 -147h-70l70 147h126zM340 757l-126 -147h-70l70 147h126z" />
    <glyph glyph-name="uni02DE" unicode="&#x2de;" horiz-adv-x="333" 
d="M0 396v105l83 84h71q7 -21 29 -91t38.5 -113t27.5 -48q7 0 11.5 2t8.5 5.5t9.5 13t11.5 19.5t18 30.5t25 42.5v-173q-19 -19 -27.5 -27t-29 -17.5t-42.5 -9.5t-42 16.5t-33 39.5t-25.5 58.5t-19 61t-14.5 60.5l-74 -70z" />
    <glyph glyph-name="uni02DF" unicode="&#x2df;" horiz-adv-x="510" 
d="M346.75 802l63 -42l-96.75 -64.5l96 -64.5l-63 -42l-96 64.5l-96 -64l-63 42l96 64l-96.75 64l63 42.5l96.75 -64.5z" />
    <glyph glyph-name="uni02E0" unicode="&#x2e0;" horiz-adv-x="372" 
d="M185.34 226.803q4.5498 0 8.77441 3.5752t4.22461 10.0742q0 14.9492 -13.6494 35.748q-12.999 -21.4482 -12.999 -35.748q0 -6.49902 4.875 -10.0742t8.77441 -3.5752zM239.287 374.995q27.9482 -51.3477 38.9971 -78.6455q11.0498 -27.2988 11.0498 -48.0977
q0 -39.6475 -29.5732 -76.0459q-29.5732 -36.3975 -69.8711 -36.3975q-46.1475 0 -77.9961 30.2227q-31.8477 30.2236 -31.8477 77.6709q0 18.1992 10.3994 44.8477t39.6475 85.7949l-119.593 260.636h100.094l74.0957 -158.592l74.0957 158.592h100.095z" />
    <glyph glyph-name="uni02E1" unicode="&#x2e1;" horiz-adv-x="210" 
d="M148.542 759.823v-473.823h-90.9941v473.823h90.9941z" />
    <glyph glyph-name="uni02E2" unicode="&#x2e2;" horiz-adv-x="363" 
d="M113.894 395.044q4.5498 -22.0986 18.5244 -33.7979t52.9717 -11.6992q31.8486 0 49.7227 9.09961t17.874 25.3486q0 10.3994 -6.8252 16.8984q-6.82422 6.5 -23.7236 11.7002l-108.544 33.7979q-0.649414 0 -7.79883 2.27441q-7.15039 2.27539 -10.0752 3.5752
t-10.7236 4.22461q-7.7998 2.9248 -12.0244 6.1748t-10.7246 8.12402q-6.5 4.875 -10.0742 10.7246q-3.5752 5.84961 -7.47461 13.3242q-3.90039 7.47461 -5.84961 17.2246q-1.9502 9.74902 -1.9502 20.7988q0 53.9463 38.6729 85.4697t105.619 31.5234
q70.8457 0 111.144 -31.5234t41.5977 -87.4199h-87.7451q-0.649414 47.4473 -65.6465 47.4473q-24.0488 0 -38.3477 -8.77441t-14.2988 -23.7236q0 -10.3994 6.49902 -15.9238q6.5 -5.52539 25.3486 -11.375l115.044 -33.1484q68.8955 -20.1484 68.8955 -88.3945
q0 -20.1484 -7.14941 -39.3232q-7.14941 -19.1738 -23.0732 -38.0225t-47.7725 -30.2236q-31.8486 -11.374 -75.3955 -11.374q-161.841 0 -165.741 116.993h89.0449z" />
    <glyph glyph-name="uni02E3" unicode="&#x2e3;" horiz-adv-x="373" 
d="M237.737 462.79l116.993 -176.79h-109.194l-59.1465 109.193l-59.7959 -109.193h-109.194l116.993 176.79l-114.394 174.19h109.194l57.1963 -105.944l56.5469 105.944h109.194z" />
    <glyph glyph-name="uni02E4" unicode="&#x2e4;" horiz-adv-x="334" 
d="M326.38 598.633h-88.3955q0 47.4473 -20.7988 70.8457t-50.6973 23.3984q-29.248 0 -48.7471 -21.4482q-19.499 -21.4492 -19.499 -53.2979q0 -22.748 11.375 -39.3223q11.374 -16.5742 27.623 -28.5986t32.498 -26.6484t27.624 -41.5977
q11.374 -26.9736 11.374 -65.3213v-130.643h-80.5957v130.643q0 31.8486 -7.14941 44.1973q-7.14941 12.3496 -36.3975 33.1484q-45.498 31.8486 -61.7471 58.4971t-16.249 67.5957q0 66.2959 45.1729 107.894q45.1719 41.5977 116.668 41.5977q27.9482 0 51.9971 -6.49902
q24.0488 -6.5 49.7227 -23.3984q25.6729 -16.8994 40.9473 -52.9727q15.2744 -36.0723 15.2744 -88.0693z" />
    <glyph glyph-name="toneextrahigh" unicode="&#x2e5;" horiz-adv-x="526" 
d="M469 800v-815h-102v713h-342v102h444z" />
    <glyph glyph-name="tonehigh" unicode="&#x2e6;" horiz-adv-x="526" 
d="M469 800v-800h-102v548h-342v102h342v150h102z" />
    <glyph glyph-name="tonemid" unicode="&#x2e7;" horiz-adv-x="526" 
d="M469 800v-800h-102v351h-342v102h342v347h102z" />
    <glyph glyph-name="tonelow" unicode="&#x2e8;" horiz-adv-x="526" 
d="M469 800v-800h-102v150h-342v102h342v548h102z" />
    <glyph glyph-name="toneextralow" unicode="&#x2e9;" horiz-adv-x="526" 
d="M469 0h-444v102h342v698h102v-800z" />
    <glyph glyph-name="uni02EA" unicode="&#x2ea;" horiz-adv-x="519" 
d="M57 0v615h102v-513h335v-102h-437z" />
    <glyph glyph-name="uni02EB" unicode="&#x2eb;" horiz-adv-x="519" 
d="M159 258v-258h-102v623h102v-262h335v-103h-335z" />
    <glyph glyph-name="uni02ec" unicode="&#x2ec;" horiz-adv-x="333" 
d="M223 -184h-107l-103 150h78l82 -97l82 97h76z" />
    <glyph glyph-name="uni02ED" unicode="&#x2ed;" horiz-adv-x="333" 
d="M316 643v-79h-299v79h299zM316 801v-79h-299v79h299z" />
    <glyph glyph-name="uni02ee" unicode="&#x2ee;" horiz-adv-x="333" 
d="M305 729h135v-123q0 -40 -13 -68t-35 -42t-42.5 -20t-44.5 -7v46q36 6 55 23.5t22 31.5t3 34h-80v125zM72 729h135v-123q0 -40 -13 -68t-35 -42t-42.5 -20t-44.5 -7v46q36 6 55 23.5t22 31.5t3 34h-80v125z" />
    <glyph glyph-name="uni02EF" unicode="&#x2ef;" horiz-adv-x="333" 
d="M192 -215h-51l-116 205h73l68 -125l69 125h73z" />
    <glyph glyph-name="uni02F0" unicode="&#x2f0;" horiz-adv-x="333" 
d="M136 -10h51l116 -205h-73l-68 125l-69 -125h-73z" />
    <glyph glyph-name="uni02F1" unicode="&#x2f1;" horiz-adv-x="333" 
d="M13 -158v54l309 98v-69l-181 -55l181 -57v-69z" />
    <glyph glyph-name="uni02F2" unicode="&#x2f2;" horiz-adv-x="333" 
d="M321 -110v-54l-309 -98v69l181 55l-181 57v69z" />
    <glyph glyph-name="uni02f3" unicode="&#x2f3;" horiz-adv-x="333" 
d="M167 -20q37 0 63 -26.5t26 -64.5q0 -37 -26.5 -63t-63.5 -26t-63.5 26t-26.5 64t26.5 64t64.5 26zM167 -68q-18 0 -30.5 -12.5t-12.5 -29.5t12.5 -29.5t30.5 -12.5q17 0 29 12.5t12 29.5t-12 29.5t-29 12.5z" />
    <glyph glyph-name="uni02F4" unicode="&#x2f4;" horiz-adv-x="333" 
d="M64 531h126l70 -150h-70z" />
    <glyph glyph-name="uni02F5" unicode="&#x2f5;" horiz-adv-x="437" 
d="M17 531h126l70 -150h-70zM193 531h126l70 -150h-70z" />
    <glyph glyph-name="uni02F6" unicode="&#x2f6;" horiz-adv-x="437" 
d="M418 529l-126 -150h-70l70 150h126zM243 531l-126 -150h-70l70 150h126z" />
    <glyph glyph-name="uni02F7" unicode="&#x2f7;" horiz-adv-x="400" 
d="M314 -21h63q-6 -127 -95 -127q-24 0 -55 12l-71 26q-18 6 -30 6q-18 0 -27 -10.5t-13 -34.5h-63q3 58 28 91t66 33q20 0 56 -13l71 -25q14 -6 34 -6q32 0 36 48z" />
    <glyph glyph-name="uni02F8" unicode="&#x2f8;" horiz-adv-x="333" 
d="M263 211v-146h-150v146h150zM263 585v-146h-150v146h150z" />
    <glyph glyph-name="uni02F9" unicode="&#x2f9;" horiz-adv-x="200" 
d="M9 764h182v-102h-80v-165h-102v267z" />
    <glyph glyph-name="uni02FA" unicode="&#x2fa;" horiz-adv-x="200" 
d="M193 764v-267h-102v165h-80v102h182z" />
    <glyph glyph-name="uni02FB" unicode="&#x2fb;" horiz-adv-x="200" 
d="M9 -88v267h102v-165h80v-102h-182z" />
    <glyph glyph-name="uni02FC" unicode="&#x2fc;" horiz-adv-x="200" 
d="M191 -87h-182v102h80v165h102v-267z" />
    <glyph glyph-name="uni02fd" unicode="&#x2fd;" horiz-adv-x="333" 
d="M304 -198h-274v137h78v-59h118v59h78v-137z" />
    <glyph glyph-name="uni02FE" unicode="&#x2fe;" horiz-adv-x="333" 
d="M303 -120v-80h-273v172h80v-92h193z" />
    <glyph glyph-name="uni02FF" unicode="&#x2ff;" horiz-adv-x="333" 
d="M348 -89v-61h-253q36 -43 43 -50l-36 -36q-22 26 -66.5 65t-55.5 50q14 13 39 35t45 41t38 39l36 -33q-8 -7 -43 -50h253z" />
    <glyph glyph-name="gravecomb" unicode="&#x300;" 
d="M-319 757h126l70 -150h-70z" />
    <glyph glyph-name="acutecomb" unicode="&#x301;" 
d="M-19 757l-126 -150h-70l70 150h126z" />
    <glyph glyph-name="circumflexcomb" unicode="&#x302;" 
d="M-220 754h107l103 -150h-78l-82 100l-82 -100h-76z" />
    <glyph glyph-name="tildecomb" unicode="&#x303;" 
d="M-48 752h63q-6 -127 -95 -127q-24 0 -55 12l-71 26q-18 6 -30 6q-18 0 -27 -10.5t-13 -34.5h-63q3 58 28 91t66 33q20 0 56 -13l71 -25q14 -6 34 -6q32 0 36 48z" />
    <glyph glyph-name="macroncmb" unicode="&#x304;" 
d="M-15 719v-79h-299v79h299z" />
    <glyph glyph-name="overlinecmb" unicode="&#x305;" 
d="M22 720v-80h-600v80h600z" />
    <glyph glyph-name="brevecomb" unicode="&#x306;" 
d="M-34 748v-11q0 -56 -38 -94t-94 -38t-94 38t-38 95v10h56q9 -66 77 -66q64 0 75 66h56z" />
    <glyph glyph-name="dotaccentcmb" unicode="&#x307;" 
d="M-108 743v-122h-110v122h110z" />
    <glyph glyph-name="diaeresiscomb" unicode="&#x308;" 
d="M-11 743v-122h-110v122h110zM-207 743v-122h-110v122h110z" />
    <glyph glyph-name="hookabovecomb" unicode="&#x309;" 
d="M-219 582v-18h-44v64h44q18 0 30 12t12 29q0 23 -13.5 33.5t-28.5 10.5q-20 0 -33 -16l-32 32q28 28 65 28q40 0 64 -25t24 -63q0 -36 -26 -61.5t-62 -25.5z" />
    <glyph glyph-name="ringcmb" unicode="&#x30a;" 
d="M-165 770q37 0 63 -26.5t26 -64.5q0 -37 -26.5 -63t-63.5 -26t-63.5 26t-26.5 64t26.5 64t64.5 26zM-165 722q-18 0 -30.5 -12.5t-12.5 -29.5t12.5 -29.5t30.5 -12.5q17 0 29 12.5t12 29.5t-12 29.5t-29 12.5z" />
    <glyph glyph-name="hungarumlautcmb" unicode="&#x30b;" 
d="M-181 757l-126 -147h-70l70 147h126zM7 757l-126 -147h-70l70 147h126z" />
    <glyph glyph-name="caroncmb" unicode="&#x30c;" 
d="M-114 607h-107l-103 150h78l82 -97l82 97h76z" />
    <glyph glyph-name="verticallineabovecmb" unicode="&#x30d;" 
d="M-130 588h-80v197h80v-197z" />
    <glyph glyph-name="dblverticallineabovecmb" unicode="&#x30e;" 
d="M-199 588h-80v197h80v-197zM-54 588h-80v197h80v-197z" />
    <glyph glyph-name="gravedblnosp" unicode="&#x30f;" 
d="M-189 757h126l70 -147h-70zM-377 757h126l70 -147h-70z" />
    <glyph glyph-name="uni0310" unicode="&#x310;" 
d="M-34 748v-11q0 -56 -38 -94t-94 -38t-94 38t-38 95v10h56q9 -66 77 -66q64 0 75 66h56zM-111 842v-122h-110v122h110z" />
    <glyph glyph-name="breveinvertedcmb" unicode="&#x311;" 
d="M-298 605v11q0 56 38 94t94 38t94 -38t38 -95v-10h-56q-9 66 -77 66q-64 0 -75 -66h-56z" />
    <glyph glyph-name="commaturnedabovecmb" unicode="&#x312;" 
d="M-141 570h-130v54q0 60 25 93.5t107 42.5v-47q-76 -14 -76 -83h74v-60z" />
    <glyph glyph-name="commaabovecmb" unicode="&#x313;" 
d="M-192 753h130v-54q0 -60 -25 -93.5t-107 -42.5v47q76 14 76 83h-74v60z" />
    <glyph glyph-name="commareversedabovecmb" unicode="&#x314;" 
d="M-67 753v-60h-74q0 -69 76 -83v-47q-82 9 -107 42.5t-25 93.5v54h130z" />
    <glyph glyph-name="commaaboverightcmb" unicode="&#x315;" 
d="M0 754h122v-103q0 -61 -34.5 -101.5t-87.5 -42.5v46q67 13 67 86v3h-67v112z" />
    <glyph glyph-name="uni0316" unicode="&#x316;" 
d="M-262 -47h126l70 -150h-70z" />
    <glyph glyph-name="uni0317" unicode="&#x317;" 
d="M-75 -45l-126 -150h-70l70 150h126z" />
    <glyph glyph-name="uni0318" unicode="&#x318;" 
d="M-162 -44h102v-256h-102v77h-127v102h127v77z" />
    <glyph glyph-name="uni0319" unicode="&#x319;" 
d="M-187 -300h-102v256h102v-77h127v-102h-127v-77z" />
    <glyph glyph-name="uni031A" unicode="&#x31a;" 
d="M-205 721h304v-304h-100v204h-204v100z" />
    <glyph glyph-name="horncomb" unicode="&#x31b;" 
d="M82 552q0 -127 -174 -127h-60v114h88q21 0 26.5 3t5.5 12q0 16 -23 45l87 73q27 -38 38.5 -62.5t11.5 -57.5z" />
    <glyph glyph-name="ringlefthalfsubnosp" unicode="&#x31c;" 
d="M-178 -268h-25q-47 0 -80 33t-33 79q0 47 33 80t80 33h25v-94h-25q-7 0 -13 -6t-6 -13t6 -12.5t13 -5.5h25v-94z" />
    <glyph glyph-name="uni031D" unicode="&#x31d;" 
d="M-299 -230v102h83v83h102v-83h83v-102h-268z" />
    <glyph glyph-name="uni031E" unicode="&#x31e;" 
d="M-31 -45v-102h-83v-83h-102v83h-83v102h268z" />
    <glyph glyph-name="uni031F" unicode="&#x31f;" 
d="M-31 -128v-102h-83v-83h-102v83h-83v102h83v83h102v-83h83z" />
    <glyph glyph-name="minusbelowcmb" unicode="&#x320;" 
d="M-46 -92v-80h-238v80h238z" />
    <glyph glyph-name="uni0321" unicode="&#x321;" 
d="M-113 60h113v-169q0 -49 -34 -86.5t-124 -37.5q-14 0 -43 6v99q32 -2 35 -2q32 0 42.5 11t10.5 43v136z" />
    <glyph glyph-name="uni0322" unicode="&#x322;" 
d="M0 -76q0 -32 10.5 -43t42.5 -11q3 0 35 2v-99q-29 -6 -43 -6q-90 0 -124 37.5t-34 86.5v169h113v-136z" />
    <glyph glyph-name="dotbelowcomb" unicode="&#x323;" 
d="M-111 -64v-122h-110v122h110z" />
    <glyph glyph-name="uni0324" unicode="&#x324;" 
d="M-14 -70v-122h-110v122h110zM-210 -70v-122h-110v122h110z" />
    <glyph glyph-name="ringbelowcmb" unicode="&#x325;" 
d="M-178 -56q37 0 63 -26.5t26 -64.5q0 -37 -26.5 -63t-63.5 -26t-63.5 26t-26.5 64t26.5 64t64.5 26zM-178 -104q-18 0 -30.5 -12.5t-12.5 -29.5t12.5 -29.5t30.5 -12.5q17 0 29 12.5t12 29.5t-12 29.5t-29 12.5z" />
    <glyph glyph-name="commasubnosp" unicode="&#x326;" 
d="M-226 -68h122v-108q0 -50 -35 -86.5t-87 -37.5v46q36 7 51.5 29.5t15.5 49.5h-67v107z" />
    <glyph glyph-name="cedillacmb" unicode="&#x327;" 
d="M-171 0h43l-29 -63q21 7 42 7q35 0 55.5 -19t20.5 -52q0 -45 -33.5 -69t-95.5 -24q-55 0 -138 28l19 52q69 -30 105 -30q24 0 40.5 12t16.5 29q0 16 -14 25.5t-37 9.5q-24 0 -49 -12z" />
    <glyph glyph-name="ogonekcmb" unicode="&#x328;" 
d="M-164 0h75q-64 -40 -86.5 -67.5t-22.5 -65.5q0 -50 76 -50q30 0 57 6v-47q-39 -10 -79 -10q-67 0 -105.5 25.5t-38.5 69.5t33 81t91 58z" />
    <glyph glyph-name="linevertsubnosp" unicode="&#x329;" 
d="M-123 -241h-80v197h80v-197z" />
    <glyph glyph-name="bridgebelowcmb" unicode="&#x32a;" 
d="M-305 -60h274v-137h-78v59h-118v-59h-78v137z" />
    <glyph glyph-name="dblarchinvertedbelowcmb" unicode="&#x32b;" 
d="M-14 -77v-34q0 -36 -27.5 -62t-64.5 -26q-34 0 -61 30q-27 -30 -62 -30q-36 0 -63.5 26t-27.5 62v34h52v-34q0 -36 37 -36q38 0 38 36v34h52v-34q0 -36 37 -36q38 0 38 36v34h52z" />
    <glyph glyph-name="caronbelowcmb" unicode="&#x32c;" 
d="M-114 -200h-107l-103 150h78l82 -97l82 97h76z" />
    <glyph glyph-name="circumflexbelowcmb" unicode="&#x32d;" 
d="M-227 -50h107l103 -150h-78l-82 97l-82 -97h-76z" />
    <glyph glyph-name="brevebelowcmb" unicode="&#x32e;" 
d="M-34 -52v-11q0 -56 -38 -94t-94 -38t-94 38t-38 95v10h56q9 -66 77 -66q64 0 75 66h56z" />
    <glyph glyph-name="breveinvertedbelowcmb" unicode="&#x32f;" 
d="M-301 -200v11q0 56 38 94t94 38t94 -38t38 -95v-10h-56q-9 66 -77 66q-64 0 -75 -66h-56z" />
    <glyph glyph-name="tildebelowcmb" unicode="&#x330;" 
d="M-51 -51h63q-6 -127 -95 -127q-24 0 -55 12l-71 26q-18 6 -30 6q-18 0 -27 -10.5t-13 -34.5h-63q3 58 28 91t66 33q20 0 56 -13l71 -25q14 -6 34 -6q32 0 36 48z" />
    <glyph glyph-name="macronbelowcmb" unicode="&#x331;" 
d="M-18 -81v-79h-299v79h299z" />
    <glyph glyph-name="lowlinecmb" unicode="&#x332;" 
d="M126 -92v-80h-566v80h566z" />
    <glyph glyph-name="dbllowlinecmb" unicode="&#x333;" 
d="M114 -55v-80h-566v80h566zM114 -178v-80h-566v80h566z" />
    <glyph glyph-name="tildeoverlaycmb" unicode="&#x334;" 
d="M-173 344h63q-6 -127 -95 -127q-24 0 -55 12l-71 26q-18 6 -30 6q-18 0 -27 -10.5t-13 -34.5h-63q3 58 28 91t66 33q20 0 56 -13l71 -25q14 -6 34 -6q32 0 36 48z" />
    <glyph glyph-name="strokeshortoverlaycmb" unicode="&#x335;" 
d="M-124 320v-79h-299v79h299z" />
    <glyph glyph-name="strokelongoverlaycmb" unicode="&#x336;" 
d="M16 306v-80h-566v80h566z" />
    <glyph glyph-name="solidusshortoverlaycmb" unicode="&#x337;" 
d="M-89 616h76l-612 -613h-76z" />
    <glyph glyph-name="soliduslongoverlaycmb" unicode="&#x338;" 
d="M-89 749h76l-612 -810h-76z" />
    <glyph glyph-name="ringrighthalfsubnosp" unicode="&#x339;" 
d="M-203 -28h25q47 0 80 -33t33 -79q0 -47 -33 -80t-80 -33h-25v94h25q7 0 13 6t6 13t-6 12.5t-13 5.5h-25v94z" />
    <glyph glyph-name="uni033A" unicode="&#x33a;" 
d="M-31 -198h-274v137h78v-59h118v59h78v-137z" />
    <glyph glyph-name="uni033B" unicode="&#x33b;" 
d="M-323 -39h261v-261h-261v261zM-138 -224v109h-109v-109h109z" />
    </font>
</defs>
</svg>
