<?xml version="1.0" standalone="no"?>
<!DOCTYPE svg PUBLIC "-//W3C//DTD SVG 1.1//EN" "http://www.w3.org/Graphics/SVG/1.1/DTD/svg11.dtd" >
<svg xmlns="http://www.w3.org/2000/svg" xmlns:xlink="http://www.w3.org/1999/xlink" version="1.1">
<metadata>
Created by FontForge 20200511 at Wed Sep 15 23:00:06 2010
 By convertio
Copyleft 2002, 2003, 2005, 2008, 2009, 2010 Free Software Foundation.
</metadata>
<defs>
<font id="FreeMonoBoldOblique" horiz-adv-x="600" >
  <font-face 
    font-family="FreeMono"
    font-weight="700"
    font-style="oblique"
    font-stretch="normal"
    units-per-em="1000"
    panose-1="2 7 8 9 2 2 5 9 4 4"
    ascent="800"
    descent="-200"
    x-height="437"
    cap-height="583"
    bbox="-642 -200 833 800"
    underline-thickness="50"
    underline-position="-150"
    slope="-12"
    unicode-range="U+0020-FFFD"
  />
<missing-glyph 
d="M100 0l124 584h400l-124 -584h-400zM221 100h200l82 384h-200z" />
    <glyph glyph-name="yodyodpatahhebrew" unicode="&#x5f2;&#x5b7;" 
d="M310 156h135q10 0 18 -8t8 -18t-8.5 -18.5t-17.5 -8.5h-135q-10 0 -18.5 8.5t-8.5 18.5t8.5 18t18.5 8zM132 420q0 22 18 41t44 19h172l-51 -240q-4 -21 -22 -35.5t-39 -14.5q-17 0 -28.5 11t-11.5 28q0 7 1 11l30 140h-72q-19 0 -30 11t-11 29zM404 420q0 22 18 41
t44 19h172l-51 -240q-4 -21 -22 -35.5t-39 -14.5q-17 0 -28.5 11t-11.5 28q0 7 1 11l30 140h-72q-19 0 -30 11t-11 29z" />
    <glyph glyph-name=".notdef" 
d="M100 0l124 584h400l-124 -584h-400zM221 100h200l82 384h-200z" />
    <glyph glyph-name=".null" horiz-adv-x="0" 
 />
    <glyph glyph-name="nonmarkingreturn" 
 />
    <glyph glyph-name="space" unicode=" " 
 />
    <glyph glyph-name="exclam" unicode="!" 
d="M490 525l-92 -297q-16 -49 -60 -49q-40 0 -40 40q0 6 1 9l34 297q14 113 102 113q29 0 47.5 -17t18.5 -44q0 -18 -11 -52zM305 -15h-17q-24 0 -39 15t-15 38q0 30 25.5 54.5t56.5 24.5h17q24 0 39 -14.5t15 -37.5q0 -31 -25 -55.5t-57 -24.5z" />
    <glyph glyph-name="quotedbl" unicode="&#x22;" 
d="M264 602h128l-86 -254q-12 -36 -39 -36q-10 0 -17 6.5t-7 16.5q0 1 0.5 5t0.5 7zM464 602h128l-85 -254q-12 -36 -40 -36q-10 0 -17 6.5t-7 16.5l1 5v7z" />
    <glyph glyph-name="numbersign" unicode="#" 
d="M165 384q0 23 17 41.5t61 18.5h27l47 168q17 63 65 63q16 0 28 -11t12 -26q0 -10 -6 -33l-46 -161h72l47 168q16 63 65 63q17 0 28.5 -11.5t11.5 -28.5q0 -5 -7 -30l-46 -161h25q28 0 42.5 -7.5t14.5 -32.5q0 -23 -18 -41.5t-60 -18.5h-32l-30 -106h19q29 0 43.5 -8
t14.5 -31t-18 -41.5t-61 -18.5h-26l-47 -168q-20 -63 -66 -63q-16 0 -27.5 11t-11.5 27q0 8 7 32l46 161h-72l-48 -168q-19 -63 -64 -63q-17 0 -28.5 11t-11.5 27q0 12 6 32l46 161h-26q-31 0 -44 9t-13 31t17 40.5t61 18.5h33l30 106h-20q-28 0 -42.5 8t-14.5 32zM414 344
h-72l-30 -106h71z" />
    <glyph glyph-name="dollar" unicode="$" 
d="M487 646q0 -11 -10 -54q4 -1 11 -2t12 -2l10 -3q22 -9 31 -11q17 7 29 7q17 0 28.5 -10.5t11.5 -26.5q0 -13 -4 -29l-7 -32q-14 -66 -64 -66q-43 0 -43 43q0 14 -23.5 24.5t-53.5 10.5q-49 0 -81 -20t-32 -51q0 -34 64 -47l62 -14q73 -16 104.5 -45.5t31.5 -82.5
q0 -76 -57 -133.5t-150 -74.5l-18 -83l-1 -4l-1.5 -7.5t-2.5 -8t-3.5 -9t-4.5 -9t-6.5 -9.5t-8 -8t-9.5 -6.5t-12 -4t-14 -1.5q-17 0 -28.5 10.5t-11.5 26.5q0 13 4 30l18 83q-44 10 -74 25q-24 -18 -43 -18q-18 0 -29.5 10.5t-11.5 27.5q0 8 4 29l13 61q14 67 65 67
q7 0 12.5 -1t9 -3.5t6.5 -4t5 -6t3.5 -6.5t2 -7.5t0.5 -7t1 -7.5v-6q2 -23 32.5 -39.5t73.5 -16.5q53 0 91.5 26.5t38.5 63.5t-69 51l-70 15q-123 26 -123 123q0 67 52.5 121.5t129.5 67.5l6 26q12 66 64 66q17 0 28 -11t11 -27z" />
    <glyph glyph-name="percent" unicode="%" 
d="M360 617q50 0 81.5 -31t31.5 -80q0 -65 -53 -116.5t-121 -51.5q-48 0 -79.5 31.5t-31.5 79.5q0 64 53 116t119 52zM346 552q-35 0 -63.5 -27.5t-28.5 -61.5q0 -26 17 -43t43 -17q36 0 64.5 27.5t28.5 62.5q0 26 -17 42.5t-44 16.5zM562 331l-388 -118q-11 -4 -21 -4
t-16 7.5t-6 18.5q0 26 37 37l387 118q13 4 21 4q23 0 23 -26q0 -27 -37 -37zM425 264q50 0 81.5 -31t31.5 -80q0 -65 -53 -116.5t-121 -51.5q-48 0 -79.5 31.5t-31.5 79.5q0 64 53 116t119 52zM411 199q-35 0 -63 -28t-28 -62q0 -25 17 -42t42 -17q36 0 64.5 27.5t28.5 61.5
q0 27 -17 43.5t-44 16.5z" />
    <glyph glyph-name="ampersand" unicode="&#x26;" 
d="M520 60q0 -23 -18 -41.5t-60 -18.5h-61l-8 15q-47 -29 -118 -29t-112 32t-41 88q0 60 35.5 112.5t98.5 84.5q-17 43 -17 71q0 64 59.5 120t127.5 56q33 0 67 -17q17 7 30 7q15 0 26.5 -12t11.5 -27q0 -21 -11.5 -34.5t-41.5 -28.5l-47 -22q-29 34 -56 34q-24 0 -44 -18
t-20 -40q0 -13 17 -49l69 -145l41 82h52q29 0 43 -7.5t14 -31.5q0 -23 -16.5 -41t-38.5 -20q-25 -53 -47 -80h8q28 0 42.5 -7.5t14.5 -32.5zM333 100l-58 120q-71 -31 -71 -91q0 -43 71 -43q31 0 58 14z" />
    <glyph glyph-name="quotesingle" unicode="'" 
d="M364 602h128l-85 -254q-12 -36 -40 -36q-10 0 -17 6.5t-7 16.5q0 1 0.5 5t0.5 7z" />
    <glyph glyph-name="parenleft" unicode="(" 
d="M416 140q0 -61 13 -109.5t25.5 -78.5t12.5 -44q0 -24 -19 -42.5t-43 -18.5q-25 0 -35 19q-28 47 -47 123.5t-19 141.5q0 200 167 416q40 51 60 68t41 17q18 0 29.5 -11t11.5 -28q0 -20 -20 -44q-92 -111 -134.5 -209t-42.5 -200z" />
    <glyph glyph-name="parenright" unicode=")" 
d="M291 340q0 61 -12.5 109.5t-25.5 78t-13 43.5q0 24 18.5 42.5t43.5 18.5t35 -19q28 -47 47 -123.5t19 -141.5q0 -104 -39.5 -203t-127.5 -213q-39 -50 -59.5 -67.5t-41.5 -17.5q-18 0 -29.5 11t-11.5 28q0 20 20 44q94 113 135.5 209.5t41.5 200.5z" />
    <glyph glyph-name="asterisk" unicode="*" 
d="M298 372l-80 28q-23 8 -31.5 16.5t-8.5 24.5q0 23 18.5 42t41.5 19q8 0 31 -7l80 -28l19 89q15 66 64 66q17 0 28.5 -11t11.5 -27q0 -11 -4 -28l-19 -89l92 28q26 7 35 7q16 0 27 -11.5t11 -28.5q0 -43 -62 -62l-92 -28l37 -71q11 -22 11 -34q0 -22 -19.5 -40.5
t-42.5 -18.5q-15 0 -24 6.5t-19 27.5l-36 72l-68 -72q-19 -21 -30 -27.5t-26 -6.5q-18 0 -29.5 11.5t-11.5 28.5q0 21 29 53z" />
    <glyph glyph-name="plus" unicode="+" 
d="M619 290q0 -23 -18 -41.5t-60 -18.5h-142l-34 -164q-15 -66 -64 -66q-17 0 -28.5 10.5t-11.5 26.5q0 11 4 29l34 164h-141q-31 0 -44 9t-13 31q0 23 17 41.5t61 18.5h142l34 164q15 66 65 66q17 0 28.5 -11t11.5 -27q0 -4 -5 -28l-34 -164h141q31 0 44 -7.5t13 -32.5z
" />
    <glyph glyph-name="comma" unicode="," 
d="M246 134h133l-198 -268q-18 -24 -37 -24q-11 0 -18.5 6.5t-7.5 15.5t8 25z" />
    <glyph glyph-name="hyphen" unicode="-" 
d="M619 290q0 -24 -18 -42.5t-60 -18.5h-383q-31 0 -44 9t-13 31q0 23 18 41.5t60 18.5h383q28 0 42.5 -8t14.5 -31z" />
    <glyph glyph-name="period" unicode="." 
d="M305 -15h-17q-24 0 -39 15t-15 38q0 30 25.5 54.5t56.5 24.5h17q24 0 39 -14.5t15 -37.5q0 -31 -25 -55.5t-57 -24.5z" />
    <glyph glyph-name="slash" unicode="/" 
d="M636 610l-465 -679q-17 -25 -30 -34.5t-31 -9.5q-17 0 -29 11.5t-12 27.5t21 47l465 678q17 25 30 34.5t31 9.5q17 0 28.5 -11t11.5 -28q0 -16 -20 -46z" />
    <glyph glyph-name="zero" unicode="0" 
d="M593 359l-20 -95q-28 -135 -107 -207t-170 -72q-80 0 -123 50.5t-43 143.5q0 43 9 85l20 95q28 135 106.5 207t170.5 72q80 0 123 -50.5t43 -143.5q0 -43 -9 -85zM260 366l-22 -109q-7 -28 -7 -62q0 -52 23 -81t64 -29q53 0 95 47t58 125l23 109q7 28 7 62q0 52 -23 81
t-64 29q-53 0 -95.5 -47t-58.5 -125z" />
    <glyph glyph-name="one" unicode="1" 
d="M170 100h101l91 428l-94 -58q-18 -13 -44 -13q-15 0 -24.5 8.5t-9.5 22.5q0 33 42 58l155 92h99l-115 -538h101q57 0 57 -36q0 -10 -2.5 -19.5t-10 -20.5t-24.5 -17.5t-41 -6.5h-302q-57 0 -57 38q0 62 78 62z" />
    <glyph glyph-name="two" unicode="2" 
d="M173 460q0 16 16 43.5t45.5 58.5t80.5 53.5t111 22.5q78 0 127 -43t49 -111q0 -20 -3.5 -39t-14 -38t-18 -33t-27 -33.5l-29.5 -29.5t-37 -31t-37 -29t-42.5 -31.5t-41.5 -30.5l-124 -89h202q15 54 61 54q17 0 28.5 -11t11.5 -27q0 -11 -4 -28l-19 -88h-454l22 105
l274 196q98 70 124 100t26 64q0 32 -27.5 52.5t-69.5 20.5q-38 0 -64.5 -12t-40.5 -29t-25 -34t-25 -29t-34 -12q-17 0 -29 11t-12 27z" />
    <glyph glyph-name="three" unicode="3" 
d="M286 85q55 0 93.5 11t57 30t25.5 37t7 38q0 32 -29.5 57.5t-102.5 28.5q-43 3 -43 37q0 23 19 41t44 18h41q42 0 75.5 29t33.5 65q0 28 -26 44.5t-71 16.5q-42 0 -69.5 -9.5t-38 -21t-24.5 -21t-32 -9.5q-17 0 -28.5 11.5t-11.5 27.5q0 47 72 84.5t160 37.5q79 0 125 -39
t46 -104q0 -98 -115 -159q-2 0 -7 -3q84 -46 84 -122q0 -36 -21.5 -79t-55.5 -74q-42 -39 -95 -56t-131 -17q-84 0 -136 20.5t-52 52.5q0 25 18.5 43.5t43.5 18.5q10 0 19 -5.5t17.5 -12t36.5 -12t71 -5.5z" />
    <glyph glyph-name="four" unicode="4" 
d="M252 40q0 23 18 41.5t60 18.5h38l8 38h-272l18 83l326 401h131l-82 -384q52 0 52 -40q0 -21 -17 -40.5t-56 -19.5l-8 -38q52 0 52 -40q0 -23 -18 -41.5t-61 -18.5h-132q-31 0 -44 9.5t-13 30.5zM397 238l52 242l-201 -242h149z" />
    <glyph glyph-name="five" unicode="5" 
d="M610 583q0 -24 -18 -42.5t-60 -18.5h-202l-24 -115q60 17 104 17q76 0 122 -46.5t46 -122.5q0 -31 -7.5 -63.5t-28.5 -70.5t-53 -67.5t-88 -49t-127 -19.5q-82 0 -136.5 25t-54.5 62q0 24 19 42.5t43 18.5q12 0 22 -7.5t19.5 -16.5t37.5 -16.5t71 -7.5q55 0 93 14.5
t56 38.5t25 47.5t7 50.5q0 40 -24 64t-65 24q-40 0 -96 -21t-62 -21q-17 0 -28.5 11t-11.5 27v2q0 4 2 16l61 284h301q29 0 43 -7.5t14 -31.5z" />
    <glyph glyph-name="six" unicode="6" 
d="M600 522q-12 0 -29.5 6.5t-27.5 6.5q-80 0 -154 -59.5t-113 -151.5q83 70 152 70q65 0 109 -44.5t44 -111.5q0 -20 -6 -47.5t-23.5 -64.5t-44 -67.5t-73.5 -52t-106 -21.5q-174 0 -174 195q0 71 18.5 134.5t44.5 106.5t62 80t63.5 57t55.5 36q79 44 161 44q47 0 75.5 -15
t28.5 -40q0 -23 -19.5 -42t-43.5 -19zM401 294q-42 0 -91 -35.5t-49 -64.5q0 -109 91 -109q37 0 64 16t39.5 39.5t17.5 42t5 31.5q0 34 -22 57t-55 23z" />
    <glyph glyph-name="seven" unicode="7" 
d="M513 522h-228q-15 -54 -61 -54q-17 0 -28.5 11t-11.5 27q0 11 4 28l19 88h433l-21 -99l-260 -475q-27 -49 -64 -49q-16 0 -28.5 11.5t-12.5 26.5q0 14 16 44z" />
    <glyph glyph-name="eight" unicode="8" 
d="M185 429q0 72 72.5 140.5t177.5 68.5q76 0 124.5 -42t48.5 -107q0 -99 -121 -170q69 -48 69 -121q0 -72 -57 -134q-34 -36 -89 -57.5t-115 -21.5q-84 0 -132.5 38.5t-48.5 105.5q0 116 134 190q-63 49 -63 110zM413 538q-54 0 -91 -30.5t-37 -74.5q0 -31 25 -50t66 -19
q53 0 91 30t38 72q0 34 -24.5 53t-67.5 19zM357 263q-56 0 -97.5 -31.5t-41.5 -73.5q0 -34 27 -53.5t73 -19.5q57 0 97.5 30t40.5 72q0 33 -28 54.5t-71 21.5z" />
    <glyph glyph-name="nine" unicode="9" 
d="M178 101q13 0 29.5 -6.5t27.5 -6.5q78 0 153 59t114 152q-82 -70 -152 -70q-65 0 -109 44.5t-44 111.5q0 19 5.5 46.5t23 65t43.5 68t73.5 52t107.5 21.5q174 0 174 -195q0 -71 -18.5 -134.5t-44.5 -106.5t-62 -80t-63.5 -57t-55.5 -36q-79 -44 -161 -44q-47 0 -75.5 15
t-28.5 40q0 23 19.5 42t43.5 19zM377 329q42 0 91 36.5t49 62.5q0 110 -91 110q-37 0 -64 -16t-39.5 -40t-17.5 -42.5t-5 -31.5q0 -34 22 -56.5t55 -22.5z" />
    <glyph glyph-name="colon" unicode=":" 
d="M305 -15h-17q-24 0 -39 15t-15 38q0 30 25.5 54.5t56.5 24.5h17q24 0 39 -14.5t15 -37.5q0 -31 -25 -55.5t-57 -24.5zM373 304h-17q-24 0 -39 15t-15 38q0 31 25 55.5t57 24.5h17q24 0 39 -15t15 -38q0 -31 -25 -55.5t-57 -24.5z" />
    <glyph glyph-name="semicolon" unicode=";" 
d="M247 134h132l-198 -268q-18 -24 -37 -24q-11 0 -18.5 6.5t-7.5 15.5t8 25zM368 437q63 0 63 -53q0 -34 -26.5 -57t-64.5 -23q-62 0 -62 53q0 33 26.5 56.5t63.5 23.5z" />
    <glyph glyph-name="less" unicode="&#x3c;" 
d="M609 501q9 0 21 -9.5t12 -28.5q0 -32 -42 -51l-289 -133l232 -136q24 -15 24 -34q0 -18 -17 -36.5t-36 -18.5q-13 0 -28 9l-384 217l475 212q19 9 32 9z" />
    <glyph glyph-name="equal" unicode="=" 
d="M120 362q0 23 17 41.5t61 18.5h383q31 0 44 -7.5t13 -32.5q0 -23 -18 -41.5t-60 -18.5h-383q-31 0 -44 9t-13 31zM81 178q0 23 17 41.5t61 18.5h383q31 0 44 -7.5t13 -32.5q0 -23 -18 -41.5t-60 -18.5h-383q-31 0 -44 9t-13 31z" />
    <glyph glyph-name="greater" unicode="&#x3e;" 
d="M109 53q-9 0 -21 9.5t-12 28.5q0 32 42 51l289 133l-232 137q-24 13 -24 33q0 21 18 38t35 17q13 0 28 -9l384 -217l-475 -212q-19 -9 -32 -9z" />
    <glyph glyph-name="question" unicode="?" 
d="M608 450q0 -45 -16 -81t-48 -62t-64 -43t-79 -36q-18 -54 -62 -54q-16 0 -28 11t-12 26q0 5 5 29l11 56q113 40 152 67t39 65q0 33 -24 51.5t-67 18.5q-57 0 -111 -24l-3 -14q-13 -51 -41 -62q-11 -4 -23 -4q-17 0 -28.5 10.5t-11.5 26.5q0 12 4 29l17 79q82 35 125.5 47
t92.5 12q80 0 126 -39.5t46 -108.5zM308 -15h-18q-24 0 -39 15t-15 38q0 30 25.5 54.5t56.5 24.5h18q23 0 38 -14.5t15 -37.5q0 -31 -25 -55.5t-56 -24.5z" />
    <glyph glyph-name="at" unicode="@" 
d="M534 122q0 -19 -14 -34.5t-51 -15.5h-73q-60 0 -97 34t-37 90q0 77 67 136t163 66q9 43 9 60q0 38 -22.5 60.5t-61.5 22.5q-63 0 -119 -64t-76 -160l-33 -156q-10 -44 -10 -83q0 -152 110 -152q44 0 73.5 12t45 24.5t26.5 12.5q14 0 23 -9t9 -23q0 -38 -59.5 -66.5
t-137.5 -28.5q-51 0 -87 20t-53 54t-24 67t-7 70q0 49 10 95l36 169q28 129 109.5 213t179.5 84q68 0 108.5 -40t40.5 -107q0 -19 -5 -44l-60 -281q17 -8 17 -26zM440 155l34 161q-56 -5 -93.5 -35t-37.5 -70q0 -25 19.5 -41.5t50.5 -16.5q13 0 27 2z" />
    <glyph glyph-name="A" unicode="A" 
d="M360 40q0 24 18 42t60 18h23l-11 58h-238l-36 -58h23q28 0 42.5 -7.5t14.5 -32.5q0 -23 -18 -41.5t-60 -18.5h-132q-31 0 -44 9t-13 31q0 24 18 42t61 18l236 383h-63q-31 0 -44 9t-13 31q0 23 17 41.5t61 18.5h216l97 -483q29 0 43.5 -7.5t14.5 -32.5q0 -23 -18 -41.5
t-60 -18.5h-139q-30 0 -43 9t-13 31zM430 258l-38 192l-119 -192h157z" />
    <glyph glyph-name="B" unicode="B" 
d="M22 40q0 23 18 41.5t60 18.5h15l81 383h-15q-31 0 -43.5 9t-12.5 31q0 24 18 42t60 18h252q88 0 126.5 -42t38.5 -93q0 -83 -91 -143q79 -43 79 -116q0 -70 -59 -126q-66 -63 -175 -63h-295q-31 0 -44 9.5t-13 30.5zM266 342h113q59 0 99 25.5t40 63.5q0 25 -23.5 38.5
t-65.5 13.5h-133zM215 100h175q114 0 114 66q0 35 -33.5 55.5t-90.5 20.5h-135z" />
    <glyph glyph-name="C" unicode="C" 
d="M538 404l1 23q0 28 -37.5 49t-86.5 21q-56 0 -100 -25t-68 -59.5t-39.5 -77t-20.5 -72t-5 -49.5q0 -59 44.5 -93.5t120.5 -34.5q48 0 84.5 11.5t53 25t33 25t29.5 11.5q17 0 29 -12t12 -29q0 -43 -77 -87.5t-187 -44.5q-111 0 -177.5 57t-66.5 152q0 27 6 54l14 66
q26 120 121 201t211 81q70 0 144 -38q24 24 47 24q17 0 28.5 -11t11.5 -27q0 -11 -4 -28l-18 -84q-15 -66 -64 -66q-17 0 -28 10.5t-11 26.5z" />
    <glyph glyph-name="D" unicode="D" 
d="M23 40q0 21 17.5 40.5t55.5 19.5l81 383q-51 0 -51 40q0 23 17 41.5t61 18.5h213q92 0 148.5 -59t56.5 -155q0 -155 -93.5 -262t-243.5 -107h-205q-31 0 -44 9.5t-13 30.5zM520 350q0 52 -30.5 92.5t-102.5 40.5h-110l-81 -383h110q165 0 200 161l10 46q4 19 4 43z" />
    <glyph glyph-name="E" unicode="E" 
d="M352 342q2 13 6 27t19.5 30.5t39.5 16.5q17 0 28.5 -11t11.5 -27q0 -9 -4 -29l-25 -113q-14 -66 -63 -66q-17 0 -28.5 10.5t-11.5 26.5t6 36h-85l-30 -143h255l12 52q13 67 63 67q17 0 29 -10.5t12 -26.5q0 -12 -4 -30l-33 -152h-470q-57 0 -57 40q0 24 17.5 42t60.5 18
h15l81 383h-15q-31 0 -44 9t-13 31q0 23 17 41.5t62 18.5h448l-32 -150q-13 -67 -64 -67q-17 0 -28.5 11t-11.5 27t15 79h-234l-30 -141h85z" />
    <glyph glyph-name="F" unicode="F" 
d="M351 342l2 8q2 8 3 11.5t4 11.5t6 12.5t8 11t11 10t14 6t18 2.5q17 0 28.5 -11t11.5 -27q0 -4 -5 -28l-24 -113q-13 -67 -64 -67q-17 0 -28 10.5t-11 26.5q0 17 6 37h-85l-30 -143h99q28 0 42.5 -8t14.5 -31t-18 -42t-60 -19h-214q-31 0 -44 9.5t-13 30.5q0 23 18 41.5
t60 18.5h15l81 383h-15q-31 0 -44 9t-13 31q0 23 17 41.5t62 18.5h470l-32 -151q-15 -66 -64 -66q-17 0 -28.5 10.5t-11.5 26.5q0 11 15 80h-256l-30 -141h84z" />
    <glyph glyph-name="G" unicode="G" 
d="M585 280q28 0 42.5 -8t14.5 -31q0 -46 -54 -61l-28 -132q-75 -36 -124 -49t-109 -13q-43 0 -81.5 8t-78.5 27.5t-64 61t-24 101.5q0 25 7 62l15 71q24 114 119 197t224 83q82 0 139 -32q21 32 47 32q16 0 26.5 -10.5t10.5 -26.5q0 -10 -4 -29l-17 -78q-16 -66 -64 -66
q-17 0 -25.5 8.5t-10 16.5t-2.5 28q-2 26 -34 41.5t-87 15.5q-83 0 -144.5 -49.5t-77.5 -130.5q-20 -93 -20 -118q0 -54 42 -83.5t119 -29.5q69 0 132 25l14 69h-99q-31 0 -44 9t-13 31q0 23 17 41.5t61 18.5h175z" />
    <glyph glyph-name="H" unicode="H" 
d="M337 40q0 23 18 41.5t60 18.5h15l30 141h-214l-30 -141h14q28 0 42.5 -7.5t14.5 -32.5q0 -23 -18 -41.5t-60 -18.5h-121q-30 0 -43 9t-13 31q0 23 18 41.5t60 18.5h6l81 383q-42 3 -42 40q0 23 17 41.5t61 18.5h100q28 0 42.5 -7.5t14.5 -31.5t-18 -42.5t-60 -18.5h-15
l-30 -142h214l30 142h-15q-28 0 -42 8t-14 32q0 23 17 41.5t61 18.5h100q28 0 42.5 -7.5t14.5 -31.5q0 -25 -18 -42t-46 -19l-81 -383h6q28 0 42 -8t14 -32q0 -23 -17.5 -41.5t-59.5 -18.5h-121q-31 0 -44 9t-13 31z" />
    <glyph glyph-name="I" unicode="I" 
d="M632 544q0 -24 -18 -42.5t-60 -18.5h-101l-81 -383h100q28 0 42.5 -7.5t14.5 -31.5t-18 -42.5t-60 -18.5h-301q-31 0 -44 9t-13 31q0 24 18 42t60 18h101l81 383h-101q-31 0 -43.5 9t-12.5 31q0 24 18 42t60 18h301q29 0 43 -7.5t14 -31.5z" />
    <glyph glyph-name="J" unicode="J" 
d="M727 543q0 -23 -18 -41.5t-60 -18.5h-57l-63 -296q-14 -67 -60.5 -114.5t-99 -67t-103.5 -19.5q-84 0 -202 65l34 162q13 67 65 67q17 0 28.5 -10.5t11.5 -26.5q0 -11 -4 -30l-21 -96q63 -31 110 -31q26 0 51 6.5t53.5 33.5t38.5 72l61 285h-119q-31 0 -44 9t-13 31
q0 23 17 41.5t61 18.5h276q19 0 29.5 -2t19 -11.5t8.5 -26.5z" />
    <glyph glyph-name="K" unicode="K" 
d="M614 61q0 -24 -18.5 -42.5t-60.5 -18.5h-109q-13 107 -44 176t-74 83l-70 -51l-23 -108h35q28 0 42 -8t14 -32q0 -22 -18 -41t-60 -19h-149q-31 0 -44 9.5t-13 30.5q0 24 18 42t60 18h15l81 383h-15q-31 0 -43.5 9t-12.5 31q0 23 17 41.5t61 18.5h149q19 0 29.5 -2
t19 -11.5t8.5 -26.5q0 -23 -18 -41.5t-60 -18.5h-35l-31 -149l210 153q-23 9 -23 33q0 26 18 44.5t60 18.5h101q28 0 42 -7.5t14 -31.5q0 -23 -17.5 -42t-56.5 -19l-209 -153q41 -24 73 -84t48 -146h32q29 0 43 -8t14 -31z" />
    <glyph glyph-name="L" unicode="L" 
d="M493 543q0 -23 -18 -41.5t-60 -18.5h-57l-81 -383h215l20 92q13 67 64 67q17 0 28.5 -11t11.5 -27q0 -9 -4 -29l-41 -192h-472q-31 0 -44 9.5t-13 30.5q0 24 18 42t60 18h57l81 383h-56q-31 0 -44 9t-13 31q0 23 17 41.5t61 18.5h213q19 0 29.5 -2t19 -11.5t8.5 -26.5z
" />
    <glyph glyph-name="M" unicode="M" 
d="M370 40q0 24 18 42t60 18h35l61 289l-164 -251h-91l-65 251l-61 -289h35q28 0 42 -7.5t14 -31.5q0 -23 -18 -42t-60 -19h-129q-31 0 -44 9t-13 31q0 21 17 40.5t56 19.5l81 383q-42 4 -42 40q0 23 17 41.5t61 18.5h108l75 -297l199 297h109q28 0 42.5 -7.5t14.5 -31.5
q0 -10 -4 -21.5t-19.5 -24.5t-40.5 -15l-81 -383q51 0 51 -39q0 -24 -18 -42.5t-60 -18.5h-129q-31 0 -44 9t-13 31z" />
    <glyph glyph-name="N" unicode="N" 
d="M706 543q0 -21 -17.5 -40.5t-55.5 -19.5l-103 -483h-98l-176 394l-62 -294h35q28 0 42 -7.5t14 -31.5q0 -23 -18 -42t-60 -19h-129q-31 0 -44 9t-13 31q0 21 17 40.5t56 19.5l81 383h-15q-31 0 -43.5 9t-12.5 31q0 23 18 41.5t60 18.5h114l175 -392l62 292h-35
q-31 0 -43.5 9t-12.5 31q0 24 17.5 42t59.5 18h130q19 0 29.5 -2t19 -11.5t8.5 -26.5z" />
    <glyph glyph-name="O" unicode="O" 
d="M75 220q0 80 34 152.5t86 120.5t113.5 76t117.5 28q96 0 159.5 -66t63.5 -165q0 -82 -33.5 -155t-86 -121t-114 -76t-118.5 -28q-95 0 -158.5 67t-63.5 167zM405 497q-86 0 -156.5 -79t-70.5 -175q0 -68 39.5 -112.5t99.5 -44.5q88 0 158.5 79t70.5 177q0 67 -40 111
t-101 44z" />
    <glyph glyph-name="P" unicode="P" 
d="M125 523q0 23 17 41.5t61 18.5h233q84 0 132.5 -40.5t48.5 -111.5q0 -77 -59 -142q-42 -48 -93 -68.5t-130 -20.5h-98l-21 -100h98q29 0 43 -7.5t14 -31.5q0 -23 -18 -42t-60 -19h-213q-31 0 -44 9.5t-13 30.5q0 23 18 41.5t60 18.5h15l81 383h-15q-31 0 -44 9t-13 31z
M297 483l-39 -183h118q59 0 96 32t37 82q0 32 -25 50.5t-69 18.5h-118z" />
    <glyph glyph-name="Q" unicode="Q" 
d="M200 7q-55 35 -78 65q-47 60 -47 148q0 95 50 182.5t131.5 141t170.5 53.5q96 0 159 -66.5t63 -167.5q0 -90 -45.5 -171t-127.5 -139q-84 -60 -190 -60q-9 0 -17 1l-8 -24q31 5 51 5q30 0 71 -10t51 -10q20 0 47.5 16t42.5 16q18 0 29.5 -11t11.5 -28q0 -37 -52.5 -65
t-99.5 -28q-25 0 -59 14t-59 14q-34 0 -92.5 -13t-68.5 -13q-16 0 -27 11.5t-11 27.5q0 27 29 51zM405 497q-86 0 -157 -79t-71 -176q0 -67 40 -112t100 -45q88 0 158.5 79t70.5 178q0 67 -40 111t-101 44z" />
    <glyph glyph-name="R" unicode="R" 
d="M631 60q0 -22 -18 -41t-60 -19h-78q-23 74 -65.5 142.5t-71.5 79.5h-96l-26 -122h35q28 0 42 -8t14 -32q0 -22 -18 -41t-60 -19h-149q-31 0 -44 9t-13 31q0 23 18 41.5t60 18.5h15l81 383h-15q-31 0 -43.5 9t-12.5 31q0 23 17 41.5t61 18.5h223q86 0 135.5 -38.5
t49.5 -106.5q0 -113 -143 -184q52 -56 92 -154h13q32 0 44.5 -9t12.5 -31zM263 322h76q68 0 116.5 28.5t48.5 69.5q0 28 -26 45.5t-69 17.5h-112z" />
    <glyph glyph-name="S" unicode="S" 
d="M273 411q0 -29 31 -45t76 -24.5t89.5 -20.5t75.5 -42.5t31 -79.5q0 -92 -77 -152.5t-193 -60.5q-82 0 -148 39q-27 -24 -46 -24q-17 0 -28.5 10.5t-11.5 26.5q0 13 4 29l14 66q15 66 65 66q24 0 30.5 -11t8.5 -37q2 -27 39 -46t86 -19q62 0 106.5 25.5t44.5 61.5
q0 26 -27 41.5t-63 20.5t-82.5 16.5t-74.5 29.5q-56 38 -56 104q0 87 76 149.5t182 62.5q78 0 123 -33q21 33 46 33q18 0 29 -10t11 -26q0 -12 -4 -30l-19 -88q-13 -67 -64 -67q-11 0 -19 3.5t-11.5 6.5t-5.5 12.5t-2.5 13.5t-0.5 18q0 30 -28.5 48.5t-75.5 18.5
q-53 0 -92 -26t-39 -60z" />
    <glyph glyph-name="T" unicode="T" 
d="M128 40q0 24 18 42t60 18h64l82 383h-107l-20 -93q-13 -51 -41 -62q-11 -4 -23 -4q-16 0 -28 11t-12 26q0 13 4 29l41 193h516l-41 -193q-14 -66 -64 -66q-17 0 -28.5 10.5t-11.5 26.5q0 12 4 29l20 93h-109l-82 -383h66q28 0 42.5 -8t14.5 -31t-18 -42t-60 -19h-231
q-56 0 -56 40z" />
    <glyph glyph-name="U" unicode="U" 
d="M648 583q28 0 42.5 -7.5t14.5 -31.5q0 -26 -19.5 -43.5t-53.5 -17.5l-59 -278q-19 -93 -98.5 -156t-176.5 -63q-82 0 -135 49t-53 123q0 26 5 47l59 278q-51 0 -51 40q0 23 17 41.5t61 18.5h130q28 0 42 -7t14 -32q0 -24 -17.5 -42.5t-60.5 -18.5h-35l-61 -287
q-2 -14 -2 -20q0 -39 30.5 -64.5t77.5 -25.5q53 0 97.5 32t54.5 78l61 287h-35q-31 0 -43.5 9t-12.5 31q0 23 17 41.5t61 18.5h129z" />
    <glyph glyph-name="V" unicode="V" 
d="M358 543q0 -23 -18 -41.5t-60 -18.5h-19l72 -339l217 339h-25q-28 0 -42 8t-14 32q0 23 17 41.5t61 18.5h131q19 0 29.5 -2t19 -11.5t8.5 -26.5q0 -60 -80 -60l-308 -483h-98l-100 483h-12q-46 3 -46 40q0 23 17 41.5t61 18.5h133q31 0 43.5 -9t12.5 -31z" />
    <glyph glyph-name="W" unicode="W" 
d="M668 583q28 0 42.5 -7.5t14.5 -31.5q0 -23 -16 -39.5t-42 -21.5l-163 -483h-110l-35 277l-150 -277h-111l41 483q-37 4 -37 36q0 25 17 44.5t61 19.5h132q19 0 29.5 -2t19 -11.5t8.5 -26.5q0 -23 -18.5 -41.5t-60.5 -18.5h-48l-21 -272l124 226h103l28 -226l94 272h-54
q-31 0 -43.5 9t-12.5 31q0 23 17 41.5t61 18.5h130z" />
    <glyph glyph-name="X" unicode="X" 
d="M635 583q28 0 42.5 -7.5t14.5 -31.5q0 -26 -19.5 -43t-49.5 -18l-196 -186l125 -197q49 0 49 -40q0 -23 -18 -41.5t-60 -18.5h-110q-31 0 -44 9t-13 31q0 10 3.5 20.5t19.5 24t44 15.5l-76 120l-128 -120q45 -2 45 -40q0 -23 -18 -41.5t-60 -18.5h-110q-31 0 -44 9
t-13 31q0 26 19.5 43t50.5 17l209 198l-119 185q-48 1 -48 40q0 23 17 41.5t61 18.5h91q29 0 43 -7.5t14 -31.5q0 -37 -49 -60l71 -109l116 109q-17 10 -22.5 17.5t-5.5 21.5q0 24 18 42t60 18h90z" />
    <glyph glyph-name="Y" unicode="Y" 
d="M694 544q0 -22 -17.5 -41.5t-56.5 -19.5h-3l-215 -238l-30 -145h65q28 0 42.5 -8t14.5 -31t-18 -42t-60 -19h-231q-31 0 -44 9.5t-13 30.5q0 24 17.5 42t60.5 18h66l30 145l-114 238h-6q-48 0 -48 40q0 24 18 42t60 18h90q28 0 42 -7.5t14 -31.5q0 -41 -50 -61l66 -135
l123 135q-30 12 -30 40q0 24 18 42t60 18h93q28 0 42 -7.5t14 -31.5z" />
    <glyph glyph-name="Z" unicode="Z" 
d="M222 100h226l16 72q13 66 64 66q17 0 28.5 -11t11.5 -27q0 -9 -4 -28l-37 -172h-454l21 100l383 383h-178l-15 -70q-15 -66 -65 -66q-16 0 -28 11t-12 26q0 5 5 29l36 170h408l-21 -97z" />
    <glyph glyph-name="bracketleft" unicode="[" 
d="M598 588q0 -24 -18 -42.5t-60 -18.5h-58l-122 -575h59q28 0 42.5 -8t14.5 -31q0 -24 -18 -42.5t-60 -18.5h-159l165 775h158q28 0 42 -7.5t14 -31.5z" />
    <glyph glyph-name="backslash" unicode="\" 
d="M322 651l177 -678q5 -18 5 -27q0 -22 -19 -40.5t-42 -18.5q-19 0 -27.5 9t-15.5 35l-176 679q-5 16 -5 26q0 22 19 40.5t42 18.5q18 0 26.5 -9t15.5 -35z" />
    <glyph glyph-name="bracketright" unicode="]" 
d="M104 -109q0 24 18 42.5t60 18.5h58l122 575h-59q-28 0 -42.5 8t-14.5 31q0 24 18 42.5t60 18.5h159l-165 -775h-158q-28 0 -42 7.5t-14 31.5z" />
    <glyph glyph-name="asciicircum" unicode="^" 
d="M404 494l-147 -138q-21 -20 -31 -25.5t-24 -5.5q-18 0 -29.5 11.5t-11.5 28.5q0 23 32 54l245 233l146 -233q14 -22 14 -35q0 -22 -19.5 -40.5t-42.5 -18.5q-14 0 -22 5.5t-20 24.5z" />
    <glyph glyph-name="underscore" unicode="_" 
d="M578 -100l-21 -100h-600l21 100h600z" />
    <glyph glyph-name="grave" unicode="`" 
d="M347 650l80 -81q17 -17 17 -37q0 -13 -14 -24.5t-30 -11.5q-13 0 -29 16l-80 82q-17 17 -17 36q0 15 13.5 25.5t29.5 10.5q13 0 30 -16z" />
    <glyph glyph-name="a" unicode="a" 
d="M583 61q0 -24 -18 -42.5t-60 -18.5h-117l5 23q-83 -39 -174 -39q-67 0 -110.5 32.5t-43.5 81.5q0 14 7 34.5t27.5 48.5t50 51t81 39.5t115.5 16.5q45 0 101 -10q6 24 6 33q0 39 -84 39q-39 0 -94 -11.5t-68 -11.5q-17 0 -27.5 11t-10.5 28q0 45 68.5 64.5t151.5 19.5
q78 0 123 -30.5t45 -82.5q0 -19 -4 -35l-43 -202h17q28 0 42 -7.5t14 -31.5zM320 196q-59 0 -102.5 -26t-43.5 -52q0 -14 19.5 -24t47.5 -10q83 0 177 51l10 50q-60 11 -108 11z" />
    <glyph glyph-name="b" unicode="b" 
d="M113 564q0 23 17 41.5t61 18.5h116l-48 -223q74 50 159 50q58 0 100.5 -17.5t64 -46.5t31 -58t9.5 -60q0 -24 -8 -56.5t-29.5 -73.5t-54 -74t-87.5 -56t-123 -23q-79 0 -139 49l-8 -35h-116q-30 0 -43 9t-13 31q0 23 18 41.5t60 18.5h16l90 424h-16q-31 0 -44 9t-13 31z
M343 86q49 0 86 19.5t55.5 47.5t27 51.5t8.5 39.5q0 50 -32.5 78.5t-92.5 28.5q-49 0 -86 -19t-55.5 -47t-27 -52t-8.5 -40q0 -50 33 -78.5t92 -28.5z" />
    <glyph glyph-name="c" unicode="c" 
d="M93 156q0 24 8 57.5t30.5 76t56 77.5t91 59t128.5 24q85 0 137 -30q14 30 44 30q38 0 38 -38q0 -7 -4 -28l-16 -77q-18 -66 -65 -66q-24 0 -32 12t-8 36q0 33 -34.5 47t-81.5 14q-45 0 -80.5 -14.5t-55.5 -35.5t-33 -46.5t-17 -44t-4 -31.5q0 -94 153 -94q51 0 88 9
t52 19t29.5 19t27.5 9q17 0 28.5 -11.5t11.5 -29.5q0 -9 -5.5 -21t-23.5 -29t-45.5 -31t-78.5 -24t-115 -10q-67 0 -114.5 16.5t-69.5 44.5t-31 54.5t-9 56.5z" />
    <glyph glyph-name="d" unicode="d" 
d="M470 565q0 22 17 40.5t61 18.5h116l-111 -524h16q28 0 42 -7.5t14 -32.5q0 -23 -18 -41.5t-60 -18.5h-116l8 35q-82 -49 -161 -49q-58 0 -100 17.5t-63.5 46.5t-31 58t-9.5 60q0 108 82 192q90 91 222 91q86 0 139 -50l26 124h-16q-31 0 -44 9t-13 31zM481 244
q0 18 -5 34t-17.5 34t-39.5 28.5t-65 10.5q-48 0 -85.5 -19.5t-56 -47.5t-27 -51.5t-8.5 -39.5q0 -50 33 -78.5t92 -28.5q49 0 86.5 19t56 47t27.5 51.5t9 40.5z" />
    <glyph glyph-name="e" unicode="e" 
d="M325 84q49 0 119 16.5t84 16.5q17 0 27.5 -10.5t10.5 -27.5q0 -34 -33 -51q-32 -17 -105.5 -30.5t-133.5 -13.5q-102 0 -161 49.5t-59 135.5q0 112 94.5 196.5t218.5 84.5q97 0 155 -52t58 -139q0 -17 -13 -87h-409q16 -88 147 -88zM200 260h295q-4 41 -39 65.5t-89 24.5
q-56 0 -101 -24.5t-66 -65.5z" />
    <glyph glyph-name="f" unicode="f" 
d="M599 397q0 -23 -18 -41.5t-60 -18.5h-151l-50 -237h139q28 0 42.5 -8t14.5 -31t-18 -42t-60 -19h-298q-56 0 -56 40q0 24 18 42t60 18h58l50 237h-46q-32 0 -45 9t-13 31q0 60 79 60h46l8 37q15 69 75.5 109t150.5 40q166 0 166 -53q0 -23 -18.5 -42t-40.5 -19
q-6 0 -51 7t-87 7q-86 0 -95 -49l-7 -37h150q19 0 29.5 -2t19 -11t8.5 -27z" />
    <glyph glyph-name="g" unicode="g" 
d="M107 -160q0 24 18 42t60 18h109q43 0 73.5 23t38.5 62l11 50q-78 -49 -152 -49q-85 0 -138.5 50.5t-53.5 131.5q0 112 88 197.5t204 85.5q82 0 130 -50l7 36h117q28 0 42 -7.5t14 -32.5q0 -23 -18 -41.5t-60 -18.5h-16l-75 -352q-16 -79 -82 -132t-149 -53h-111
q-31 0 -44 9t-13 31zM345 351q-65 0 -117 -48.5t-52 -109.5q0 -47 31.5 -77t81.5 -30q66 0 118 48.5t52 109.5q0 47 -32 77t-82 30z" />
    <glyph glyph-name="h" unicode="h" 
d="M134 564q0 23 17 41.5t61 18.5h116l-50 -235q73 61 150 61q66 0 106 -34t40 -91q0 -22 -4 -41l-40 -184h6q19 0 29.5 -2t19 -11.5t8.5 -26.5q0 -23 -18 -41.5t-60 -18.5h-112q-31 0 -44 9t-13 31q0 24 18 42t61 18h6l36 171q4 16 4 31q0 22 -20.5 35t-54.5 13
q-36 0 -62.5 -12.5t-77.5 -54.5l-39 -183h6q28 0 42.5 -8t14.5 -32t-18 -42t-61 -18h-112q-30 0 -43 9t-13 31q0 23 18 41.5t60 18.5h6l90 424h-16q-31 0 -44 9t-13 31z" />
    <glyph glyph-name="i" unicode="i" 
d="M186 377q0 23 17 41.5t62 18.5h178l-71 -337h121q28 0 42.5 -7.5t14.5 -32.5q0 -22 -17.5 -41t-60.5 -19h-343q-31 0 -44 9t-13 31q0 24 18 42t60 18h122l50 237h-78q-32 0 -45 9t-13 31zM469 623l-23 -105h-118l23 105h118z" />
    <glyph glyph-name="j" unicode="j" 
d="M84 -160q0 23 18 41.5t60 18.5h110q44 0 74.5 23t38.5 62l75 352h-202q-31 0 -44 9t-13 31q0 23 18 41.5t60 18.5h302l-96 -452q-16 -79 -82.5 -132t-148.5 -53h-113q-31 0 -44 9t-13 31zM563 623l-23 -105h-119l22 105h120z" />
    <glyph glyph-name="k" unicode="k" 
d="M582 60q0 -23 -18 -41.5t-60 -18.5h-118q-31 0 -44 9t-13 31q0 25 25 47l-84 91l-21 -14l-34 -164h-117q-30 0 -43 9t-13 31q0 23 18 41.5t60 18.5h16l90 424h-16q-31 0 -44 8.5t-13 30.5q0 24 17 42.5t61 18.5h116l-72 -337l92 63q-8 15 -8 26q0 25 18 43t60 18h112
q31 0 44 -9t13 -30q0 -24 -18 -42.5t-60 -18.5h-27l-139 -96l130 -141h33q28 0 42.5 -7.5t14.5 -32.5z" />
    <glyph glyph-name="l" unicode="l" 
d="M226 564q0 24 18 42t61 18h178l-111 -524h121q28 0 42.5 -7.5t14.5 -32.5q0 -22 -17.5 -41t-60.5 -19h-343q-31 0 -44 9t-13 31q0 24 18 42t60 18h122l90 424h-79q-27 0 -42 8t-15 32z" />
    <glyph glyph-name="m" unicode="m" 
d="M62 377q0 23 18.5 41.5t60.5 18.5h93l-5 -24q54 37 93 37q58 0 91 -49q56 49 114 49q47 0 77 -28t30 -72q0 -14 -3 -31l-47 -219q51 0 51 -40q0 -23 -18 -41.5t-60 -18.5h-94l66 311q2 7 2 19q-2 20 -28 20q-20 0 -37 -9t-49 -36l-43 -205q50 0 50 -40q0 -23 -18 -41.5
t-60 -18.5h-94l66 311q3 11 3 18q0 21 -28 21q-38 0 -87 -45l-43 -205q51 0 51 -40q0 -23 -18 -41.5t-60 -18.5h-88q-31 0 -44 9t-13 31q0 26 20.5 43t51.5 17l50 237q-51 0 -51 40z" />
    <glyph glyph-name="n" unicode="n" 
d="M115 377q0 23 18.5 41.5t60.5 18.5h94l-10 -48q43 34 76 47.5t74 13.5q66 0 106.5 -33.5t40.5 -88.5q0 -19 -5 -46l-39 -182q52 0 52 -40q0 -23 -18 -41.5t-60 -18.5h-89q-31 0 -44 9t-13 31q0 21 17.5 40.5t55.5 19.5l37 178q3 14 3 23q0 49 -78 49q-35 0 -65.5 -15
t-73.5 -53l-38 -182h6q28 0 42 -8t14 -32q0 -23 -18 -41.5t-60 -18.5h-112q-30 0 -43 9t-13 31q0 23 18 41.5t60 18.5h6l50 237q-52 0 -52 40z" />
    <glyph glyph-name="o" unicode="o" 
d="M84 174q0 59 36 121t110.5 108.5t168.5 46.5q93 0 151.5 -53t58.5 -137q0 -109 -95 -192.5t-217 -83.5q-96 0 -154.5 52t-58.5 138zM376 350q-77 0 -133.5 -47t-56.5 -111q0 -47 37 -77.5t95 -30.5q76 0 132.5 47.5t56.5 110.5q0 47 -37 77.5t-94 30.5z" />
    <glyph glyph-name="p" unicode="p" 
d="M73 377q0 23 18 41.5t60 18.5h116l-10 -45q80 58 166 58q91 0 145.5 -49t54.5 -132q0 -106 -86.5 -182.5t-207.5 -76.5q-79 0 -141 56l-35 -166h58q28 0 42 -7.5t14 -31.5t-18 -42.5t-60 -18.5h-174q-30 0 -43 9t-13 31q0 23 18 41.5t60 18.5h16l93 437h-17
q-31 0 -43.5 9t-12.5 31zM346 110q49 0 86.5 17t55 42t26 46t8.5 37q0 45 -34 71.5t-90 26.5q-52 0 -89.5 -17.5t-55 -43t-25 -46.5t-7.5 -35q0 -37 29 -67.5t96 -30.5z" />
    <glyph glyph-name="q" unicode="q" 
d="M273 -161q0 24 18 42.5t60 18.5h58l35 166q-84 -56 -167 -56q-89 0 -145.5 46.5t-56.5 120.5q0 23 8 54t29.5 70t53 71.5t86 55t121.5 22.5q86 0 141 -58l9 45h117q28 0 42 -8t14 -32q0 -23 -18 -41.5t-60 -18.5h-16l-93 -437h16q29 0 43 -8t14 -32q0 -23 -18 -41.5
t-60 -18.5h-174q-28 0 -42.5 8t-14.5 31zM305 110q49 0 86 17t55.5 41.5t27 45.5t8.5 35q0 48 -33.5 74.5t-92.5 26.5q-50 0 -87 -17t-55 -42t-26.5 -46t-8.5 -37q0 -45 34 -71.5t92 -26.5z" />
    <glyph glyph-name="r" unicode="r" 
d="M159 377q0 23 18 41.5t59 18.5h135l-13 -64q72 46 109 61t74 15q40 0 74.5 -24t34.5 -50q0 -23 -19.5 -42t-42.5 -19q-15 0 -34.5 18t-36.5 18q-23 0 -64 -22.5t-122 -79.5l-31 -148h139q28 0 42.5 -7.5t14.5 -32.5q0 -22 -17.5 -41t-60.5 -19h-298q-30 0 -43 9t-13 31
q0 24 17.5 42t59.5 18h59l50 238h-35q-30 0 -43 9t-13 30z" />
    <glyph glyph-name="s" unicode="s" 
d="M516 281q-16 0 -24 7t-13 17.5t-13.5 20.5t-31 17t-58.5 7q-41 0 -74 -12t-33 -26q0 -18 41 -25.5t102.5 -17.5t94.5 -30q49 -32 49 -89q0 -70 -73.5 -118t-181.5 -48q-87 0 -142 29q-19 -12 -35 -12q-18 0 -29.5 10.5t-11.5 27.5q0 8 4 28l7 33q15 67 65 67q38 0 42 -44
q35 -39 117 -39q51 0 88.5 14t37.5 33q0 36 -116 48q-91 10 -131.5 35.5t-40.5 74.5q0 68 69 114.5t169 46.5q72 0 123 -26q17 26 38 26q17 0 27 -10t10 -26q0 -11 -4 -30l-8 -37q-13 -66 -64 -66z" />
    <glyph glyph-name="t" unicode="t" 
d="M545 397q0 -23 -18 -41.5t-60 -18.5h-181l-42 -196q-3 -13 -3 -24q0 -33 77 -33q50 0 89.5 11t64 22.5t36.5 11.5q17 0 28 -11t11 -29q0 -28 -31.5 -49.5t-77 -33t-84 -17t-63.5 -5.5q-35 0 -67 8.5t-59.5 34t-27.5 65.5q0 15 3 30l46 215h-35q-31 0 -44 9t-13 31
q0 23 17 41.5t61 18.5h35l19 88q12 66 64 66q17 0 28.5 -11t11.5 -27q0 -9 -4 -28l-19 -88h181q19 0 29.5 -2t19 -11.5t8.5 -26.5z" />
    <glyph glyph-name="u" unicode="u" 
d="M390 377q0 24 18 42t60 18h135l-72 -337q52 0 52 -39q0 -24 -18.5 -42.5t-60.5 -18.5h-94l10 48q-45 -35 -76.5 -48t-73.5 -13q-66 0 -106.5 34t-40.5 89q0 19 5 46l38 182h-16q-30 0 -43 9t-13 31q0 24 18 41.5t60 17.5h116l-59 -278q-3 -12 -3 -23q0 -49 75 -49
q37 0 66 13.5t76 54.5l39 183h-35q-31 0 -44 9t-13 30z" />
    <glyph glyph-name="v" unicode="v" 
d="M347 397q0 -23 -17.5 -41.5t-59.5 -18.5h-6l63 -215l154 215h-10q-31 0 -44 9t-13 31q0 23 18 41.5t60 18.5h134q28 0 42.5 -8t14.5 -31q0 -24 -18 -42.5t-60 -18.5h-16l-239 -337h-103l-96 337h-13q-31 0 -44 9t-13 31q0 23 18 41.5t60 18.5h132q28 0 42 -8t14 -32z" />
    <glyph glyph-name="w" unicode="w" 
d="M627 437q19 0 29.5 -2t19 -11.5t8.5 -26.5q0 -9 -4 -20t-19.5 -24t-40.5 -15l-155 -338h-92l-33 181l-106 -181h-94l-13 338q-45 2 -45 39q0 24 18 42t60 18h92q28 0 42 -7.5t14 -31.5t-17 -42t-58 -18l6 -153l93 158h89l27 -158l73 153h-7q-28 0 -42.5 8t-14.5 31
t18 41.5t60 18.5h92z" />
    <glyph glyph-name="x" unicode="x" 
d="M584 437q28 0 42.5 -8t14.5 -31q0 -25 -18 -41.5t-47 -19.5l-155 -110l124 -127q45 -2 45 -40q0 -23 -18 -41.5t-60 -18.5h-112q-31 0 -44 9t-13 31q0 20 14.5 37t37.5 23l-62 61l-87 -61q17 -8 23.5 -16t6.5 -22q0 -25 -18 -43.5t-61 -18.5h-110q-31 0 -44 9t-13 31
q0 9 4 20t20.5 24.5t41.5 15.5l172 128l-105 109q-43 4 -43 40q0 23 18 41.5t60 18.5h93q28 0 42 -8t14 -32q0 -34 -37 -55l51 -49l71 50q-18 15 -18 33q0 24 18 42.5t60 18.5h92z" />
    <glyph glyph-name="y" unicode="y" 
d="M-12 -160q0 23 18 41.5t60 18.5h100l77 103l-101 334q-40 6 -40 40q0 23 18 41.5t60 18.5h90q28 0 42 -7.5t14 -31.5q0 -27 -19.5 -43.5t-51.5 -17.5l68 -223l166 223h-5q-49 0 -49 40q0 23 18 41.5t60 18.5h92q19 0 29.5 -2t19 -11.5t8.5 -26.5q0 -24 -17.5 -40.5
t-45.5 -19.5l-324 -437h5q28 0 42.5 -8t14.5 -31q0 -24 -18 -42.5t-60 -18.5h-214q-31 0 -44 9t-13 31z" />
    <glyph glyph-name="z" unicode="z" 
d="M269 337l-2 -9q-2 -9 -3.5 -13.5t-5 -13.5t-8 -14.5t-11 -12t-16 -9.5t-20.5 -3q-17 0 -28.5 10.5t-11.5 26.5q0 11 4 29l23 109h409l-17 -81l-317 -256h176q15 54 61 54q17 0 28.5 -10.5t11.5 -26.5q0 -9 -4 -29l-19 -88h-434l18 83l314 254h-148z" />
    <glyph glyph-name="braceleft" unicode="{" 
d="M349 5q-1 -5 -1 -11q0 -18 11 -31.5t29 -14.5q19 -1 31.5 -12.5t12.5 -28.5q0 -27 -22.5 -43.5t-50.5 -16.5q-54 0 -85 31t-31 82q0 18 5 38l26 125q1 4 1 9q0 19 -14 33.5t-37 14.5q-21 0 -32.5 10.5t-11.5 27.5q0 26 19.5 44.5t46.5 18.5q26 0 47.5 18t26.5 40l28 133
q13 61 64.5 106t112.5 45q23 0 37 -11t14 -29q0 -25 -21.5 -42t-44.5 -19q-21 -1 -40 -18.5t-23 -38.5l-25 -117q-8 -36 -33.5 -70t-50.5 -48q15 -12 26.5 -36.5t11.5 -50.5q0 -10 -2 -20z" />
    <glyph glyph-name="bar" unicode="|" 
d="M468 556l-137 -643q-5 -27 -19 -43t-24 -19.5t-21 -3.5q-17 0 -28.5 10.5t-11.5 26.5q0 12 4 29l137 643q13 66 64 66q17 0 28.5 -11t11.5 -27q0 -9 -4 -28z" />
    <glyph glyph-name="braceright" unicode="}" 
d="M253 5l25 118q7 30 32 61t50 46q-15 11 -26 36t-11 54q0 14 3 28l25 117q1 5 1 11q0 18 -11.5 31.5t-28.5 14.5q-19 1 -31.5 12.5t-12.5 28.5q0 22 19.5 41t51.5 19q53 0 85 -34t32 -84q0 -16 -4 -33l-28 -133q-1 -5 -1 -10q0 -20 14 -34t37 -14q20 0 32 -11t12 -29
q0 -21 -17 -41t-49 -20q-25 0 -47 -18t-27 -39l-26 -125q-15 -66 -63.5 -108.5t-113.5 -42.5q-22 0 -36.5 11t-14.5 29q0 25 21 42t45 19q21 1 40 18.5t23 38.5z" />
    <glyph glyph-name="asciitilde" unicode="~" 
d="M449 284q13 0 32.5 20t41.5 40t42 20q17 0 29 -11.5t12 -28.5q0 -26 -35 -62q-48 -48 -78 -65.5t-65 -17.5t-67.5 25.5t-55.5 51t-34 25.5q-12 0 -52.5 -40t-62.5 -40q-17 0 -29.5 11.5t-12.5 27.5q0 39 63 92t118 53q30 0 56 -16t41 -34.5t30.5 -34.5t26.5 -16z" />
    <glyph glyph-name="nonbreakingspace" unicode="&#xa0;" 
 />
    <glyph glyph-name="exclamdown" unicode="&#xa1;" 
d="M197 -87l92 297q16 49 60 49q40 0 40 -40q0 -6 -1 -9l-34 -297q-14 -113 -102 -113q-29 0 -47.5 17t-18.5 44q0 18 11 52zM382 453h17q24 0 39 -15t15 -38q0 -30 -25.5 -54.5t-56.5 -24.5h-17q-24 0 -39 14.5t-15 37.5q0 31 25 55.5t57 24.5z" />
    <glyph glyph-name="cent" unicode="&#xa2;" 
d="M351 197q42 0 90.5 24t59.5 24q17 0 28.5 -12t11.5 -29q0 -34 -47 -63t-122 -42l-16 -77q-15 -66 -65 -66q-16 0 -28 11t-12 26q0 9 4 29l18 81q-62 16 -95.5 58.5t-33.5 103.5q0 86 62 158.5t155 93.5q3 12 7 35t8 39.5t11.5 34t21 26.5t33.5 9q17 0 28.5 -11t11.5 -27
q0 -4 -5 -29l-14 -67q42 -6 68 -24q12 4 21 4q18 0 29.5 -10.5t11.5 -27.5q0 -19 -10.5 -61.5t-21.5 -53.5q-19 -21 -45 -21q-18 0 -27 9t-10 16.5t-2 25.5q-1 43 -67 43t-115 -41.5t-49 -97.5q0 -40 29.5 -65.5t75.5 -25.5z" />
    <glyph glyph-name="sterling" unicode="&#xa3;" 
d="M444 303q0 -23 -18 -41.5t-60 -18.5h-46q-14 -81 -53 -143h204q17 46 59 46q18 0 29.5 -10.5t11.5 -27.5q0 -48 -35 -78t-94 -30h-321q-31 0 -44 9t-13 31q0 51 62 60q70 10 93 143h-69q-29 0 -43 8t-14 32q0 23 17 41.5t62 18.5h44q-4 24 -4 42q0 89 62 151t151 62
q54 0 96 -28.5t42 -64.5q0 -23 -19.5 -42t-42.5 -19q-13 0 -23 8.5t-16 18.5t-21 18.5t-37 8.5q-40 0 -64.5 -24.5t-24.5 -64.5q0 -26 4 -66h68q29 0 43 -8t14 -32z" />
    <glyph glyph-name="currency" unicode="&#xa4;" 
d="M213 388q-42 54 -42 73q0 21 20 39.5t43 18.5q13 0 20 -4.5t21 -21.5l26 -31q56 26 102 26q50 0 92 -27l37 30q32 26 53 26q18 0 29.5 -11.5t11.5 -29.5q0 -15 -7.5 -26.5t-29.5 -29.5l-38 -32q10 -36 10 -62q0 -62 -51 -130l25 -34q18 -23 18 -38q0 -22 -20.5 -41
t-44.5 -19q-19 0 -40 26l-27 32q-54 -25 -101 -25q-48 0 -91 26l-39 -32q-21 -18 -30.5 -22.5t-22.5 -4.5q-17 0 -29 11.5t-12 29.5q0 15 7.5 26.5t29.5 30.5l40 34q-10 36 -10 62q0 61 50 130zM382 388q-45 0 -80.5 -35.5t-35.5 -79.5q0 -32 21.5 -54t53.5 -22
q45 0 81.5 36t36.5 80q0 33 -21.5 54t-55.5 21z" />
    <glyph glyph-name="yen" unicode="&#xa5;" 
d="M303 580q29 0 43 -7t14 -32q0 -21 -14.5 -38t-35.5 -22l65 -133l123 133q-31 9 -31 39q0 24 18 42t60 18h91q31 0 44 -8t13 -32q0 -22 -17.5 -41t-57.5 -19h-2l-181 -199h72q26 0 26 -22q0 -15 -10.5 -24.5t-27.5 -9.5h-97l-7 -34h97q26 0 26 -21q0 -16 -10.5 -25.5
t-27.5 -9.5h-97l-7 -35h46q19 0 29.5 -2t19 -11t8.5 -26q0 -23 -18 -42t-60 -19h-193q-31 0 -44 9t-13 31q0 23 17 41.5t61 18.5h47l7 35h-97q-26 0 -26 22q0 15 10.5 24.5t27.5 9.5h97l7 34h-97q-25 0 -25 22q0 15 10.5 24.5t26.5 9.5h72l-96 199h-8q-48 0 -48 40
q0 24 18 42t60 18h92z" />
    <glyph glyph-name="brokenbar" unicode="&#xa6;" 
d="M468 556l-43 -203q-15 -66 -64 -66q-17 0 -28.5 10.5t-11.5 26.5q0 11 4 29l43 203q13 66 64 66q17 0 28.5 -11t11.5 -27q0 -9 -4 -28zM374 116l-43 -203q-13 -51 -41 -62q-11 -4 -23 -4q-17 0 -28.5 10.5t-11.5 26.5q0 12 4 29l43 203q18 66 65 66q17 0 28 -10.5
t11 -26.5q0 -11 -4 -29z" />
    <glyph glyph-name="section" unicode="&#xa7;" 
d="M222 415q0 56 55.5 112t140.5 56h225l-27 -127q-12 -55 -56 -55q-14 0 -24.5 9t-10.5 22q0 12 11 61h-144q-32 0 -57 -18.5t-25 -41.5q0 -35 87 -91l81 -51q68 -44 92 -72t24 -65q0 -52 -36 -91.5t-94 -52.5q1 -3 1 -7q0 -18 -9 -44t-28.5 -56.5t-59 -51.5t-92.5 -21
h-231l27 127q12 55 56 55q16 0 26 -9t10 -23q0 -6 -2 -17.5t-5.5 -25.5t-4.5 -19h145q30 0 54.5 19t24.5 42q0 35 -85 90l-93 61q-56 36 -80.5 66t-24.5 63q0 50 35.5 89t94.5 54q-1 6 -1 13zM261 326h-14q-23 -1 -38.5 -13t-15.5 -29q0 -34 69 -79l90 -58q58 -41 73 -59h18
q22 1 36.5 12t14.5 26q0 36 -77 88l-88 57q-34 23 -68 55z" />
    <glyph glyph-name="dieresis" unicode="&#xa8;" 
d="M335 654q22 0 35.5 -13.5t13.5 -34.5q0 -28 -23 -50t-52 -22q-20 0 -34 14t-14 34q0 27 23 49.5t51 22.5zM543 654q22 0 35.5 -13.5t13.5 -34.5q0 -28 -23 -50t-52 -22q-20 0 -34 14t-14 34q0 27 23 49.5t51 22.5z" />
    <glyph glyph-name="copyright" unicode="&#xa9;" 
d="M344 189q28 0 46 6.5t24.5 13.5t15.5 13.5t22 6.5t21 -8t8 -21q0 -31 -48 -56.5t-106 -25.5q-62 0 -100 33t-38 87q0 9 11 67q14 69 68.5 115t121.5 46q40 0 75 -19q10 19 32 19q12 0 19.5 -7t7.5 -18q0 -1 -3 -19q-1 -5 -4 -19.5t-4.5 -22.5t-6 -20t-9.5 -19t-13 -12
t-19 -5q-16 0 -22 8.5t-6 30.5q0 13 -18 22.5t-42 9.5q-34 0 -59 -17.5t-36 -43.5t-15.5 -46.5t-4.5 -35.5q3 -63 82 -63zM429 598q106 0 176 -69t70 -174q0 -143 -117 -256.5t-265 -113.5q-106 0 -175.5 69t-69.5 174q0 94 53.5 180t142 138t185.5 52zM412 525
q-112 0 -200.5 -86.5t-88.5 -195.5q0 -80 53 -132.5t134 -52.5q113 0 201.5 86.5t88.5 195.5q0 80 -53 132.5t-135 52.5z" />
    <glyph glyph-name="ordfeminine" unicode="&#xaa;" 
d="M266 532q0 34 47.5 48.5t106.5 14.5q56 0 87.5 -21.5t31.5 -58.5q0 -16 -2 -25l-28 -128h7q24 0 33.5 -7t9.5 -24q0 -21 -16 -34t-43 -13h-85l2 11q-59 -22 -112 -22q-48 0 -79 23t-31 58q0 15 9.5 35t30 43t63 39t98.5 16q26 0 61 -5q2 8 2 12q0 23 -53 23q-27 0 -66 -8
t-44 -8q-13 0 -21.5 9t-8.5 22zM436 383l6 27q-37 7 -65 7q-34 0 -61.5 -14.5t-27.5 -32.5q0 -7 11 -12.5t27 -5.5q55 0 110 31zM531 229q0 -47 -60 -47h-256q-27 0 -36 4.5t-9 17.5q0 32 13 43.5t49 11.5h254q25 0 35 -6.5t10 -23.5z" />
    <glyph glyph-name="guillemotleft" unicode="&#xab;" 
d="M222 218l121 -141q11 -11 11 -22q0 -13 -12.5 -24t-27.5 -11q-11 0 -25 13l-209 185l287 184q20 13 31 13q12 0 19.5 -6.5t7.5 -17.5q0 -17 -22 -33zM451 218l121 -141q11 -13 11 -23q0 -12 -12.5 -23t-27.5 -11q-11 0 -25 13l-209 185l287 184q20 13 31 13
q12 0 19.5 -6.5t7.5 -17.5q0 -17 -22 -33z" />
    <glyph glyph-name="logicalnot" unicode="&#xac;" 
d="M125 385q0 23 17 41.5t61 18.5h357l-56 -264q-15 -66 -64 -66q-17 0 -28.5 10.5t-11.5 26.5q0 7 4 29l35 164h-257q-31 0 -44 9t-13 31z" />
    <glyph glyph-name="softhyphen" unicode="&#xad;" 
d="M619 290q0 -24 -18 -42.5t-60 -18.5h-383q-31 0 -44 9t-13 31q0 23 18 41.5t60 18.5h383q28 0 42.5 -8t14.5 -31z" />
    <glyph glyph-name="registered" unicode="&#xae;" 
d="M321 246l-10 -49q35 0 35 -28q0 -19 -14.5 -31t-37.5 -12h-69q-38 0 -38 28q0 19 14.5 31t37.5 12l40 190q-36 1 -36 29q0 19 14.5 30.5t38.5 11.5h93q50 0 78.5 -22.5t28.5 -62.5q0 -33 -22 -62t-59 -45q22 -25 38 -69q29 -3 29 -28q0 -19 -14.5 -31t-37.5 -12h-40
q-2 37 -18.5 73.5t-35.5 46.5h-15zM336 316h26q25 0 43.5 13.5t18.5 30.5q0 27 -48 27h-25zM429 598q107 0 176.5 -69t69.5 -174q0 -94 -54 -180t-142.5 -138t-185.5 -52q-106 0 -175.5 69t-69.5 174q0 94 53.5 180t142 138t185.5 52zM413 525q-113 0 -201.5 -86.5
t-88.5 -195.5q0 -80 53 -132.5t134 -52.5q113 0 201.5 86.5t88.5 195.5q0 80 -53 132.5t-134 52.5z" />
    <glyph glyph-name="macron" unicode="&#xaf;" 
d="M311 626h244q25 0 35 -7.5t10 -25.5q0 -20 -17.5 -33.5t-44.5 -13.5h-244q-25 0 -35 7t-10 26q0 21 17 34t45 13z" />
    <glyph glyph-name="degree" unicode="&#xb0;" 
d="M428 596q61 0 100.5 -39.5t39.5 -99.5q0 -83 -67 -148.5t-151 -65.5q-61 0 -100.5 39.5t-39.5 100.5q0 83 66.5 148t151.5 65zM414 535q-55 0 -98.5 -42.5t-43.5 -96.5q0 -40 25.5 -66t65.5 -26q55 0 99 43t44 97q0 40 -26 65.5t-66 25.5z" />
    <glyph glyph-name="plusminus" unicode="&#xb1;" 
d="M640 390q0 -23 -18 -41.5t-60 -18.5h-142l-21 -100q-13 -51 -41 -62q-11 -4 -23 -4q-17 0 -28.5 10.5t-11.5 26.5q0 10 4 29l22 100h-142q-31 0 -44 9t-13 31q0 23 17 41.5t61 18.5h142l27 128q13 66 64 66q17 0 28.5 -11t11.5 -27q0 -7 -4 -28l-27 -128h141
q31 0 44 -7.5t13 -32.5zM52 40q0 23 17 41.5t61 18.5h383q31 0 44 -7.5t13 -32.5q0 -23 -18 -41.5t-60 -18.5h-383q-31 0 -44 9t-13 31z" />
    <glyph glyph-name="twosuperior" unicode="&#xb2;" 
d="M274 526q0 26 44.5 68.5t111.5 42.5q48 0 78 -26.5t30 -68.5q0 -48 -36.5 -87t-180.5 -141h109q11 32 39 32q11 0 19 -7.5t8 -17.5q0 -6 -2 -18l-12 -56h-280l15 68q95 67 140 99.5t73.5 57t34 34.5t5.5 23q0 18 -15.5 29.5t-39.5 11.5q-27 0 -44.5 -11t-25 -24
t-18.5 -24t-26 -11q-11 0 -19 7.5t-8 18.5z" />
    <glyph glyph-name="threesuperior" unicode="&#xb3;" 
d="M259 326q4 0 23.5 -10.5t64.5 -10.5q104 0 104 62q0 24 -16.5 35.5t-36 12.5t-36 7.5t-16.5 21.5q0 16 13 28t30 12h24q24 0 43 16t19 36q0 34 -55 34q-25 0 -41 -6t-22 -12.5t-15 -12.5t-21 -6q-11 0 -19 7.5t-8 18.5q0 30 44.5 54t99.5 24q48 0 76.5 -24t28.5 -65
q0 -22 -9 -40.5t-19.5 -27.5t-24.5 -19t-17 -13q46 -26 46 -74q0 -58 -51 -97t-133 -39q-52 0 -84.5 13t-32.5 34q0 16 12.5 28.5t28.5 12.5z" />
    <glyph glyph-name="acute" unicode="&#xb4;" 
d="M508 588l-99 -76q-20 -16 -30 -16q-15 0 -25 10.5t-10 28.5q0 10 29 34l99 75q22 16 34 16q31 0 31 -37q0 -12 -29 -35z" />
    <glyph glyph-name="micro" unicode="&#xb5;" 
d="M583 61q0 -23 -18.5 -42t-60.5 -19h-94l5 23q-88 -39 -166 -39q-27 0 -56 9l-17 -80q-5 -27 -19 -43t-24.5 -19.5t-20.5 -3.5q-17 0 -28.5 10.5t-11.5 26.5q0 12 4 29l90 425h-16q-30 0 -43 9t-13 30q0 22 19 41.5t40 19.5h3l15 -1h117l-63 -293q-3 -15 -3 -24
q0 -16 14.5 -26t39.5 -10q62 0 163 54l43 200h-35q-31 0 -44 9t-13 30q0 24 18 42t60 18h135l-72 -337q52 0 52 -39z" />
    <glyph glyph-name="paragraph" unicode="&#xb6;" 
d="M672 552q0 -47 -62 -47h-35l-128 -601h37q25 0 35 -7t10 -24q0 -18 -13.5 -32.5t-48.5 -14.5h-93q-16 0 -23 7.5t-10 26.5q-13 -22 -22.5 -28t-27.5 -6h-137q-46 0 -46 31q0 19 14.5 33t48.5 14h78l60 281q-84 9 -135 50t-51 99q0 111 89 180t217 69h197q46 0 46 -31z
M326 266l50 234q-50 -9 -85.5 -35.5t-42.5 -59.5l-9 -44q-2 -10 -2 -14q0 -61 89 -81zM499 505h-44l-128 -601q16 -8 17 -28q11 20 27 28z" />
    <glyph glyph-name="middot" unicode="&#xb7;" 
d="M364 302q22 0 35.5 -13.5t13.5 -34.5q0 -28 -23 -50t-52 -22q-20 0 -34 14t-14 34q0 28 22.5 50t51.5 22z" />
    <glyph glyph-name="cedilla" unicode="&#xb8;" 
d="M194 -102q5 0 31.5 -14t48.5 -14q42 0 42 31q0 28 -46 28q-11 0 -23 -2l15 73h70l-2 -12q32 -7 45 -22t13 -45q0 -50 -38 -85.5t-92 -35.5q-33 0 -70.5 15t-37.5 40q0 17 13.5 30t30.5 13z" />
    <glyph glyph-name="onesuperior" unicode="&#xb9;" 
d="M469 638l-69 -324h57q20 0 28.5 -6t8.5 -20q0 -19 -14 -30t-37 -11h-182q-37 0 -37 27q0 19 14 29.5t38 10.5h57l50 237l-50 -12q-16 -4 -22 -4q-11 0 -17.5 7.5t-6.5 19.5q0 31 43 42z" />
    <glyph glyph-name="ordmasculine" unicode="&#xba;" 
d="M427 595q61 0 100 -37t39 -95q0 -75 -62.5 -132.5t-144.5 -57.5q-61 0 -100.5 36t-39.5 91q0 74 64.5 134.5t143.5 60.5zM411 517q-41 0 -76 -31.5t-35 -69.5q0 -27 22 -46t53 -19q42 0 76 29t34 65q0 31 -21 51.5t-53 20.5zM528 229q0 -47 -61 -47h-255q-44 0 -44 31
q0 19 14 32.5t47 13.5h255q24 0 34 -7t10 -23z" />
    <glyph glyph-name="guillemotright" unicode="&#xbb;" 
d="M476 217l-121 141q-11 11 -11 22q0 13 12.5 24t27.5 11q11 0 25 -13l208 -185l-286 -184q-20 -13 -31 -13q-12 0 -19.5 6.5t-7.5 17.5q0 16 22 33zM246 217l-121 141q-11 13 -11 23q0 12 12.5 23t27.5 11q11 0 25 -13l208 -185l-286 -184q-20 -13 -31 -13
q-12 0 -19.5 6.5t-7.5 17.5q0 16 22 33z" />
    <glyph glyph-name="onequarter" unicode="&#xbc;" 
d="M262 638l-69 -324h57q20 0 28.5 -6t8.5 -20q0 -19 -14 -30t-37 -11h-182q-37 0 -37 27q0 19 14 29.5t38 10.5h57l50 237l-50 -12q-16 -4 -22 -4q-11 0 -17.5 7.5t-6.5 19.5q0 32 43 42zM607 528l-357 -451q-21 -26 -40 -26q-12 0 -19.5 7.5t-7.5 19.5q0 11 16 32l357 451
q21 26 40 26q11 0 19 -8t8 -19q0 -12 -16 -32zM673 380l-49 -230q31 -1 31 -26q0 -17 -12.5 -28t-32.5 -13l-4 -16q31 -1 31 -27q0 -18 -14.5 -29t-37.5 -11h-79q-36 0 -36 27q0 19 13.5 29.5t36.5 10.5h19l4 16h-163l11 55l198 242h84zM557 150l27 129l-106 -129h79z" />
    <glyph glyph-name="onehalf" unicode="&#xbd;" 
d="M270 638l-69 -324h57q20 0 28.5 -6t8.5 -20q0 -19 -14 -30t-37 -11h-182q-37 0 -37 27q0 19 14 29.5t38 10.5h57l50 237l-50 -12q-16 -4 -22 -4q-11 0 -17.5 7.5t-6.5 19.5q0 32 43 42zM585 528l-356 -451q-21 -26 -40 -26q-12 0 -19.5 7.5t-7.5 19.5t16 32l357 451
q19 26 40 26q11 0 19 -8t8 -19t-17 -32zM421 279q0 27 44.5 69t111.5 42q48 0 78 -26.5t30 -68.5q0 -48 -37 -87t-180 -141h109q11 32 39 32q11 0 19 -7.5t8 -17.5q0 -6 -2 -18l-12 -56h-280l14 68q95 67 140 99.5t74 57t34.5 34.5t5.5 23q0 18 -15.5 29.5t-39.5 11.5
q-27 0 -44.5 -11t-25 -24t-18.5 -24t-26 -11q-11 0 -19 7.5t-8 18.5z" />
    <glyph glyph-name="threequarters" unicode="&#xbe;" 
d="M59 326q5 0 23.5 -10.5t64.5 -10.5q104 0 104 62q0 24 -16.5 35.5t-36 12.5t-36 7.5t-16.5 21.5q0 16 13 28t30 12h24q24 0 43 16t19 36q0 34 -55 34q-25 0 -41 -6t-22 -12.5t-15 -12.5t-21 -6q-11 0 -19 7.5t-8 18.5q0 30 44.5 54t99.5 24q48 0 76.5 -24t28.5 -65
q0 -22 -9 -40.5t-19.5 -27.5t-24.5 -19t-17 -13q46 -26 46 -74q0 -57 -50.5 -96.5t-133.5 -39.5q-52 0 -84.5 13t-32.5 34q0 16 12.5 28.5t28.5 12.5zM585 528l-356 -451q-21 -26 -41 -26q-11 0 -19 7.5t-8 19.5q0 11 17 32l356 451q21 26 40 26q11 0 19 -8t8 -19
q0 -13 -16 -32zM673 380l-49 -230q31 -1 31 -26q0 -17 -12.5 -28t-32.5 -13l-3 -16q30 -1 30 -27q0 -18 -14.5 -29t-37.5 -11h-79q-37 0 -37 27q0 19 14 29.5t37 10.5h20l3 16h-164l12 55l198 242h84zM557 150l28 129l-108 -129h80z" />
    <glyph glyph-name="questiondown" unicode="&#xbf;" 
d="M75 -52q0 45 16 81t48 62t64 43t79 36q18 54 62 54q16 0 28 -11t12 -26q0 -5 -5 -29l-11 -56q-113 -40 -152 -67t-39 -65q0 -33 24 -51.5t67 -18.5q57 0 111 24l3 14q13 51 41 62q11 4 23 4q17 0 28.5 -10.5t11.5 -26.5q0 -12 -4 -29l-17 -79q-82 -35 -125.5 -47
t-92.5 -12q-80 0 -126 39.5t-46 108.5zM375 413h18q24 0 39 -15t15 -38q0 -30 -25.5 -54.5t-56.5 -24.5h-18q-23 0 -38 14.5t-15 37.5q0 31 25 55.5t56 24.5z" />
    <glyph glyph-name="Agrave" unicode="&#xc0;" 
d="M393 784l80 -81q17 -17 17 -37q0 -13 -14 -24.5t-30 -11.5q-13 0 -29 16l-80 82q-17 17 -17 36q0 15 13.5 25.5t29.5 10.5q13 0 30 -16zM360 40q0 24 18 42t60 18h23l-11 58h-238l-36 -58h23q28 0 42.5 -7.5t14.5 -32.5q0 -23 -18 -41.5t-60 -18.5h-132q-31 0 -44 9
t-13 31q0 24 18 42t61 18l236 383h-63q-31 0 -44 9t-13 31q0 23 17 41.5t61 18.5h216l97 -483q29 0 43.5 -7.5t14.5 -32.5q0 -23 -18 -41.5t-60 -18.5h-139q-30 0 -43 9t-13 31zM430 258l-38 192l-119 -192h157z" />
    <glyph glyph-name="Aacute" unicode="&#xc1;" 
d="M497 727l-99 -76q-20 -16 -30 -16q-15 0 -25 10.5t-10 28.5q0 10 29 34l99 75q22 16 34 16q31 0 31 -37q0 -12 -29 -35zM360 40q0 24 18 42t60 18h23l-11 58h-238l-36 -58h23q28 0 42.5 -7.5t14.5 -32.5q0 -23 -18 -41.5t-60 -18.5h-132q-31 0 -44 9t-13 31q0 24 18 42
t61 18l236 383h-63q-31 0 -44 9t-13 31q0 23 17 41.5t61 18.5h216l97 -483q29 0 43.5 -7.5t14.5 -32.5q0 -23 -18 -41.5t-60 -18.5h-139q-30 0 -43 9t-13 31zM430 258l-38 192l-119 -192h157z" />
    <glyph glyph-name="Acircumflex" unicode="&#xc2;" 
d="M416 711l-124 -62q-26 -13 -30 -13q-13 0 -21.5 9t-8.5 21q0 11 6.5 20t10 11.5t14.5 8.5l169 94l142 -101q10 -10 10 -22q0 -16 -13 -28.5t-27 -12.5q-7 0 -27 13zM360 40q0 24 18 42t60 18h23l-11 58h-238l-36 -58h23q28 0 42.5 -7.5t14.5 -32.5q0 -23 -18 -41.5
t-60 -18.5h-132q-31 0 -44 9t-13 31q0 24 18 42t61 18l236 383h-63q-31 0 -44 9t-13 31q0 23 17 41.5t61 18.5h216l97 -483q29 0 43.5 -7.5t14.5 -32.5q0 -23 -18 -41.5t-60 -18.5h-139q-30 0 -43 9t-13 31zM430 258l-38 192l-119 -192h157z" />
    <glyph glyph-name="Atilde" unicode="&#xc3;" 
d="M453 734q17 0 44 24t44 24q12 0 20 -7.5t8 -16.5q0 -22 -41.5 -57.5t-83.5 -35.5q-28 0 -77 24t-64 24q-21 0 -47 -22.5t-42 -22.5q-11 0 -18.5 7t-7.5 18q0 23 39.5 56t85.5 33q28 0 76.5 -24t63.5 -24zM360 40q0 24 18 42t60 18h23l-11 58h-238l-36 -58h23
q28 0 42.5 -7.5t14.5 -32.5q0 -23 -18 -41.5t-60 -18.5h-132q-31 0 -44 9t-13 31q0 24 18 42t61 18l236 383h-63q-31 0 -44 9t-13 31q0 23 17 41.5t61 18.5h216l97 -483q29 0 43.5 -7.5t14.5 -32.5q0 -23 -18 -41.5t-60 -18.5h-139q-30 0 -43 9t-13 31zM430 258l-38 192
l-119 -192h157z" />
    <glyph glyph-name="Adieresis" unicode="&#xc4;" 
d="M307 753q22 0 35.5 -13.5t13.5 -34.5q0 -28 -23 -50t-52 -22q-20 0 -34 14t-14 34q0 27 23 49.5t51 22.5zM515 753q22 0 35.5 -13.5t13.5 -34.5q0 -28 -23 -50t-52 -22q-20 0 -34 14t-14 34q0 27 23 49.5t51 22.5zM360 40q0 24 18 42t60 18h23l-11 58h-238l-36 -58h23
q28 0 42.5 -7.5t14.5 -32.5q0 -23 -18 -41.5t-60 -18.5h-132q-31 0 -44 9t-13 31q0 24 18 42t61 18l236 383h-63q-31 0 -44 9t-13 31q0 23 17 41.5t61 18.5h216l97 -483q29 0 43.5 -7.5t14.5 -32.5q0 -23 -18 -41.5t-60 -18.5h-139q-30 0 -43 9t-13 31zM430 258l-38 192
l-119 -192h157z" />
    <glyph glyph-name="Aring" unicode="&#xc5;" 
d="M433 799q35 0 57 -21t22 -54q0 -44 -35 -75t-76 -31q-34 0 -56 22t-22 54q0 43 34.5 74t75.5 31zM422 737q-13 0 -24 -9.5t-11 -23.5q0 -10 7 -17t18 -7q13 0 24.5 9.5t11.5 23.5q0 10 -7.5 17t-18.5 7zM360 40q0 24 18 42t60 18h23l-11 58h-238l-36 -58h23
q28 0 42.5 -7.5t14.5 -32.5q0 -23 -18 -41.5t-60 -18.5h-132q-31 0 -44 9t-13 31q0 24 18 42t61 18l236 383h-63q-31 0 -44 9t-13 31q0 23 17 41.5t61 18.5h216l97 -483q29 0 43.5 -7.5t14.5 -32.5q0 -23 -18 -41.5t-60 -18.5h-139q-30 0 -43 9t-13 31zM430 258l-38 192
l-119 -192h157z" />
    <glyph glyph-name="AE" unicode="&#xc6;" 
d="M-10 40q0 24 17.5 42t60.5 18h7l196 383h-14q-31 0 -43.5 9t-12.5 31q0 23 17 41.5t61 18.5h438l-35 -165q-14 -66 -65 -66q-16 0 -27.5 11t-11.5 26q0 12 4 29l14 65h-126l-30 -141h19q16 55 62 55q16 0 28 -11t12 -26q0 -4 -5 -29l-16 -78q-15 -66 -64 -66
q-17 0 -28.5 11t-11.5 27q0 8 2 18h-19l-30 -143h146l5 23q15 66 64 66q18 0 29.5 -10.5t11.5 -27.5q0 -4 -5 -28l-26 -123h-348q-47 0 -47 41q0 23 18 41t43 18h9l12 58h-93l-30 -58q33 -4 33 -35q0 -29 -19.5 -47t-50.5 -18h-94q-31 0 -44 9.5t-13 30.5zM322 259l45 212
l-109 -212h64z" />
    <glyph glyph-name="Ccedilla" unicode="&#xc7;" 
d="M347 86q48 0 84.5 11.5t53 25t33 25t29.5 11.5q17 0 29 -12t12 -29q0 -8 -7 -21.5t-26 -31.5t-46.5 -34t-73.5 -29t-101 -16q31 -6 41.5 -20.5t10.5 -45.5q0 -49 -38 -84.5t-90 -35.5q-43 0 -76.5 16.5t-33.5 38.5q0 17 13.5 30t30.5 13q5 0 31.5 -14t48.5 -14
q42 0 42 31q0 28 -41 28q-10 0 -27 -2l19 64q-88 18 -136.5 69.5t-48.5 134.5q0 27 6 54l14 66q26 120 121 201t211 81q70 0 144 -38q24 24 47 24q17 0 28.5 -11t11.5 -27q0 -11 -4 -28l-18 -84q-18 -66 -64 -66q-17 0 -28 10.5t-11 26.5v2l1 19v2q0 28 -37 49t-87 21
q-56 0 -100 -25t-68 -59.5t-39.5 -77t-20.5 -72t-5 -49.5q0 -59 44.5 -93.5t120.5 -34.5z" />
    <glyph glyph-name="Egrave" unicode="&#xc8;" 
d="M391 784l80 -81q17 -17 17 -37q0 -13 -14 -24.5t-30 -11.5q-13 0 -29 16l-80 82q-17 17 -17 36q0 15 13.5 25.5t29.5 10.5q13 0 30 -16zM352 342q2 13 6 27t19.5 30.5t39.5 16.5q17 0 28.5 -11t11.5 -27q0 -9 -4 -29l-25 -113q-14 -66 -63 -66q-17 0 -28.5 10.5
t-11.5 26.5t6 36h-85l-30 -143h255l12 52q13 67 63 67q17 0 29 -10.5t12 -26.5q0 -12 -4 -30l-33 -152h-470q-57 0 -57 40q0 24 17.5 42t60.5 18h15l81 383h-15q-31 0 -44 9t-13 31q0 23 17 41.5t62 18.5h448l-32 -150q-13 -67 -64 -67q-17 0 -28.5 11t-11.5 27t15 79h-234
l-30 -141h85z" />
    <glyph glyph-name="Eacute" unicode="&#xc9;" 
d="M500 728l-99 -76q-20 -16 -30 -16q-15 0 -25 10.5t-10 28.5q0 10 29 34l99 75q22 16 34 16q31 0 31 -37q0 -12 -29 -35zM352 342q2 13 6 27t19.5 30.5t39.5 16.5q17 0 28.5 -11t11.5 -27q0 -9 -4 -29l-25 -113q-14 -66 -63 -66q-17 0 -28.5 10.5t-11.5 26.5t6 36h-85
l-30 -143h255l12 52q13 67 63 67q17 0 29 -10.5t12 -26.5q0 -12 -4 -30l-33 -152h-470q-57 0 -57 40q0 24 17.5 42t60.5 18h15l81 383h-15q-31 0 -44 9t-13 31q0 23 17 41.5t62 18.5h448l-32 -150q-13 -67 -64 -67q-17 0 -28.5 11t-11.5 27t15 79h-234l-30 -141h85z" />
    <glyph glyph-name="Ecircumflex" unicode="&#xca;" 
d="M422 711l-124 -62q-26 -13 -30 -13q-13 0 -21.5 9t-8.5 21q0 11 6.5 20t10 11.5t14.5 8.5l169 94l142 -101q10 -10 10 -22q0 -16 -13 -28.5t-27 -12.5q-7 0 -27 13zM352 342q2 13 6 27t19.5 30.5t39.5 16.5q17 0 28.5 -11t11.5 -27q0 -9 -4 -29l-25 -113q-14 -66 -63 -66
q-17 0 -28.5 10.5t-11.5 26.5t6 36h-85l-30 -143h255l12 52q13 67 63 67q17 0 29 -10.5t12 -26.5q0 -12 -4 -30l-33 -152h-470q-57 0 -57 40q0 24 17.5 42t60.5 18h15l81 383h-15q-31 0 -44 9t-13 31q0 23 17 41.5t62 18.5h448l-32 -150q-13 -67 -64 -67q-17 0 -28.5 11
t-11.5 27t15 79h-234l-30 -141h85z" />
    <glyph glyph-name="Edieresis" unicode="&#xcb;" 
d="M365 777q22 0 35.5 -13.5t13.5 -34.5q0 -28 -23 -50t-52 -22q-20 0 -34 14t-14 34q0 27 23 49.5t51 22.5zM573 777q22 0 35.5 -13.5t13.5 -34.5q0 -28 -23 -50t-52 -22q-20 0 -34 14t-14 34q0 27 23 49.5t51 22.5zM352 342q2 13 6 27t19.5 30.5t39.5 16.5q17 0 28.5 -11
t11.5 -27q0 -9 -4 -29l-25 -113q-14 -66 -63 -66q-17 0 -28.5 10.5t-11.5 26.5t6 36h-85l-30 -143h255l12 52q13 67 63 67q17 0 29 -10.5t12 -26.5q0 -12 -4 -30l-33 -152h-470q-57 0 -57 40q0 24 17.5 42t60.5 18h15l81 383h-15q-31 0 -44 9t-13 31q0 23 17 41.5t62 18.5
h448l-32 -150q-13 -67 -64 -67q-17 0 -28.5 11t-11.5 27t15 79h-234l-30 -141h85z" />
    <glyph glyph-name="Igrave" unicode="&#xcc;" 
d="M405 783l80 -81q17 -17 17 -37q0 -13 -14 -24.5t-30 -11.5q-13 0 -29 16l-80 82q-17 17 -17 36q0 15 13.5 25.5t29.5 10.5q13 0 30 -16zM632 544q0 -24 -18 -42.5t-60 -18.5h-101l-81 -383h100q28 0 42.5 -7.5t14.5 -31.5t-18 -42.5t-60 -18.5h-301q-31 0 -44 9t-13 31
q0 24 18 42t60 18h101l81 383h-101q-31 0 -43.5 9t-12.5 31q0 24 18 42t60 18h301q29 0 43 -7.5t14 -31.5z" />
    <glyph glyph-name="Iacute" unicode="&#xcd;" 
d="M496 727l-99 -76q-20 -16 -30 -16q-15 0 -25 10.5t-10 28.5q0 10 29 34l99 75q22 16 34 16q31 0 31 -37q0 -12 -29 -35zM632 544q0 -24 -18 -42.5t-60 -18.5h-101l-81 -383h100q28 0 42.5 -7.5t14.5 -31.5t-18 -42.5t-60 -18.5h-301q-31 0 -44 9t-13 31q0 24 18 42t60 18
h101l81 383h-101q-31 0 -43.5 9t-12.5 31q0 24 18 42t60 18h301q29 0 43 -7.5t14 -31.5z" />
    <glyph glyph-name="Icircumflex" unicode="&#xce;" 
d="M430 710l-124 -62q-26 -13 -30 -13q-13 0 -21.5 9t-8.5 21q0 11 6.5 20t10 11.5t14.5 8.5l169 94l142 -101q10 -10 10 -22q0 -16 -13 -28.5t-27 -12.5q-7 0 -27 13zM632 544q0 -24 -18 -42.5t-60 -18.5h-101l-81 -383h100q28 0 42.5 -7.5t14.5 -31.5t-18 -42.5t-60 -18.5
h-301q-31 0 -44 9t-13 31q0 24 18 42t60 18h101l81 383h-101q-31 0 -43.5 9t-12.5 31q0 24 18 42t60 18h301q29 0 43 -7.5t14 -31.5z" />
    <glyph glyph-name="Idieresis" unicode="&#xcf;" 
d="M368 752q22 0 35.5 -13.5t13.5 -34.5q0 -28 -23 -50t-52 -22q-20 0 -34 14t-14 34q0 27 23 49.5t51 22.5zM576 752q22 0 35.5 -13.5t13.5 -34.5q0 -28 -23 -50t-52 -22q-20 0 -34 14t-14 34q0 27 23 49.5t51 22.5zM632 544q0 -24 -18 -42.5t-60 -18.5h-101l-81 -383h100
q28 0 42.5 -7.5t14.5 -31.5t-18 -42.5t-60 -18.5h-301q-31 0 -44 9t-13 31q0 24 18 42t60 18h101l81 383h-101q-31 0 -43.5 9t-12.5 31q0 24 18 42t60 18h301q29 0 43 -7.5t14 -31.5z" />
    <glyph glyph-name="Eth" unicode="&#xd0;" 
d="M23 40q0 21 17.5 40.5t55.5 19.5l30 143h-7q-31 0 -44 9t-13 31q0 23 18 41.5t60 18.5h7l30 140q-51 0 -51 40q0 23 17 41.5t61 18.5h213q92 0 148.5 -59t56.5 -155q0 -155 -93.5 -262t-243.5 -107h-205q-31 0 -44 9.5t-13 30.5zM378 304q0 -24 -18 -42.5t-60 -18.5h-74
l-30 -143h110q165 0 200 161l10 46q4 19 4 43q0 52 -30.5 92.5t-102.5 40.5h-110l-30 -140h74q29 0 43 -7.5t14 -31.5z" />
    <glyph glyph-name="Ntilde" unicode="&#xd1;" 
d="M499 734q17 0 44 24t44 24q12 0 20 -7.5t8 -16.5q0 -22 -41.5 -57.5t-83.5 -35.5q-28 0 -77 24t-64 24q-21 0 -47 -22.5t-42 -22.5q-11 0 -18.5 7t-7.5 18q0 23 39.5 56t85.5 33q28 0 76.5 -24t63.5 -24zM706 543q0 -21 -17.5 -40.5t-55.5 -19.5l-103 -483h-98l-176 394
l-62 -294h35q28 0 42 -7.5t14 -31.5q0 -23 -18 -42t-60 -19h-129q-31 0 -44 9t-13 31q0 21 17 40.5t56 19.5l81 383h-15q-31 0 -43.5 9t-12.5 31q0 23 18 41.5t60 18.5h114l175 -392l62 292h-35q-31 0 -43.5 9t-12.5 31q0 24 17.5 42t59.5 18h130q19 0 29.5 -2t19 -11.5
t8.5 -26.5z" />
    <glyph glyph-name="Ograve" unicode="&#xd2;" 
d="M410 784l80 -81q17 -17 17 -37q0 -13 -14 -24.5t-30 -11.5q-13 0 -29 16l-80 82q-17 17 -17 36q0 15 13.5 25.5t29.5 10.5q13 0 30 -16zM75 220q0 80 34 152.5t86 120.5t113.5 76t117.5 28q96 0 159.5 -66t63.5 -165q0 -82 -33.5 -155t-86 -121t-114 -76t-118.5 -28
q-95 0 -158.5 67t-63.5 167zM405 497q-86 0 -156.5 -79t-70.5 -175q0 -68 39.5 -112.5t99.5 -44.5q88 0 158.5 79t70.5 177q0 67 -40 111t-101 44z" />
    <glyph glyph-name="Oacute" unicode="&#xd3;" 
d="M511 728l-99 -76q-20 -16 -30 -16q-15 0 -25 10.5t-10 28.5q0 10 29 34l99 75q22 16 34 16q31 0 31 -37q0 -12 -29 -35zM75 220q0 80 34 152.5t86 120.5t113.5 76t117.5 28q96 0 159.5 -66t63.5 -165q0 -82 -33.5 -155t-86 -121t-114 -76t-118.5 -28q-95 0 -158.5 67
t-63.5 167zM405 497q-86 0 -156.5 -79t-70.5 -175q0 -68 39.5 -112.5t99.5 -44.5q88 0 158.5 79t70.5 177q0 67 -40 111t-101 44z" />
    <glyph glyph-name="Ocircumflex" unicode="&#xd4;" 
d="M429 711l-124 -62q-26 -13 -30 -13q-13 0 -21.5 9t-8.5 21q0 11 6.5 20t10 11.5t14.5 8.5l169 94l142 -101q10 -10 10 -22q0 -16 -13 -28.5t-27 -12.5q-7 0 -27 13zM75 220q0 80 34 152.5t86 120.5t113.5 76t117.5 28q96 0 159.5 -66t63.5 -165q0 -82 -33.5 -155
t-86 -121t-114 -76t-118.5 -28q-95 0 -158.5 67t-63.5 167zM405 497q-86 0 -156.5 -79t-70.5 -175q0 -68 39.5 -112.5t99.5 -44.5q88 0 158.5 79t70.5 177q0 67 -40 111t-101 44z" />
    <glyph glyph-name="Otilde" unicode="&#xd5;" 
d="M506 734q17 0 44 24t44 24q12 0 20 -7.5t8 -16.5q0 -22 -41.5 -57.5t-83.5 -35.5q-28 0 -77 24t-64 24q-21 0 -47 -22.5t-42 -22.5q-11 0 -18.5 7t-7.5 18q0 23 39.5 56t85.5 33q28 0 76.5 -24t63.5 -24zM75 220q0 80 34 152.5t86 120.5t113.5 76t117.5 28
q96 0 159.5 -66t63.5 -165q0 -82 -33.5 -155t-86 -121t-114 -76t-118.5 -28q-95 0 -158.5 67t-63.5 167zM405 497q-86 0 -156.5 -79t-70.5 -175q0 -68 39.5 -112.5t99.5 -44.5q88 0 158.5 79t70.5 177q0 67 -40 111t-101 44z" />
    <glyph glyph-name="Odieresis" unicode="&#xd6;" 
d="M360 753q22 0 35.5 -13.5t13.5 -34.5q0 -28 -23 -50t-52 -22q-20 0 -34 14t-14 34q0 27 23 49.5t51 22.5zM568 753q22 0 35.5 -13.5t13.5 -34.5q0 -28 -23 -50t-52 -22q-20 0 -34 14t-14 34q0 27 23 49.5t51 22.5zM75 220q0 80 34 152.5t86 120.5t113.5 76t117.5 28
q96 0 159.5 -66t63.5 -165q0 -82 -33.5 -155t-86 -121t-114 -76t-118.5 -28q-95 0 -158.5 67t-63.5 167zM405 497q-86 0 -156.5 -79t-70.5 -175q0 -68 39.5 -112.5t99.5 -44.5q88 0 158.5 79t70.5 177q0 67 -40 111t-101 44z" />
    <glyph glyph-name="multiply" unicode="&#xd7;" 
d="M344 209l-125 -103q-31 -26 -52 -26q-18 0 -29.5 11.5t-11.5 28.5q0 16 7.5 27.5t29.5 29.5l125 103l-81 103q-18 22 -18 38q0 22 20 40.5t43 18.5q20 0 41 -26l81 -103l125 103q32 26 52 26q18 0 29.5 -11.5t11.5 -28.5q0 -25 -37 -57l-125 -103l81 -103q18 -23 18 -38
q0 -22 -20 -40.5t-43 -18.5q-21 0 -41 26z" />
    <glyph glyph-name="Oslash" unicode="&#xd8;" 
d="M649 365q0 -81 -33.5 -154t-85.5 -121t-113.5 -76t-118.5 -28q-76 0 -133 42l-68 -68q-19 -19 -29 -24.5t-24 -5.5q-17 0 -28.5 10.5t-11.5 26.5q0 22 31 52l73 73q-33 57 -33 128q0 94 50 182t132 141.5t170 53.5q77 0 139 -48l58 58q31 31 54 31q17 0 28 -11t11 -27
q0 -23 -30 -52l-66 -65q28 -50 28 -118zM538 400l-294 -293q34 -21 75 -21q87 0 157 79t70 177q0 31 -8 58zM190 174l297 297q-37 26 -82 26q-86 0 -156.5 -79t-70.5 -175q0 -35 12 -69z" />
    <glyph glyph-name="Ugrave" unicode="&#xd9;" 
d="M406 784l80 -81q17 -17 17 -37q0 -13 -14 -24.5t-30 -11.5q-13 0 -29 16l-80 82q-17 17 -17 36q0 15 13.5 25.5t29.5 10.5q13 0 30 -16zM648 583q28 0 42.5 -7.5t14.5 -31.5q0 -26 -19.5 -43.5t-53.5 -17.5l-59 -278q-19 -93 -98.5 -156t-176.5 -63q-82 0 -135 49
t-53 123q0 26 5 47l59 278q-51 0 -51 40q0 23 17 41.5t61 18.5h130q28 0 42 -7t14 -32q0 -24 -17.5 -42.5t-60.5 -18.5h-35l-61 -287q-2 -14 -2 -20q0 -39 30.5 -64.5t77.5 -25.5q53 0 97.5 32t54.5 78l61 287h-35q-31 0 -43.5 9t-12.5 31q0 23 17 41.5t61 18.5h129z" />
    <glyph glyph-name="Uacute" unicode="&#xda;" 
d="M508 727l-99 -76q-20 -16 -30 -16q-15 0 -25 10.5t-10 28.5q0 10 29 34l99 75q22 16 34 16q31 0 31 -37q0 -12 -29 -35zM648 583q28 0 42.5 -7.5t14.5 -31.5q0 -26 -19.5 -43.5t-53.5 -17.5l-59 -278q-19 -93 -98.5 -156t-176.5 -63q-82 0 -135 49t-53 123q0 26 5 47
l59 278q-51 0 -51 40q0 23 17 41.5t61 18.5h130q28 0 42 -7t14 -32q0 -24 -17.5 -42.5t-60.5 -18.5h-35l-61 -287q-2 -14 -2 -20q0 -39 30.5 -64.5t77.5 -25.5q53 0 97.5 32t54.5 78l61 287h-35q-31 0 -43.5 9t-12.5 31q0 23 17 41.5t61 18.5h129z" />
    <glyph glyph-name="Ucircumflex" unicode="&#xdb;" 
d="M436 711l-124 -62q-26 -13 -30 -13q-13 0 -21.5 9t-8.5 21q0 11 6.5 20t10 11.5t14.5 8.5l169 94l142 -101q10 -10 10 -22q0 -16 -13 -28.5t-27 -12.5q-7 0 -27 13zM648 583q28 0 42.5 -7.5t14.5 -31.5q0 -26 -19.5 -43.5t-53.5 -17.5l-59 -278q-19 -93 -98.5 -156
t-176.5 -63q-82 0 -135 49t-53 123q0 26 5 47l59 278q-51 0 -51 40q0 23 17 41.5t61 18.5h130q28 0 42 -7t14 -32q0 -24 -17.5 -42.5t-60.5 -18.5h-35l-61 -287q-2 -14 -2 -20q0 -39 30.5 -64.5t77.5 -25.5q53 0 97.5 32t54.5 78l61 287h-35q-31 0 -43.5 9t-12.5 31
q0 23 17 41.5t61 18.5h129z" />
    <glyph glyph-name="Udieresis" unicode="&#xdc;" 
d="M360 754q22 0 35.5 -13.5t13.5 -34.5q0 -28 -23 -50t-52 -22q-20 0 -34 14t-14 34q0 27 23 49.5t51 22.5zM568 754q22 0 35.5 -13.5t13.5 -34.5q0 -28 -23 -50t-52 -22q-20 0 -34 14t-14 34q0 27 23 49.5t51 22.5zM648 583q28 0 42.5 -7.5t14.5 -31.5q0 -26 -19.5 -43.5
t-53.5 -17.5l-59 -278q-19 -93 -98.5 -156t-176.5 -63q-82 0 -135 49t-53 123q0 26 5 47l59 278q-51 0 -51 40q0 23 17 41.5t61 18.5h130q28 0 42 -7t14 -32q0 -24 -17.5 -42.5t-60.5 -18.5h-35l-61 -287q-2 -14 -2 -20q0 -39 30.5 -64.5t77.5 -25.5q53 0 97.5 32t54.5 78
l61 287h-35q-31 0 -43.5 9t-12.5 31q0 23 17 41.5t61 18.5h129z" />
    <glyph glyph-name="Yacute" unicode="&#xdd;" 
d="M513 727l-99 -76q-20 -16 -30 -16q-15 0 -25 10.5t-10 28.5q0 10 29 34l99 75q22 16 34 16q31 0 31 -37q0 -12 -29 -35zM694 544q0 -22 -17.5 -41.5t-56.5 -19.5h-3l-215 -238l-30 -145h65q28 0 42.5 -8t14.5 -31t-18 -42t-60 -19h-231q-31 0 -44 9.5t-13 30.5
q0 24 17.5 42t60.5 18h66l30 145l-114 238h-6q-48 0 -48 40q0 24 18 42t60 18h90q28 0 42 -7.5t14 -31.5q0 -41 -50 -61l66 -135l123 135q-30 12 -30 40q0 24 18 42t60 18h93q28 0 42 -7.5t14 -31.5z" />
    <glyph glyph-name="Thorn" unicode="&#xde;" 
d="M588 321q0 -30 -12.5 -59t-40 -58t-82.5 -46.5t-131 -17.5h-98l-8 -40h98q29 0 43.5 -7.5t14.5 -31.5t-18.5 -42.5t-60.5 -18.5h-213q-31 0 -44 9.5t-13 30.5q0 23 18 41.5t60 18.5h15l81 383h-15q-28 0 -42 8t-14 32q0 23 18 41.5t60 18.5h213q31 0 44 -9t13 -31
q0 -23 -18 -41.5t-60 -18.5h-99l-8 -40h98q103 0 148 -28q53 -34 53 -94zM246 240h130q108 0 108 62q0 22 -20 31.5t-66 9.5h-131z" />
    <glyph glyph-name="germandbls" unicode="&#xdf;" 
d="M296 342q0 26 15 39.5t37 18l44 9t37 19t15 42.5q0 25 -17 39t-47 14q-73 0 -87 -62l-77 -361q34 -6 34 -37q0 -24 -17 -43.5t-62 -19.5h-93q-30 0 -43 9t-13 31q0 23 18 41.5t60 18.5h16l80 378q13 64 70.5 104.5t133.5 40.5q66 0 106 -36.5t40 -96.5q0 -69 -57 -125
q80 -56 80 -151q0 -26 -9.5 -61t-30 -75t-62 -67t-97.5 -27q-45 0 -71.5 24t-26.5 66q0 35 19 58.5t47 23.5q16 0 26.5 -9t10.5 -22v-12q0 -29 24 -29q26 0 47 33t21 74q0 98 -125 112q-25 3 -35.5 12t-10.5 27z" />
    <glyph glyph-name="agrave" unicode="&#xe0;" 
d="M360 651l80 -81q17 -17 17 -37q0 -13 -14 -24.5t-30 -11.5q-13 0 -29 16l-80 82q-17 17 -17 36q0 15 13.5 25.5t29.5 10.5q13 0 30 -16zM583 61q0 -24 -18 -42.5t-60 -18.5h-117l5 23q-83 -39 -174 -39q-67 0 -110.5 32.5t-43.5 81.5q0 14 7 34.5t27.5 48.5t50 51
t81 39.5t115.5 16.5q45 0 101 -10q6 24 6 33q0 39 -84 39q-39 0 -94 -11.5t-68 -11.5q-17 0 -27.5 11t-10.5 28q0 45 68.5 64.5t151.5 19.5q78 0 123 -30.5t45 -82.5q0 -19 -4 -35l-43 -202h17q28 0 42 -7.5t14 -31.5zM320 196q-59 0 -102.5 -26t-43.5 -52q0 -14 19.5 -24
t47.5 -10q83 0 177 51l10 50q-60 11 -108 11z" />
    <glyph glyph-name="aacute" unicode="&#xe1;" 
d="M476 589l-99 -76q-20 -16 -30 -16q-15 0 -25 10.5t-10 28.5q0 10 29 34l99 75q22 16 34 16q31 0 31 -37q0 -12 -29 -35zM583 61q0 -24 -18 -42.5t-60 -18.5h-117l5 23q-83 -39 -174 -39q-67 0 -110.5 32.5t-43.5 81.5q0 14 7 34.5t27.5 48.5t50 51t81 39.5t115.5 16.5
q45 0 101 -10q6 24 6 33q0 39 -84 39q-39 0 -94 -11.5t-68 -11.5q-17 0 -27.5 11t-10.5 28q0 45 68.5 64.5t151.5 19.5q78 0 123 -30.5t45 -82.5q0 -19 -4 -35l-43 -202h17q28 0 42 -7.5t14 -31.5zM320 196q-59 0 -102.5 -26t-43.5 -52q0 -14 19.5 -24t47.5 -10q83 0 177 51
l10 50q-60 11 -108 11z" />
    <glyph glyph-name="acircumflex" unicode="&#xe2;" 
d="M390 573l-124 -62q-26 -13 -30 -13q-13 0 -21.5 9t-8.5 21q0 11 6.5 20t10 11.5t14.5 8.5l169 94l142 -101q10 -10 10 -22q0 -16 -13 -28.5t-27 -12.5q-7 0 -27 13zM583 61q0 -24 -18 -42.5t-60 -18.5h-117l5 23q-83 -39 -174 -39q-67 0 -110.5 32.5t-43.5 81.5
q0 14 7 34.5t27.5 48.5t50 51t81 39.5t115.5 16.5q45 0 101 -10q6 24 6 33q0 39 -84 39q-39 0 -94 -11.5t-68 -11.5q-17 0 -27.5 11t-10.5 28q0 45 68.5 64.5t151.5 19.5q78 0 123 -30.5t45 -82.5q0 -19 -4 -35l-43 -202h17q28 0 42 -7.5t14 -31.5zM320 196
q-59 0 -102.5 -26t-43.5 -52q0 -14 19.5 -24t47.5 -10q83 0 177 51l10 50q-60 11 -108 11z" />
    <glyph glyph-name="atilde" unicode="&#xe3;" 
d="M469 587q17 0 44 24t44 24q12 0 20 -7.5t8 -16.5q0 -22 -41.5 -57.5t-83.5 -35.5q-28 0 -77 24t-64 24q-21 0 -47 -22.5t-42 -22.5q-11 0 -18.5 7t-7.5 18q0 23 39.5 56t85.5 33q28 0 76.5 -24t63.5 -24zM583 61q0 -24 -18 -42.5t-60 -18.5h-117l5 23q-83 -39 -174 -39
q-67 0 -110.5 32.5t-43.5 81.5q0 14 7 34.5t27.5 48.5t50 51t81 39.5t115.5 16.5q45 0 101 -10q6 24 6 33q0 39 -84 39q-39 0 -94 -11.5t-68 -11.5q-17 0 -27.5 11t-10.5 28q0 45 68.5 64.5t151.5 19.5q78 0 123 -30.5t45 -82.5q0 -19 -4 -35l-43 -202h17q28 0 42 -7.5
t14 -31.5zM320 196q-59 0 -102.5 -26t-43.5 -52q0 -14 19.5 -24t47.5 -10q83 0 177 51l10 50q-60 11 -108 11z" />
    <glyph glyph-name="adieresis" unicode="&#xe4;" 
d="M323 630q22 0 35.5 -13.5t13.5 -34.5q0 -28 -23 -50t-52 -22q-20 0 -34 14t-14 34q0 27 23 49.5t51 22.5zM531 630q22 0 35.5 -13.5t13.5 -34.5q0 -28 -23 -50t-52 -22q-20 0 -34 14t-14 34q0 27 23 49.5t51 22.5zM583 61q0 -24 -18 -42.5t-60 -18.5h-117l5 23
q-83 -39 -174 -39q-67 0 -110.5 32.5t-43.5 81.5q0 14 7 34.5t27.5 48.5t50 51t81 39.5t115.5 16.5q45 0 101 -10q6 24 6 33q0 39 -84 39q-39 0 -94 -11.5t-68 -11.5q-17 0 -27.5 11t-10.5 28q0 45 68.5 64.5t151.5 19.5q78 0 123 -30.5t45 -82.5q0 -19 -4 -35l-43 -202h17
q28 0 42 -7.5t14 -31.5zM320 196q-59 0 -102.5 -26t-43.5 -52q0 -14 19.5 -24t47.5 -10q83 0 177 51l10 50q-60 11 -108 11z" />
    <glyph glyph-name="aring" unicode="&#xe5;" 
d="M409 677q35 0 57 -21t22 -54q0 -44 -35 -75t-76 -31q-34 0 -56 22t-22 54q0 43 34.5 74t75.5 31zM398 615q-13 0 -24 -9.5t-11 -23.5q0 -10 7 -17t18 -7q13 0 24.5 9.5t11.5 23.5q0 10 -7.5 17t-18.5 7zM583 61q0 -24 -18 -42.5t-60 -18.5h-117l5 23q-83 -39 -174 -39
q-67 0 -110.5 32.5t-43.5 81.5q0 14 7 34.5t27.5 48.5t50 51t81 39.5t115.5 16.5q45 0 101 -10q6 24 6 33q0 39 -84 39q-39 0 -94 -11.5t-68 -11.5q-17 0 -27.5 11t-10.5 28q0 45 68.5 64.5t151.5 19.5q78 0 123 -30.5t45 -82.5q0 -19 -4 -35l-43 -202h17q28 0 42 -7.5
t14 -31.5zM320 196q-59 0 -102.5 -26t-43.5 -52q0 -14 19.5 -24t47.5 -10q83 0 177 51l10 50q-60 11 -108 11z" />
    <glyph glyph-name="ae" unicode="&#xe6;" 
d="M125 365q0 25 22 43.5t54.5 26.5t57.5 11.5t43 3.5q67 0 104 -56q65 56 125 56q59 0 96.5 -45t37.5 -115q0 -39 -18 -118h-250q2 -47 16.5 -67.5t45.5 -20.5q25 0 72 17t61 17q16 0 26 -10.5t10 -27.5q0 -27 -23 -47t-56.5 -30t-62 -14.5t-49.5 -4.5q-50 0 -91 32
q-19 -17 -41 -17q-21 0 -33 17q-58 -32 -116 -32q-67 0 -104.5 32.5t-37.5 89.5q0 76 50 115q36 28 91 46.5t101 18.5q16 0 59 -5q5 25 5 33q-2 36 -38 36q-20 0 -64 -12.5t-55 -12.5q-16 0 -27 11.5t-11 28.5zM241 197q-52 0 -88 -18.5t-36 -48.5q0 -22 16 -34t44 -12
q40 0 106 46l12 59q-29 8 -54 8zM417 258h140q1 10 1 22q0 32 -13.5 51t-37.5 19q-55 0 -90 -92z" />
    <glyph glyph-name="ccedilla" unicode="&#xe7;" 
d="M348 84q54 0 90.5 9t50 19t27.5 19t28 9q18 0 29.5 -11.5t11.5 -29.5q0 -9 -5 -20.5t-21 -28t-41.5 -30t-72.5 -24t-107 -12.5q31 -6 41.5 -19.5t10.5 -44.5q0 -49 -37.5 -84.5t-89.5 -35.5q-43 0 -76.5 16.5t-33.5 38.5q0 17 13.5 30t30.5 13q5 0 31.5 -14t47.5 -14
q42 0 42 31q0 28 -49 28q-1 0 -19 -2l18 59q-85 9 -130.5 54t-45.5 116q0 24 8 57.5t30.5 76t56 77.5t91 59t128.5 24q84 0 137 -30q16 30 43 30q17 0 28.5 -9.5t11.5 -25.5q0 -6 -5 -31l-16 -77q-13 -66 -64 -66q-25 0 -33 12.5t-8 35.5q0 33 -34.5 47t-80.5 14
q-45 0 -80.5 -14.5t-55.5 -35t-33 -46t-17 -44t-4 -31.5q0 -95 153 -95z" />
    <glyph glyph-name="egrave" unicode="&#xe8;" 
d="M372 650l80 -81q17 -17 17 -37q0 -13 -14 -24.5t-30 -11.5q-13 0 -29 16l-80 82q-17 17 -17 36q0 15 13.5 25.5t29.5 10.5q13 0 30 -16zM325 84q49 0 119 16.5t84 16.5q17 0 27.5 -10.5t10.5 -27.5q0 -34 -33 -51q-32 -17 -105.5 -30.5t-133.5 -13.5q-102 0 -161 49.5
t-59 135.5q0 112 94.5 196.5t218.5 84.5q97 0 155 -52t58 -139q0 -17 -13 -87h-409q16 -88 147 -88zM200 260h295q-4 41 -39 65.5t-89 24.5q-56 0 -101 -24.5t-66 -65.5z" />
    <glyph glyph-name="eacute" unicode="&#xe9;" 
d="M487 589l-99 -76q-20 -16 -30 -16q-15 0 -25 10.5t-10 28.5q0 10 29 34l99 75q22 16 34 16q31 0 31 -37q0 -12 -29 -35zM325 84q49 0 119 16.5t84 16.5q17 0 27.5 -10.5t10.5 -27.5q0 -34 -33 -51q-32 -17 -105.5 -30.5t-133.5 -13.5q-102 0 -161 49.5t-59 135.5
q0 112 94.5 196.5t218.5 84.5q97 0 155 -52t58 -139q0 -17 -13 -87h-409q16 -88 147 -88zM200 260h295q-4 41 -39 65.5t-89 24.5q-56 0 -101 -24.5t-66 -65.5z" />
    <glyph glyph-name="ecircumflex" unicode="&#xea;" 
d="M396 585l-124 -62q-26 -13 -30 -13q-13 0 -21.5 9t-8.5 21q0 11 6.5 20t10 11.5t14.5 8.5l169 94l142 -101q10 -10 10 -22q0 -16 -13 -28.5t-27 -12.5q-7 0 -27 13zM325 84q49 0 119 16.5t84 16.5q17 0 27.5 -10.5t10.5 -27.5q0 -34 -33 -51q-32 -17 -105.5 -30.5
t-133.5 -13.5q-102 0 -161 49.5t-59 135.5q0 112 94.5 196.5t218.5 84.5q97 0 155 -52t58 -139q0 -17 -13 -87h-409q16 -88 147 -88zM200 260h295q-4 41 -39 65.5t-89 24.5q-56 0 -101 -24.5t-66 -65.5z" />
    <glyph glyph-name="edieresis" unicode="&#xeb;" 
d="M321 630q22 0 35.5 -13.5t13.5 -34.5q0 -28 -23 -50t-52 -22q-20 0 -34 14t-14 34q0 27 23 49.5t51 22.5zM529 630q22 0 35.5 -13.5t13.5 -34.5q0 -28 -23 -50t-52 -22q-20 0 -34 14t-14 34q0 27 23 49.5t51 22.5zM325 84q49 0 119 16.5t84 16.5q17 0 27.5 -10.5
t10.5 -27.5q0 -34 -33 -51q-32 -17 -105.5 -30.5t-133.5 -13.5q-102 0 -161 49.5t-59 135.5q0 112 94.5 196.5t218.5 84.5q97 0 155 -52t58 -139q0 -17 -13 -87h-409q16 -88 147 -88zM200 260h295q-4 41 -39 65.5t-89 24.5q-56 0 -101 -24.5t-66 -65.5z" />
    <glyph glyph-name="igrave" unicode="&#xec;" 
d="M359 652l80 -81q17 -17 17 -37q0 -13 -14 -24.5t-30 -11.5q-13 0 -29 16l-80 82q-17 17 -17 36q0 15 13.5 25.5t29.5 10.5q13 0 30 -16zM186 377q0 23 17 41.5t62 18.5h178l-71 -337h121q28 0 42.5 -7.5t14.5 -32.5q0 -22 -17.5 -41t-60.5 -19h-343q-31 0 -44 9t-13 31
q0 24 18 42t60 18h122l50 237h-78q-32 0 -45 9t-13 31z" />
    <glyph glyph-name="iacute" unicode="&#xed;" 
d="M468 590l-99 -76q-20 -16 -30 -16q-15 0 -25 10.5t-10 28.5q0 10 29 34l99 75q22 16 34 16q31 0 31 -37q0 -12 -29 -35zM186 377q0 23 17 41.5t62 18.5h178l-71 -337h121q28 0 42.5 -7.5t14.5 -32.5q0 -22 -17.5 -41t-60.5 -19h-343q-31 0 -44 9t-13 31q0 24 18 42t60 18
h122l50 237h-78q-32 0 -45 9t-13 31z" />
    <glyph glyph-name="icircumflex" unicode="&#xee;" 
d="M366 585l-124 -62q-26 -13 -30 -13q-13 0 -21.5 9t-8.5 21q0 11 6.5 20t10 11.5t14.5 8.5l169 94l142 -101q10 -10 10 -22q0 -16 -13 -28.5t-27 -12.5q-7 0 -27 13zM186 377q0 23 17 41.5t62 18.5h178l-71 -337h121q28 0 42.5 -7.5t14.5 -32.5q0 -22 -17.5 -41t-60.5 -19
h-343q-31 0 -44 9t-13 31q0 24 18 42t60 18h122l50 237h-78q-32 0 -45 9t-13 31z" />
    <glyph glyph-name="idieresis" unicode="&#xef;" 
d="M291 630q22 0 35.5 -13.5t13.5 -34.5q0 -28 -23 -50t-52 -22q-20 0 -34 14t-14 34q0 27 23 49.5t51 22.5zM499 630q22 0 35.5 -13.5t13.5 -34.5q0 -28 -23 -50t-52 -22q-20 0 -34 14t-14 34q0 27 23 49.5t51 22.5zM186 377q0 23 17 41.5t62 18.5h178l-71 -337h121
q28 0 42.5 -7.5t14.5 -32.5q0 -22 -17.5 -41t-60.5 -19h-343q-31 0 -44 9t-13 31q0 24 18 42t60 18h122l50 237h-78q-32 0 -45 9t-13 31z" />
    <glyph glyph-name="eth" unicode="&#xf0;" 
d="M331 551q-9 4 -19 8.5t-15.5 7t-12 5.5t-9.5 4.5t-6 3.5t-4.5 3.5t-2.5 3.5t-1.5 4.5t-0.5 5.5q0 16 15 29.5t33 13.5q32 0 93 -31l25 -13l86 41q20 9 35 9q11 0 18 -7.5t7 -18.5q0 -23 -30 -37l-51 -25q126 -103 126 -246q0 -99 -46.5 -175.5t-118.5 -114.5t-154 -38
q-94 0 -154.5 52.5t-60.5 133.5q0 95 87 184t212 89q37 0 64 -9.5t68 -37.5q-43 76 -110 122l-103 -50q-23 -12 -34 -12q-23 0 -23 28q0 14 5.5 21t24.5 17zM318 84q69 0 127.5 43.5t58.5 110.5q0 49 -36.5 80.5t-93.5 31.5q-72 0 -129.5 -50t-57.5 -112q0 -43 38 -73.5
t93 -30.5z" />
    <glyph glyph-name="ntilde" unicode="&#xf1;" 
d="M473 587q17 0 44 24t44 24q12 0 20 -7.5t8 -16.5q0 -22 -41.5 -57.5t-83.5 -35.5q-28 0 -77 24t-64 24q-21 0 -47 -22.5t-42 -22.5q-11 0 -18.5 7t-7.5 18q0 23 39.5 56t85.5 33q28 0 76.5 -24t63.5 -24zM115 377q0 23 18.5 41.5t60.5 18.5h94l-10 -48q43 34 76 47.5
t74 13.5q66 0 106.5 -33.5t40.5 -88.5q0 -19 -5 -46l-39 -182q52 0 52 -40q0 -23 -18 -41.5t-60 -18.5h-89q-31 0 -44 9t-13 31q0 21 17.5 40.5t55.5 19.5l37 178q3 14 3 23q0 49 -78 49q-35 0 -65.5 -15t-73.5 -53l-38 -182h6q28 0 42 -8t14 -32q0 -23 -18 -41.5t-60 -18.5
h-112q-30 0 -43 9t-13 31q0 23 18 41.5t60 18.5h6l50 237q-52 0 -52 40z" />
    <glyph glyph-name="ograve" unicode="&#xf2;" 
d="M370 650l80 -81q17 -17 17 -37q0 -13 -14 -24.5t-30 -11.5q-13 0 -29 16l-80 82q-17 17 -17 36q0 15 13.5 25.5t29.5 10.5q13 0 30 -16zM84 174q0 59 36 121t110.5 108.5t168.5 46.5q93 0 151.5 -53t58.5 -137q0 -109 -95 -192.5t-217 -83.5q-96 0 -154.5 52t-58.5 138z
M376 350q-77 0 -133.5 -47t-56.5 -111q0 -47 37 -77.5t95 -30.5q76 0 132.5 47.5t56.5 110.5q0 47 -37 77.5t-94 30.5z" />
    <glyph glyph-name="oacute" unicode="&#xf3;" 
d="M487 587l-99 -76q-20 -16 -30 -16q-15 0 -25 10.5t-10 28.5q0 10 29 34l99 75q22 16 34 16q31 0 31 -37q0 -12 -29 -35zM84 174q0 59 36 121t110.5 108.5t168.5 46.5q93 0 151.5 -53t58.5 -137q0 -109 -95 -192.5t-217 -83.5q-96 0 -154.5 52t-58.5 138zM376 350
q-77 0 -133.5 -47t-56.5 -111q0 -47 37 -77.5t95 -30.5q76 0 132.5 47.5t56.5 110.5q0 47 -37 77.5t-94 30.5z" />
    <glyph glyph-name="ocircumflex" unicode="&#xf4;" 
d="M400 573l-124 -62q-26 -13 -30 -13q-13 0 -21.5 9t-8.5 21q0 11 6.5 20t10 11.5t14.5 8.5l169 94l142 -101q10 -10 10 -22q0 -16 -13 -28.5t-27 -12.5q-7 0 -27 13zM84 174q0 59 36 121t110.5 108.5t168.5 46.5q93 0 151.5 -53t58.5 -137q0 -109 -95 -192.5t-217 -83.5
q-96 0 -154.5 52t-58.5 138zM376 350q-77 0 -133.5 -47t-56.5 -111q0 -47 37 -77.5t95 -30.5q76 0 132.5 47.5t56.5 110.5q0 47 -37 77.5t-94 30.5z" />
    <glyph glyph-name="otilde" unicode="&#xf5;" 
d="M479 587q17 0 44 24t44 24q12 0 20 -7.5t8 -16.5q0 -22 -41.5 -57.5t-83.5 -35.5q-28 0 -77 24t-64 24q-21 0 -47 -22.5t-42 -22.5q-11 0 -18.5 7t-7.5 18q0 23 39.5 56t85.5 33q28 0 76.5 -24t63.5 -24zM84 174q0 59 36 121t110.5 108.5t168.5 46.5q93 0 151.5 -53
t58.5 -137q0 -109 -95 -192.5t-217 -83.5q-96 0 -154.5 52t-58.5 138zM376 350q-77 0 -133.5 -47t-56.5 -111q0 -47 37 -77.5t95 -30.5q76 0 132.5 47.5t56.5 110.5q0 47 -37 77.5t-94 30.5z" />
    <glyph glyph-name="odieresis" unicode="&#xf6;" 
d="M333 630q22 0 35.5 -13.5t13.5 -34.5q0 -28 -23 -50t-52 -22q-20 0 -34 14t-14 34q0 27 23 49.5t51 22.5zM541 630q22 0 35.5 -13.5t13.5 -34.5q0 -28 -23 -50t-52 -22q-20 0 -34 14t-14 34q0 27 23 49.5t51 22.5zM84 174q0 59 36 121t110.5 108.5t168.5 46.5
q93 0 151.5 -53t58.5 -137q0 -109 -95 -192.5t-217 -83.5q-96 0 -154.5 52t-58.5 138zM376 350q-77 0 -133.5 -47t-56.5 -111q0 -47 37 -77.5t95 -30.5q76 0 132.5 47.5t56.5 110.5q0 47 -37 77.5t-94 30.5z" />
    <glyph glyph-name="divide" unicode="&#xf7;" 
d="M101 270q0 23 17 41.5t61 18.5h383q31 0 44 -7.5t13 -32.5q0 -23 -18 -41.5t-60 -18.5h-383q-31 0 -44 9t-13 31zM335 160q62 0 62 -52q0 -34 -26.5 -57t-64.5 -23q-29 0 -45.5 13.5t-16.5 38.5q0 34 26.5 57t64.5 23zM413 532q63 0 63 -52q0 -34 -26.5 -57t-64.5 -23
q-29 0 -45.5 13.5t-16.5 38.5q0 33 26.5 56.5t63.5 23.5z" />
    <glyph glyph-name="oslash" unicode="&#xf8;" 
d="M634 402l-51 -43q26 -46 26 -99q0 -108 -95 -192t-217 -84q-67 0 -123 30l-68 -58q-30 -26 -50 -26q-17 0 -28 10.5t-11 27.5q0 24 35 54l59 50q-28 46 -28 102q0 107 94.5 191.5t214.5 84.5q77 0 129 -31l59 49q30 26 50 26q17 0 28 -10.5t11 -27.5q0 -25 -35 -54z
M496 286l-230 -195q24 -7 50 -7q77 0 134 47t57 110q0 24 -11 45zM197 145l233 197q-32 8 -56 8q-75 0 -132 -47.5t-57 -110.5q0 -23 12 -47z" />
    <glyph glyph-name="ugrave" unicode="&#xf9;" 
d="M368 652l80 -81q17 -17 17 -37q0 -13 -14 -24.5t-30 -11.5q-13 0 -29 16l-80 82q-17 17 -17 36q0 15 13.5 25.5t29.5 10.5q13 0 30 -16zM390 377q0 24 18 42t60 18h135l-72 -337q52 0 52 -39q0 -24 -18.5 -42.5t-60.5 -18.5h-94l10 48q-45 -35 -76.5 -48t-73.5 -13
q-66 0 -106.5 34t-40.5 89q0 19 5 46l38 182h-16q-30 0 -43 9t-13 31q0 24 18 41.5t60 17.5h116l-59 -278q-3 -12 -3 -23q0 -49 75 -49q37 0 66 13.5t76 54.5l39 183h-35q-31 0 -44 9t-13 30z" />
    <glyph glyph-name="uacute" unicode="&#xfa;" 
d="M475 589l-99 -76q-20 -16 -30 -16q-15 0 -25 10.5t-10 28.5q0 10 29 34l99 75q22 16 34 16q31 0 31 -37q0 -12 -29 -35zM390 377q0 24 18 42t60 18h135l-72 -337q52 0 52 -39q0 -24 -18.5 -42.5t-60.5 -18.5h-94l10 48q-45 -35 -76.5 -48t-73.5 -13q-66 0 -106.5 34
t-40.5 89q0 19 5 46l38 182h-16q-30 0 -43 9t-13 31q0 24 18 41.5t60 17.5h116l-59 -278q-3 -12 -3 -23q0 -49 75 -49q37 0 66 13.5t76 54.5l39 183h-35q-31 0 -44 9t-13 30z" />
    <glyph glyph-name="ucircumflex" unicode="&#xfb;" 
d="M396 572l-124 -62q-26 -13 -30 -13q-13 0 -21.5 9t-8.5 21q0 11 6.5 20t10 11.5t14.5 8.5l169 94l142 -101q10 -10 10 -22q0 -16 -13 -28.5t-27 -12.5q-7 0 -27 13zM390 377q0 24 18 42t60 18h135l-72 -337q52 0 52 -39q0 -24 -18.5 -42.5t-60.5 -18.5h-94l10 48
q-45 -35 -76.5 -48t-73.5 -13q-66 0 -106.5 34t-40.5 89q0 19 5 46l38 182h-16q-30 0 -43 9t-13 31q0 24 18 41.5t60 17.5h116l-59 -278q-3 -12 -3 -23q0 -49 75 -49q37 0 66 13.5t76 54.5l39 183h-35q-31 0 -44 9t-13 30z" />
    <glyph glyph-name="udieresis" unicode="&#xfc;" 
d="M324 630q22 0 35.5 -13.5t13.5 -34.5q0 -28 -23 -50t-52 -22q-20 0 -34 14t-14 34q0 27 23 49.5t51 22.5zM532 630q22 0 35.5 -13.5t13.5 -34.5q0 -28 -23 -50t-52 -22q-20 0 -34 14t-14 34q0 27 23 49.5t51 22.5zM390 377q0 24 18 42t60 18h135l-72 -337q52 0 52 -39
q0 -24 -18.5 -42.5t-60.5 -18.5h-94l10 48q-45 -35 -76.5 -48t-73.5 -13q-66 0 -106.5 34t-40.5 89q0 19 5 46l38 182h-16q-30 0 -43 9t-13 31q0 24 18 41.5t60 17.5h116l-59 -278q-3 -12 -3 -23q0 -49 75 -49q37 0 66 13.5t76 54.5l39 183h-35q-31 0 -44 9t-13 30z" />
    <glyph glyph-name="yacute" unicode="&#xfd;" 
d="M508 589l-99 -76q-20 -16 -30 -16q-15 0 -25 10.5t-10 28.5q0 10 29 34l99 75q22 16 34 16q31 0 31 -37q0 -12 -29 -35zM-12 -160q0 23 18 41.5t60 18.5h100l77 103l-101 334q-40 6 -40 40q0 23 18 41.5t60 18.5h90q28 0 42 -7.5t14 -31.5q0 -27 -19.5 -43.5t-51.5 -17.5
l68 -223l166 223h-5q-49 0 -49 40q0 23 18 41.5t60 18.5h92q19 0 29.5 -2t19 -11.5t8.5 -26.5q0 -24 -17.5 -40.5t-45.5 -19.5l-324 -437h5q28 0 42.5 -8t14.5 -31q0 -24 -18 -42.5t-60 -18.5h-214q-31 0 -44 9t-13 31z" />
    <glyph glyph-name="thorn" unicode="&#xfe;" 
d="M113 564q0 23 18 41.5t60 18.5h116l-50 -232q80 58 166 58q91 0 145.5 -49t54.5 -132q0 -106 -86.5 -182.5t-207.5 -76.5q-79 0 -141 56l-35 -166h58q28 0 42 -7.5t14 -31.5t-18 -42.5t-60 -18.5h-174q-30 0 -43 9t-13 31q0 23 18 41.5t60 18.5h16l132 624h-16
q-31 0 -43.5 9t-12.5 31zM346 110q49 0 86.5 17t55 42t26 46t8.5 37q0 45 -34 71.5t-90 26.5q-52 0 -89.5 -17.5t-55 -43t-25 -46.5t-7.5 -35q0 -37 29 -67.5t96 -30.5z" />
    <glyph glyph-name="ydieresis" unicode="&#xff;" 
d="M329 630q22 0 35.5 -13.5t13.5 -34.5q0 -28 -23 -50t-52 -22q-20 0 -34 14t-14 34q0 27 23 49.5t51 22.5zM537 630q22 0 35.5 -13.5t13.5 -34.5q0 -28 -23 -50t-52 -22q-20 0 -34 14t-14 34q0 27 23 49.5t51 22.5zM-12 -160q0 23 18 41.5t60 18.5h100l77 103l-101 334
q-40 6 -40 40q0 23 18 41.5t60 18.5h90q28 0 42 -7.5t14 -31.5q0 -27 -19.5 -43.5t-51.5 -17.5l68 -223l166 223h-5q-49 0 -49 40q0 23 18 41.5t60 18.5h92q19 0 29.5 -2t19 -11.5t8.5 -26.5q0 -24 -17.5 -40.5t-45.5 -19.5l-324 -437h5q28 0 42.5 -8t14.5 -31
q0 -24 -18 -42.5t-60 -18.5h-214q-31 0 -44 9t-13 31z" />
    <glyph glyph-name="Amacron" unicode="&#x100;" 
d="M281 737h244q25 0 35 -7.5t10 -25.5q0 -20 -17.5 -33.5t-44.5 -13.5h-244q-25 0 -35 7t-10 26q0 21 17 34t45 13zM360 40q0 24 18 42t60 18h23l-11 58h-238l-36 -58h23q28 0 42.5 -7.5t14.5 -32.5q0 -23 -18 -41.5t-60 -18.5h-132q-31 0 -44 9t-13 31q0 24 18 42t61 18
l236 383h-63q-31 0 -44 9t-13 31q0 23 17 41.5t61 18.5h216l97 -483q29 0 43.5 -7.5t14.5 -32.5q0 -23 -18 -41.5t-60 -18.5h-139q-30 0 -43 9t-13 31zM430 258l-38 192l-119 -192h157z" />
    <glyph glyph-name="amacron" unicode="&#x101;" 
d="M297 590h244q25 0 35 -7.5t10 -25.5q0 -20 -17.5 -33.5t-44.5 -13.5h-244q-25 0 -35 7t-10 26q0 21 17 34t45 13zM583 61q0 -24 -18 -42.5t-60 -18.5h-117l5 23q-83 -39 -174 -39q-67 0 -110.5 32.5t-43.5 81.5q0 14 7 34.5t27.5 48.5t50 51t81 39.5t115.5 16.5
q45 0 101 -10q6 24 6 33q0 39 -84 39q-39 0 -94 -11.5t-68 -11.5q-17 0 -27.5 11t-10.5 28q0 45 68.5 64.5t151.5 19.5q78 0 123 -30.5t45 -82.5q0 -19 -4 -35l-43 -202h17q28 0 42 -7.5t14 -31.5zM320 196q-59 0 -102.5 -26t-43.5 -52q0 -14 19.5 -24t47.5 -10q83 0 177 51
l10 50q-60 11 -108 11z" />
    <glyph glyph-name="Abreve" unicode="&#x102;" 
d="M264 799q15 0 21 -6.5t7 -25.5q2 -19 30.5 -36t67.5 -17t73 17t43 36q10 20 17.5 26t22.5 6q29 0 29 -25q0 -45 -62 -86.5t-135 -41.5q-63 0 -109 33t-46 76q0 44 41 44zM360 40q0 24 18 42t60 18h23l-11 58h-238l-36 -58h23q28 0 42.5 -7.5t14.5 -32.5q0 -23 -18 -41.5
t-60 -18.5h-132q-31 0 -44 9t-13 31q0 24 18 42t61 18l236 383h-63q-31 0 -44 9t-13 31q0 23 17 41.5t61 18.5h216l97 -483q29 0 43.5 -7.5t14.5 -32.5q0 -23 -18 -41.5t-60 -18.5h-139q-30 0 -43 9t-13 31zM430 258l-38 192l-119 -192h157z" />
    <glyph glyph-name="abreve" unicode="&#x103;" 
d="M274 656q15 0 21 -6.5t7 -25.5q2 -19 30.5 -36t67.5 -17t73 17t43 36q10 20 17.5 26t22.5 6q29 0 29 -25q0 -45 -62 -86.5t-135 -41.5q-63 0 -109 33t-46 76q0 44 41 44zM583 61q0 -24 -18 -42.5t-60 -18.5h-117l5 23q-83 -39 -174 -39q-67 0 -110.5 32.5t-43.5 81.5
q0 14 7 34.5t27.5 48.5t50 51t81 39.5t115.5 16.5q45 0 101 -10q6 24 6 33q0 39 -84 39q-39 0 -94 -11.5t-68 -11.5q-17 0 -27.5 11t-10.5 28q0 45 68.5 64.5t151.5 19.5q78 0 123 -30.5t45 -82.5q0 -19 -4 -35l-43 -202h17q28 0 42 -7.5t14 -31.5zM320 196
q-59 0 -102.5 -26t-43.5 -52q0 -14 19.5 -24t47.5 -10q83 0 177 51l10 50q-60 11 -108 11z" />
    <glyph glyph-name="Aogonek" unicode="&#x104;" 
d="M486 -122q15 0 40 11t36 11q14 0 22.5 -9t8.5 -23q0 -22 -25 -38.5t-53 -23t-51 -6.5q-36 0 -56.5 19.5t-20.5 53.5q0 41 24 67t89 60h-84q-30 0 -43 9t-13 31q0 24 18 42t60 18h23l-11 58h-238l-36 -58h23q28 0 42.5 -7.5t14.5 -32.5q0 -23 -18 -41.5t-60 -18.5h-132
q-31 0 -44 9t-13 31q0 24 18 42t61 18l236 383h-63q-31 0 -44 9t-13 31q0 23 17 41.5t61 18.5h216l97 -483q29 0 43.5 -7.5t14.5 -32.5q0 -20 -12.5 -34.5t-42.5 -27.5q-49 -22 -79 -50t-30 -54q0 -16 17 -16zM430 258l-38 192l-119 -192h157z" />
    <glyph glyph-name="aogonek" unicode="&#x105;" 
d="M435 -124q16 0 42 12t38 12q14 0 22.5 -8.5t8.5 -21.5q0 -18 -15 -32.5t-37.5 -22t-44 -11.5t-37.5 -4q-36 0 -56.5 17.5t-20.5 48.5q0 15 4 29.5t9 25t14.5 21.5t16.5 17.5t18.5 14.5t17 11t16 8.5t11.5 6.5h-54l5 23q-83 -39 -174 -39q-67 0 -110.5 32.5t-43.5 81.5
q0 14 7 34.5t27.5 48.5t50 51t81 39.5t115.5 16.5q45 0 101 -10q6 24 6 33q0 39 -84 39q-39 0 -94 -11.5t-68 -11.5q-17 0 -27.5 11t-10.5 28q0 45 68.5 64.5t151.5 19.5q78 0 123 -30.5t45 -82.5q0 -19 -4 -35l-43 -202h17q28 0 42 -7.5t14 -31.5q0 -22 -26 -44.5
t-57.5 -39t-57.5 -40t-26 -46.5q0 -15 19 -15zM320 196q-59 0 -102.5 -26t-43.5 -52q0 -14 19.5 -24t47.5 -10q83 0 177 51l10 50q-60 11 -108 11z" />
    <glyph glyph-name="Cacute" unicode="&#x106;" 
d="M561 728l-99 -76q-20 -16 -30 -16q-15 0 -25 10.5t-10 28.5q0 10 29 34l99 75q22 16 34 16q31 0 31 -37q0 -12 -29 -35zM538 404l1 23q0 28 -37.5 49t-86.5 21q-56 0 -100 -25t-68 -59.5t-39.5 -77t-20.5 -72t-5 -49.5q0 -59 44.5 -93.5t120.5 -34.5q48 0 84.5 11.5
t53 25t33 25t29.5 11.5q17 0 29 -12t12 -29q0 -43 -77 -87.5t-187 -44.5q-111 0 -177.5 57t-66.5 152q0 27 6 54l14 66q26 120 121 201t211 81q70 0 144 -38q24 24 47 24q17 0 28.5 -11t11.5 -27q0 -11 -4 -28l-18 -84q-15 -66 -64 -66q-17 0 -28 10.5t-11 26.5z" />
    <glyph glyph-name="cacute" unicode="&#x107;" 
d="M506 590l-99 -76q-20 -16 -30 -16q-15 0 -25 10.5t-10 28.5q0 10 29 34l99 75q22 16 34 16q31 0 31 -37q0 -12 -29 -35zM93 156q0 24 8 57.5t30.5 76t56 77.5t91 59t128.5 24q85 0 137 -30q14 30 44 30q38 0 38 -38q0 -7 -4 -28l-16 -77q-18 -66 -65 -66q-24 0 -32 12
t-8 36q0 33 -34.5 47t-81.5 14q-45 0 -80.5 -14.5t-55.5 -35.5t-33 -46.5t-17 -44t-4 -31.5q0 -94 153 -94q51 0 88 9t52 19t29.5 19t27.5 9q17 0 28.5 -11.5t11.5 -29.5q0 -9 -5.5 -21t-23.5 -29t-45.5 -31t-78.5 -24t-115 -10q-67 0 -114.5 16.5t-69.5 44.5t-31 54.5
t-9 56.5z" />
    <glyph glyph-name="Ccircumflex" unicode="&#x108;" 
d="M441 711l-124 -62q-26 -13 -30 -13q-13 0 -21.5 9t-8.5 21q0 11 6.5 20t10 11.5t14.5 8.5l169 94l142 -101q10 -10 10 -22q0 -16 -13 -28.5t-27 -12.5q-7 0 -27 13zM538 404l1 23q0 28 -37.5 49t-86.5 21q-56 0 -100 -25t-68 -59.5t-39.5 -77t-20.5 -72t-5 -49.5
q0 -59 44.5 -93.5t120.5 -34.5q48 0 84.5 11.5t53 25t33 25t29.5 11.5q17 0 29 -12t12 -29q0 -43 -77 -87.5t-187 -44.5q-111 0 -177.5 57t-66.5 152q0 27 6 54l14 66q26 120 121 201t211 81q70 0 144 -38q24 24 47 24q17 0 28.5 -11t11.5 -27q0 -11 -4 -28l-18 -84
q-15 -66 -64 -66q-17 0 -28 10.5t-11 26.5z" />
    <glyph glyph-name="ccircumflex" unicode="&#x109;" 
d="M427 585l-124 -62q-26 -13 -30 -13q-13 0 -21.5 9t-8.5 21q0 11 6.5 20t10 11.5t14.5 8.5l169 94l142 -101q10 -10 10 -22q0 -16 -13 -28.5t-27 -12.5q-7 0 -27 13zM93 156q0 24 8 57.5t30.5 76t56 77.5t91 59t128.5 24q85 0 137 -30q14 30 44 30q38 0 38 -38
q0 -7 -4 -28l-16 -77q-18 -66 -65 -66q-24 0 -32 12t-8 36q0 33 -34.5 47t-81.5 14q-45 0 -80.5 -14.5t-55.5 -35.5t-33 -46.5t-17 -44t-4 -31.5q0 -94 153 -94q51 0 88 9t52 19t29.5 19t27.5 9q17 0 28.5 -11.5t11.5 -29.5q0 -9 -5.5 -21t-23.5 -29t-45.5 -31t-78.5 -24
t-115 -10q-67 0 -114.5 16.5t-69.5 44.5t-31 54.5t-9 56.5z" />
    <glyph glyph-name="Cdotaccent" unicode="&#x10a;" 
d="M470 777q22 0 35.5 -13.5t13.5 -34.5q0 -28 -23 -50t-52 -22q-20 0 -34 14t-14 34q0 28 22.5 50t51.5 22zM538 404l1 23q0 28 -37.5 49t-86.5 21q-56 0 -100 -25t-68 -59.5t-39.5 -77t-20.5 -72t-5 -49.5q0 -59 44.5 -93.5t120.5 -34.5q48 0 84.5 11.5t53 25t33 25
t29.5 11.5q17 0 29 -12t12 -29q0 -43 -77 -87.5t-187 -44.5q-111 0 -177.5 57t-66.5 152q0 27 6 54l14 66q26 120 121 201t211 81q70 0 144 -38q24 24 47 24q17 0 28.5 -11t11.5 -27q0 -11 -4 -28l-18 -84q-15 -66 -64 -66q-17 0 -28 10.5t-11 26.5z" />
    <glyph glyph-name="cdotaccent" unicode="&#x10b;" 
d="M456 630q22 0 35.5 -13.5t13.5 -34.5q0 -28 -23 -50t-52 -22q-20 0 -34 14t-14 34q0 28 22.5 50t51.5 22zM93 156q0 24 8 57.5t30.5 76t56 77.5t91 59t128.5 24q85 0 137 -30q14 30 44 30q38 0 38 -38q0 -7 -4 -28l-16 -77q-18 -66 -65 -66q-24 0 -32 12t-8 36
q0 33 -34.5 47t-81.5 14q-45 0 -80.5 -14.5t-55.5 -35.5t-33 -46.5t-17 -44t-4 -31.5q0 -94 153 -94q51 0 88 9t52 19t29.5 19t27.5 9q17 0 28.5 -11.5t11.5 -29.5q0 -9 -5.5 -21t-23.5 -29t-45.5 -31t-78.5 -24t-115 -10q-67 0 -114.5 16.5t-69.5 44.5t-31 54.5t-9 56.5z
" />
    <glyph glyph-name="Ccaron" unicode="&#x10c;" 
d="M449 725l124 62q26 13 30 13q13 0 21.5 -9t8.5 -21q0 -11 -6.5 -20t-10 -11.5t-14.5 -8.5l-169 -94l-142 101q-10 10 -10 22q0 16 13 28.5t27 12.5q7 0 27 -13zM538 404l1 23q0 28 -37.5 49t-86.5 21q-56 0 -100 -25t-68 -59.5t-39.5 -77t-20.5 -72t-5 -49.5
q0 -59 44.5 -93.5t120.5 -34.5q48 0 84.5 11.5t53 25t33 25t29.5 11.5q17 0 29 -12t12 -29q0 -43 -77 -87.5t-187 -44.5q-111 0 -177.5 57t-66.5 152q0 27 6 54l14 66q26 120 121 201t211 81q70 0 144 -38q24 24 47 24q17 0 28.5 -11t11.5 -27q0 -11 -4 -28l-18 -84
q-15 -66 -64 -66q-17 0 -28 10.5t-11 26.5z" />
    <glyph glyph-name="ccaron" unicode="&#x10d;" 
d="M434 587l124 62q26 13 30 13q13 0 21.5 -9t8.5 -21q0 -11 -6.5 -20t-10 -11.5t-14.5 -8.5l-169 -94l-142 101q-10 10 -10 22q0 16 13 28.5t27 12.5q7 0 27 -13zM93 156q0 24 8 57.5t30.5 76t56 77.5t91 59t128.5 24q85 0 137 -30q14 30 44 30q38 0 38 -38q0 -7 -4 -28
l-16 -77q-18 -66 -65 -66q-24 0 -32 12t-8 36q0 33 -34.5 47t-81.5 14q-45 0 -80.5 -14.5t-55.5 -35.5t-33 -46.5t-17 -44t-4 -31.5q0 -94 153 -94q51 0 88 9t52 19t29.5 19t27.5 9q17 0 28.5 -11.5t11.5 -29.5q0 -9 -5.5 -21t-23.5 -29t-45.5 -31t-78.5 -24t-115 -10
q-67 0 -114.5 16.5t-69.5 44.5t-31 54.5t-9 56.5z" />
    <glyph glyph-name="Dcaron" unicode="&#x10e;" 
d="M410 725l124 62q26 13 30 13q13 0 21.5 -9t8.5 -21q0 -11 -6.5 -20t-10 -11.5t-14.5 -8.5l-169 -94l-142 101q-10 10 -10 22q0 16 13 28.5t27 12.5q7 0 27 -13zM23 40q0 21 17.5 40.5t55.5 19.5l81 383q-51 0 -51 40q0 23 17 41.5t61 18.5h213q92 0 148.5 -59t56.5 -155
q0 -155 -93.5 -262t-243.5 -107h-205q-31 0 -44 9.5t-13 30.5zM520 350q0 52 -30.5 92.5t-102.5 40.5h-110l-81 -383h110q165 0 200 161l10 46q4 19 4 43z" />
    <glyph glyph-name="dcaron" unicode="&#x10f;" 
d="M729 571l-99 -76q-20 -16 -30 -16q-15 0 -25 10.5t-10 28.5q0 10 29 34l99 75q22 16 34 16q31 0 31 -37q0 -12 -29 -35zM380 565q0 22 17 40.5t61 18.5h116l-111 -524h16q28 0 42 -7.5t14 -32.5q0 -23 -18 -41.5t-60 -18.5h-116l8 35q-82 -49 -161 -49q-58 0 -100 17.5
t-63.5 46.5t-31 58t-9.5 60q0 108 82 192q90 91 222 91q86 0 139 -50l26 124h-16q-31 0 -44 9t-13 31zM391 244q0 18 -5 34t-17.5 34t-39.5 28.5t-65 10.5q-48 0 -85.5 -19.5t-56 -47.5t-27 -51.5t-8.5 -39.5q0 -50 33 -78.5t92 -28.5q49 0 86.5 19t56 47t27.5 51.5t9 40.5z
" />
    <glyph glyph-name="Dcroat" unicode="&#x110;" 
d="M23 40q0 21 17.5 40.5t55.5 19.5l30 143h-7q-31 0 -44 9t-13 31q0 23 18 41.5t60 18.5h7l30 140q-51 0 -51 40q0 23 17 41.5t61 18.5h213q92 0 148.5 -59t56.5 -155q0 -155 -93.5 -262t-243.5 -107h-205q-31 0 -44 9.5t-13 30.5zM378 304q0 -24 -18 -42.5t-60 -18.5h-74
l-30 -143h110q165 0 200 161l10 46q4 19 4 43q0 52 -30.5 92.5t-102.5 40.5h-110l-30 -140h74q29 0 43 -7.5t14 -31.5z" />
    <glyph glyph-name="dcroat" unicode="&#x111;" 
d="M470 565q0 22 17 40.5t61 18.5h116l-24 -114h15q28 0 42.5 -7.5t14.5 -30.5q0 -25 -18 -43.5t-60 -18.5h-15l-66 -310h16q28 0 42 -7.5t14 -32.5q0 -23 -18 -41.5t-60 -18.5h-116l8 35q-82 -49 -161 -49q-58 0 -100 17.5t-63.5 46.5t-31 58t-9.5 60q0 108 82 192
q90 91 222 91q85 0 139 -51l26 125h-16q-31 0 -44 9t-13 31zM481 244q0 18 -5 34t-17.5 34t-39.5 28.5t-65 10.5q-48 0 -85.5 -19.5t-56 -47.5t-27 -51.5t-8.5 -39.5q0 -50 33 -78.5t92 -28.5q49 0 86.5 19t56 47t27.5 51.5t9 40.5z" />
    <glyph glyph-name="Emacron" unicode="&#x112;" 
d="M339 737h244q25 0 35 -7.5t10 -25.5q0 -20 -17.5 -33.5t-44.5 -13.5h-244q-25 0 -35 7t-10 26q0 21 17 34t45 13zM352 342q2 13 6 27t19.5 30.5t39.5 16.5q17 0 28.5 -11t11.5 -27q0 -9 -4 -29l-25 -113q-14 -66 -63 -66q-17 0 -28.5 10.5t-11.5 26.5t6 36h-85l-30 -143
h255l12 52q13 67 63 67q17 0 29 -10.5t12 -26.5q0 -12 -4 -30l-33 -152h-470q-57 0 -57 40q0 24 17.5 42t60.5 18h15l81 383h-15q-31 0 -44 9t-13 31q0 23 17 41.5t62 18.5h448l-32 -150q-13 -67 -64 -67q-17 0 -28.5 11t-11.5 27t15 79h-234l-30 -141h85z" />
    <glyph glyph-name="emacron" unicode="&#x113;" 
d="M295 590h244q25 0 35 -7.5t10 -25.5q0 -20 -17.5 -33.5t-44.5 -13.5h-244q-25 0 -35 7t-10 26q0 21 17 34t45 13zM325 84q49 0 119 16.5t84 16.5q17 0 27.5 -10.5t10.5 -27.5q0 -34 -33 -51q-32 -17 -105.5 -30.5t-133.5 -13.5q-102 0 -161 49.5t-59 135.5
q0 112 94.5 196.5t218.5 84.5q97 0 155 -52t58 -139q0 -17 -13 -87h-409q16 -88 147 -88zM200 260h295q-4 41 -39 65.5t-89 24.5q-56 0 -101 -24.5t-66 -65.5z" />
    <glyph glyph-name="Ebreve" unicode="&#x114;" 
d="M352 342q2 13 6 27t19.5 30.5t39.5 16.5q17 0 28.5 -11t11.5 -27q0 -9 -4 -29l-25 -113q-14 -66 -63 -66q-17 0 -28.5 10.5t-11.5 26.5t6 36h-85l-30 -143h255l12 52q13 67 63 67q17 0 29 -10.5t12 -26.5q0 -12 -4 -30l-33 -152h-470q-57 0 -57 40q0 24 17.5 42t60.5 18
h15l81 383h-15q-31 0 -44 9t-13 31q0 23 17 41.5t62 18.5h448l-32 -150q-13 -67 -64 -67q-17 0 -28.5 11t-11.5 27t15 79h-234l-30 -141h85zM283 776q15 0 21 -6.5t7 -25.5q2 -19 30.5 -36t67.5 -17t73 17t43 36q10 20 17.5 26t22.5 6q29 0 29 -25q0 -45 -62 -86.5
t-135 -41.5q-63 0 -109 33t-46 76q0 44 41 44z" />
    <glyph glyph-name="ebreve" unicode="&#x115;" 
d="M325 84q49 0 119 16.5t84 16.5q17 0 27.5 -10.5t10.5 -27.5q0 -34 -33 -51q-32 -17 -105.5 -30.5t-133.5 -13.5q-102 0 -161 49.5t-59 135.5q0 112 94.5 196.5t218.5 84.5q97 0 155 -52t58 -139q0 -17 -13 -87h-409q16 -88 147 -88zM200 260h295q-4 41 -39 65.5t-89 24.5
q-56 0 -101 -24.5t-66 -65.5zM264 630q15 0 21 -6.5t7 -25.5q2 -19 30.5 -36t67.5 -17t73 17t43 36q10 20 17.5 26t22.5 6q29 0 29 -25q0 -45 -62 -86.5t-135 -41.5q-63 0 -109 33t-46 76q0 44 41 44z" />
    <glyph glyph-name="Edotaccent" unicode="&#x116;" 
d="M469 777q22 0 35.5 -13.5t13.5 -34.5q0 -28 -23 -50t-52 -22q-20 0 -34 14t-14 34q0 28 22.5 50t51.5 22zM352 342q2 13 6 27t19.5 30.5t39.5 16.5q17 0 28.5 -11t11.5 -27q0 -9 -4 -29l-25 -113q-14 -66 -63 -66q-17 0 -28.5 10.5t-11.5 26.5t6 36h-85l-30 -143h255
l12 52q13 67 63 67q17 0 29 -10.5t12 -26.5q0 -12 -4 -30l-33 -152h-470q-57 0 -57 40q0 24 17.5 42t60.5 18h15l81 383h-15q-31 0 -44 9t-13 31q0 23 17 41.5t62 18.5h448l-32 -150q-13 -67 -64 -67q-17 0 -28.5 11t-11.5 27t15 79h-234l-30 -141h85z" />
    <glyph glyph-name="edotaccent" unicode="&#x117;" 
d="M425 630q22 0 35.5 -13.5t13.5 -34.5q0 -28 -23 -50t-52 -22q-20 0 -34 14t-14 34q0 28 22.5 50t51.5 22zM325 84q49 0 119 16.5t84 16.5q17 0 27.5 -10.5t10.5 -27.5q0 -34 -33 -51q-32 -17 -105.5 -30.5t-133.5 -13.5q-102 0 -161 49.5t-59 135.5q0 112 94.5 196.5
t218.5 84.5q97 0 155 -52t58 -139q0 -17 -13 -87h-409q16 -88 147 -88zM200 260h295q-4 41 -39 65.5t-89 24.5q-56 0 -101 -24.5t-66 -65.5z" />
    <glyph glyph-name="Eogonek" unicode="&#x118;" 
d="M451 -122q15 0 40 11t36 11q14 0 22.5 -9t8.5 -23q0 -22 -25 -38.5t-53 -23t-51 -6.5q-36 0 -56.5 19.5t-20.5 53.5q0 41 23.5 67t88.5 60h-384q-57 0 -57 40q0 24 17.5 42t60.5 18h15l81 383h-15q-31 0 -44 9t-13 31q0 23 17 41.5t62 18.5h448l-32 -150q-13 -67 -64 -67
q-17 0 -28.5 11t-11.5 27t15 79h-234l-30 -141h85q2 13 6 27t19.5 30.5t39.5 16.5q17 0 28.5 -11t11.5 -27q0 -9 -4 -29l-25 -113q-14 -66 -63 -66q-17 0 -28.5 10.5t-11.5 26.5t6 36h-85l-30 -143h255l12 52q13 67 63 67q17 0 29 -10.5t12 -26.5q0 -12 -4 -30l-33 -152
q-116 -52 -116 -106q0 -16 17 -16z" />
    <glyph glyph-name="eogonek" unicode="&#x119;" 
d="M363 -124q16 0 42.5 12t37.5 12q14 0 22.5 -8.5t8.5 -21.5q0 -18 -15 -32.5t-37.5 -22t-44 -11.5t-37.5 -4q-36 0 -56.5 17.5t-20.5 48.5q0 68 83 120q-48 -2 -52 -2q-102 0 -161 49.5t-59 135.5q0 112 94.5 196.5t218.5 84.5q97 0 155 -52t58 -139q0 -17 -13 -87h-409
q16 -88 147 -88q49 0 119 16.5t84 16.5q17 0 27.5 -10.5t10.5 -27.5q0 -39 -54 -60q-69 -26 -118.5 -63t-49.5 -65q0 -15 19 -15zM200 260h295q-4 41 -39 65.5t-89 24.5q-56 0 -101 -24.5t-66 -65.5z" />
    <glyph glyph-name="Ecaron" unicode="&#x11a;" 
d="M433 725l124 62q26 13 30 13q13 0 21.5 -9t8.5 -21q0 -11 -6.5 -20t-10 -11.5t-14.5 -8.5l-169 -94l-142 101q-10 10 -10 22q0 16 13 28.5t27 12.5q7 0 27 -13zM352 342q2 13 6 27t19.5 30.5t39.5 16.5q17 0 28.5 -11t11.5 -27q0 -9 -4 -29l-25 -113q-14 -66 -63 -66
q-17 0 -28.5 10.5t-11.5 26.5t6 36h-85l-30 -143h255l12 52q13 67 63 67q17 0 29 -10.5t12 -26.5q0 -12 -4 -30l-33 -152h-470q-57 0 -57 40q0 24 17.5 42t60.5 18h15l81 383h-15q-31 0 -44 9t-13 31q0 23 17 41.5t62 18.5h448l-32 -150q-13 -67 -64 -67q-17 0 -28.5 11
t-11.5 27t15 79h-234l-30 -141h85z" />
    <glyph glyph-name="ecaron" unicode="&#x11b;" 
d="M425 586l124 62q26 13 30 13q13 0 21.5 -9t8.5 -21q0 -11 -6.5 -20t-10 -11.5t-14.5 -8.5l-169 -94l-142 101q-10 10 -10 22q0 16 13 28.5t27 12.5q7 0 27 -13zM325 84q49 0 119 16.5t84 16.5q17 0 27.5 -10.5t10.5 -27.5q0 -34 -33 -51q-32 -17 -105.5 -30.5
t-133.5 -13.5q-102 0 -161 49.5t-59 135.5q0 112 94.5 196.5t218.5 84.5q97 0 155 -52t58 -139q0 -17 -13 -87h-409q16 -88 147 -88zM200 260h295q-4 41 -39 65.5t-89 24.5q-56 0 -101 -24.5t-66 -65.5z" />
    <glyph glyph-name="Gcircumflex" unicode="&#x11c;" 
d="M585 280q28 0 42.5 -8t14.5 -31q0 -46 -54 -61l-28 -132q-75 -36 -124 -49t-109 -13q-43 0 -81.5 8t-78.5 27.5t-64 61t-24 101.5q0 25 7 62l15 71q24 114 119 197t224 83q82 0 139 -32q21 32 47 32q16 0 26.5 -10.5t10.5 -26.5q0 -10 -4 -29l-17 -78q-16 -66 -64 -66
q-17 0 -25.5 8.5t-10 16.5t-2.5 28q-2 26 -34 41.5t-87 15.5q-83 0 -144.5 -49.5t-77.5 -130.5q-20 -93 -20 -118q0 -54 42 -83.5t119 -29.5q69 0 132 25l14 69h-99q-31 0 -44 9t-13 31q0 23 17 41.5t61 18.5h175zM441 698l-124 -62q-26 -13 -30 -13q-13 0 -21.5 9t-8.5 21
q0 11 6.5 20t10 11.5t14.5 8.5l169 94l142 -101q10 -10 10 -22q0 -16 -13 -28.5t-27 -12.5q-7 0 -27 13z" />
    <glyph glyph-name="gcircumflex" unicode="&#x11d;" 
d="M107 -160q0 24 18 42t60 18h109q43 0 73.5 23t38.5 62l11 50q-78 -49 -152 -49q-85 0 -138.5 50.5t-53.5 131.5q0 112 88 197.5t204 85.5q82 0 130 -50l7 36h117q28 0 42 -7.5t14 -32.5q0 -23 -18 -41.5t-60 -18.5h-16l-75 -352q-16 -79 -82 -132t-149 -53h-111
q-31 0 -44 9t-13 31zM345 351q-65 0 -117 -48.5t-52 -109.5q0 -47 31.5 -77t81.5 -30q66 0 118 48.5t52 109.5q0 47 -32 77t-82 30zM412 552l-124 -62q-26 -13 -30 -13q-13 0 -21.5 9t-8.5 21q0 11 6.5 20t10 11.5t14.5 8.5l169 94l142 -101q10 -10 10 -22q0 -16 -13 -28.5
t-27 -12.5q-7 0 -27 13z" />
    <glyph glyph-name="Gbreve" unicode="&#x11e;" 
d="M299 800q15 0 21 -6.5t7 -25.5q2 -19 30.5 -36t67.5 -17t73 17t43 36q10 20 17.5 26t22.5 6q29 0 29 -25q0 -45 -62 -86.5t-135 -41.5q-63 0 -109 33t-46 76q0 44 41 44zM585 280q28 0 42.5 -8t14.5 -31q0 -46 -54 -61l-28 -132q-75 -36 -124 -49t-109 -13q-43 0 -81.5 8
t-78.5 27.5t-64 61t-24 101.5q0 25 7 62l15 71q24 114 119 197t224 83q82 0 139 -32q21 32 47 32q16 0 26.5 -10.5t10.5 -26.5q0 -10 -4 -29l-17 -78q-16 -66 -64 -66q-17 0 -25.5 8.5t-10 16.5t-2.5 28q-2 26 -34 41.5t-87 15.5q-83 0 -144.5 -49.5t-77.5 -130.5
q-20 -93 -20 -118q0 -54 42 -83.5t119 -29.5q69 0 132 25l14 69h-99q-31 0 -44 9t-13 31q0 23 17 41.5t61 18.5h175z" />
    <glyph glyph-name="gbreve" unicode="&#x11f;" 
d="M246 664q15 0 21 -6.5t7 -25.5q2 -19 30.5 -36t67.5 -17t73 17t43 36q10 20 17.5 26t22.5 6q29 0 29 -25q0 -45 -62 -86.5t-135 -41.5q-63 0 -109 33t-46 76q0 44 41 44zM107 -160q0 24 18 42t60 18h109q43 0 73.5 23t38.5 62l11 50q-78 -49 -152 -49q-85 0 -138.5 50.5
t-53.5 131.5q0 112 88 197.5t204 85.5q82 0 130 -50l7 36h117q28 0 42 -7.5t14 -32.5q0 -23 -18 -41.5t-60 -18.5h-16l-75 -352q-16 -79 -82 -132t-149 -53h-111q-31 0 -44 9t-13 31zM345 351q-65 0 -117 -48.5t-52 -109.5q0 -47 31.5 -77t81.5 -30q66 0 118 48.5t52 109.5
q0 47 -32 77t-82 30z" />
    <glyph glyph-name="Gdotaccent" unicode="&#x120;" 
d="M476 777q22 0 35.5 -13.5t13.5 -34.5q0 -28 -23 -50t-52 -22q-20 0 -34 14t-14 34q0 28 22.5 50t51.5 22zM585 280q28 0 42.5 -8t14.5 -31q0 -46 -54 -61l-28 -132q-75 -36 -124 -49t-109 -13q-43 0 -81.5 8t-78.5 27.5t-64 61t-24 101.5q0 25 7 62l15 71q24 114 119 197
t224 83q82 0 139 -32q21 32 47 32q16 0 26.5 -10.5t10.5 -26.5q0 -10 -4 -29l-17 -78q-16 -66 -64 -66q-17 0 -25.5 8.5t-10 16.5t-2.5 28q-2 26 -34 41.5t-87 15.5q-83 0 -144.5 -49.5t-77.5 -130.5q-20 -93 -20 -118q0 -54 42 -83.5t119 -29.5q69 0 132 25l14 69h-99
q-31 0 -44 9t-13 31q0 23 17 41.5t61 18.5h175z" />
    <glyph glyph-name="gdotaccent" unicode="&#x121;" 
d="M403 631q22 0 35.5 -13.5t13.5 -34.5q0 -28 -23 -50t-52 -22q-20 0 -34 14t-14 34q0 28 22.5 50t51.5 22zM107 -160q0 24 18 42t60 18h109q43 0 73.5 23t38.5 62l11 50q-78 -49 -152 -49q-85 0 -138.5 50.5t-53.5 131.5q0 112 88 197.5t204 85.5q82 0 130 -50l7 36h117
q28 0 42 -7.5t14 -32.5q0 -23 -18 -41.5t-60 -18.5h-16l-75 -352q-16 -79 -82 -132t-149 -53h-111q-31 0 -44 9t-13 31zM345 351q-65 0 -117 -48.5t-52 -109.5q0 -47 31.5 -77t81.5 -30q66 0 118 48.5t52 109.5q0 47 -32 77t-82 30z" />
    <glyph glyph-name="Gcommaaccent" unicode="&#x122;" 
d="M239 -30h119l-114 -150q-15 -20 -32 -20q-26 0 -26 25q0 10 3 19zM585 280q28 0 42.5 -8t14.5 -31q0 -46 -54 -61l-28 -132q-75 -36 -124 -49t-109 -13q-43 0 -81.5 8t-78.5 27.5t-64 61t-24 101.5q0 25 7 62l15 71q24 114 119 197t224 83q82 0 139 -32q21 32 47 32
q16 0 26.5 -10.5t10.5 -26.5q0 -10 -4 -29l-17 -78q-16 -66 -64 -66q-17 0 -25.5 8.5t-10 16.5t-2.5 28q-2 26 -34 41.5t-87 15.5q-83 0 -144.5 -49.5t-77.5 -130.5q-20 -93 -20 -118q0 -54 42 -83.5t119 -29.5q69 0 132 25l14 69h-99q-31 0 -44 9t-13 31q0 23 17 41.5
t61 18.5h175z" />
    <glyph glyph-name="gcommaaccent" unicode="&#x123;" 
d="M107 -160q0 24 18 42t60 18h109q43 0 73.5 23t38.5 62l11 50q-78 -49 -152 -49q-85 0 -138.5 50.5t-53.5 131.5q0 112 88 197.5t204 85.5q82 0 130 -50l7 36h117q28 0 42 -7.5t14 -32.5q0 -23 -18 -41.5t-60 -18.5h-16l-75 -352q-16 -79 -82 -132t-149 -53h-111
q-31 0 -44 9t-13 31zM345 351q-65 0 -117 -48.5t-52 -109.5q0 -47 31.5 -77t81.5 -30q66 0 118 48.5t52 109.5q0 47 -32 77t-82 30zM345 570l99 76q20 16 30 16q15 0 25 -10.5t10 -28.5q0 -10 -29 -34l-99 -75q-22 -16 -34 -16q-31 0 -31 37q0 12 29 35z" />
    <glyph glyph-name="Hcircumflex" unicode="&#x124;" 
d="M437 710l-124 -62q-26 -13 -30 -13q-13 0 -21.5 9t-8.5 21q0 11 6.5 20t10 11.5t14.5 8.5l169 94l142 -101q10 -10 10 -22q0 -16 -13 -28.5t-27 -12.5q-7 0 -27 13zM337 40q0 23 18 41.5t60 18.5h15l30 141h-214l-30 -141h14q28 0 42.5 -7.5t14.5 -32.5q0 -23 -18 -41.5
t-60 -18.5h-121q-30 0 -43 9t-13 31q0 23 18 41.5t60 18.5h6l81 383q-42 3 -42 40q0 23 17 41.5t61 18.5h100q28 0 42.5 -7.5t14.5 -31.5t-18 -42.5t-60 -18.5h-15l-30 -142h214l30 142h-15q-28 0 -42 8t-14 32q0 23 17 41.5t61 18.5h100q28 0 42.5 -7.5t14.5 -31.5
q0 -25 -18 -42t-46 -19l-81 -383h6q28 0 42 -8t14 -32q0 -23 -17.5 -41.5t-59.5 -18.5h-121q-31 0 -44 9t-13 31z" />
    <glyph glyph-name="hcircumflex" unicode="&#x125;" 
d="M524 710l-124 -62q-26 -13 -30 -13q-13 0 -21.5 9t-8.5 21q0 11 6.5 20t10 11.5t14.5 8.5l169 94l142 -101q10 -10 10 -22q0 -16 -13 -28.5t-27 -12.5q-7 0 -27 13zM134 564q0 23 17 41.5t61 18.5h116l-50 -235q73 61 150 61q66 0 106 -34t40 -91q0 -22 -4 -41l-40 -184
h6q19 0 29.5 -2t19 -11.5t8.5 -26.5q0 -23 -18 -41.5t-60 -18.5h-112q-31 0 -44 9t-13 31q0 24 18 42t61 18h6l36 171q4 16 4 31q0 22 -20.5 35t-54.5 13q-36 0 -62.5 -12.5t-77.5 -54.5l-39 -183h6q28 0 42.5 -8t14.5 -32t-18 -42t-61 -18h-112q-30 0 -43 9t-13 31
q0 23 18 41.5t60 18.5h6l90 424h-16q-31 0 -44 9t-13 31z" />
    <glyph glyph-name="Hbar" unicode="&#x126;" 
d="M598 400q0 -23 -18.5 -41.5t-60.5 -18.5l-51 -240h6q28 0 42.5 -7.5t14.5 -33.5q0 -22 -18 -40.5t-60 -18.5h-121q-56 0 -56 40q0 24 17.5 42t59.5 18h15l30 141h-214l-30 -141h15q28 0 42.5 -8t14.5 -33q0 -22 -18 -40.5t-60 -18.5h-121q-30 0 -43 9t-13 30
q0 24 17 42.5t60 18.5h6l51 240q-27 0 -41 8t-14 32t17.5 42t59.5 18l9 43q-43 5 -43 38q0 24 17 43t61 19h101q18 0 28.5 -2t19 -11t8.5 -26q0 -25 -17.5 -43t-59.5 -18h-15l-30 -142h214l30 142h-15q-29 0 -43 8t-14 33q0 23 18 41t60 18h101q31 0 43.5 -8t12.5 -31
q0 -26 -18 -42.5t-45 -18.5l-9 -43q31 0 44 -8t13 -32z" />
    <glyph glyph-name="hbar" unicode="&#x127;" 
d="M68 564q0 24 17.5 42t59.5 18h228q29 0 43 -8t14 -32t-18 -42t-60 -18h-112l-29 -135q73 61 150 61q69 0 107.5 -34t38.5 -92q0 -21 -4 -40l-39 -184h6q31 0 43.5 -8t12.5 -32t-17.5 -42t-59.5 -18h-112q-58 0 -58 40q0 24 18 42t61 18h6l36 171q5 22 5 31
q0 19 -17.5 33.5t-58.5 14.5q-35 0 -61.5 -12.5t-78.5 -54.5l-39 -183h6q31 0 44 -8t13 -32t-18 -42t-60 -18h-112q-57 0 -57 41q0 23 18 41t60 18h6l90 424h-16q-31 0 -43.5 8t-12.5 32z" />
    <glyph glyph-name="Itilde" unicode="&#x128;" 
d="M508 734q17 0 44 24t44 24q12 0 20 -7.5t8 -16.5q0 -22 -41.5 -57.5t-83.5 -35.5q-28 0 -77 24t-64 24q-21 0 -47 -22.5t-42 -22.5q-11 0 -18.5 7t-7.5 18q0 23 39.5 56t85.5 33q28 0 76.5 -24t63.5 -24zM632 544q0 -24 -18 -42.5t-60 -18.5h-101l-81 -383h100
q28 0 42.5 -7.5t14.5 -31.5t-18 -42.5t-60 -18.5h-301q-31 0 -44 9t-13 31q0 24 18 42t60 18h101l81 383h-101q-31 0 -43.5 9t-12.5 31q0 24 18 42t60 18h301q29 0 43 -7.5t14 -31.5z" />
    <glyph glyph-name="itilde" unicode="&#x129;" 
d="M437 587q17 0 44 24t44 24q12 0 20 -7.5t8 -16.5q0 -22 -41.5 -57.5t-83.5 -35.5q-28 0 -77 24t-64 24q-21 0 -47 -22.5t-42 -22.5q-11 0 -18.5 7t-7.5 18q0 23 39.5 56t85.5 33q28 0 76.5 -24t63.5 -24zM186 377q0 23 17 41.5t62 18.5h178l-71 -337h121q28 0 42.5 -7.5
t14.5 -32.5q0 -22 -17.5 -41t-60.5 -19h-343q-31 0 -44 9t-13 31q0 24 18 42t60 18h122l50 237h-78q-32 0 -45 9t-13 31z" />
    <glyph glyph-name="Imacron" unicode="&#x12a;" 
d="M335 737h244q25 0 35 -7.5t10 -25.5q0 -20 -17.5 -33.5t-44.5 -13.5h-244q-25 0 -35 7t-10 26q0 21 17 34t45 13zM632 544q0 -24 -18 -42.5t-60 -18.5h-101l-81 -383h100q28 0 42.5 -7.5t14.5 -31.5t-18 -42.5t-60 -18.5h-301q-31 0 -44 9t-13 31q0 24 18 42t60 18h101
l81 383h-101q-31 0 -43.5 9t-12.5 31q0 24 18 42t60 18h301q29 0 43 -7.5t14 -31.5z" />
    <glyph glyph-name="imacron" unicode="&#x12b;" 
d="M265 590h244q25 0 35 -7.5t10 -25.5q0 -20 -17.5 -33.5t-44.5 -13.5h-244q-25 0 -35 7t-10 26q0 21 17 34t45 13zM186 377q0 23 17 41.5t62 18.5h178l-71 -337h121q28 0 42.5 -7.5t14.5 -32.5q0 -22 -17.5 -41t-60.5 -19h-343q-31 0 -44 9t-13 31q0 24 18 42t60 18h122
l50 237h-78q-32 0 -45 9t-13 31z" />
    <glyph glyph-name="Ibreve" unicode="&#x12c;" 
d="M308 800q15 0 21 -6.5t7 -25.5q2 -19 30.5 -36t67.5 -17t73 17t43 36q10 20 17.5 26t22.5 6q29 0 29 -25q0 -45 -62 -86.5t-135 -41.5q-63 0 -109 33t-46 76q0 44 41 44zM632 544q0 -24 -18 -42.5t-60 -18.5h-101l-81 -383h100q28 0 42.5 -7.5t14.5 -31.5t-18 -42.5
t-60 -18.5h-301q-31 0 -44 9t-13 31q0 24 18 42t60 18h101l81 383h-101q-31 0 -43.5 9t-12.5 31q0 24 18 42t60 18h301q29 0 43 -7.5t14 -31.5z" />
    <glyph glyph-name="ibreve" unicode="&#x12d;" 
d="M237 663q15 0 21 -6.5t7 -25.5q2 -19 30.5 -36t67.5 -17t73 17t43 36q10 20 17.5 26t22.5 6q29 0 29 -25q0 -45 -62 -86.5t-135 -41.5q-63 0 -109 33t-46 76q0 44 41 44zM186 377q0 23 17 41.5t62 18.5h178l-71 -337h121q28 0 42.5 -7.5t14.5 -32.5q0 -22 -17.5 -41
t-60.5 -19h-343q-31 0 -44 9t-13 31q0 24 18 42t60 18h122l50 237h-78q-32 0 -45 9t-13 31z" />
    <glyph glyph-name="Iogonek" unicode="&#x12e;" 
d="M380 -121q15 0 40 11t36 11q14 0 22.5 -9t8.5 -23q0 -22 -25 -38.5t-53 -23t-51 -6.5q-36 0 -56.5 19.5t-20.5 53.5q0 40 24 66t89 60h-244q-31 0 -44 9t-13 31q0 24 18 42t60 18h101l81 383h-101q-31 0 -43.5 9t-12.5 31q0 24 18 42t60 18h301q29 0 43 -7.5t14 -31.5
t-18 -42.5t-60 -18.5h-101l-81 -383h100q28 0 42.5 -7.5t14.5 -31.5q0 -21 -12.5 -35t-41.5 -27q-49 -20 -80.5 -48.5t-31.5 -55.5q0 -16 17 -16z" />
    <glyph glyph-name="iogonek" unicode="&#x12f;" 
d="M402 -124q16 0 42.5 12t37.5 12q14 0 22.5 -8.5t8.5 -21.5q0 -18 -15 -32.5t-37.5 -22t-44 -11.5t-37.5 -4q-36 0 -56.5 17.5t-20.5 48.5q0 15 4 29.5t9 25t14.5 21.5t16.5 17.5t18.5 14.5t17 11t16 8.5t11.5 6.5h-280q-31 0 -44 9t-13 31q0 24 18 42t60 18h122l50 237
h-78q-32 0 -45 9t-13 31q0 23 17 41.5t62 18.5h178l-71 -337h121q28 0 42.5 -8t14.5 -31q0 -22 -26 -44.5t-57.5 -38.5t-57.5 -39.5t-26 -47.5q0 -15 19 -15zM469 623l-23 -105h-118l23 105h118z" />
    <glyph glyph-name="Idotaccent" unicode="&#x130;" 
d="M466 777q22 0 35.5 -13.5t13.5 -34.5q0 -28 -23 -50t-52 -22q-20 0 -34 14t-14 34q0 28 22.5 50t51.5 22zM632 544q0 -24 -18 -42.5t-60 -18.5h-101l-81 -383h100q28 0 42.5 -7.5t14.5 -31.5t-18 -42.5t-60 -18.5h-301q-31 0 -44 9t-13 31q0 24 18 42t60 18h101l81 383
h-101q-31 0 -43.5 9t-12.5 31q0 24 18 42t60 18h301q29 0 43 -7.5t14 -31.5z" />
    <glyph glyph-name="dotlessi" unicode="&#x131;" 
d="M186 377q0 23 17 41.5t62 18.5h178l-71 -337h121q28 0 42.5 -7.5t14.5 -32.5q0 -22 -17.5 -41t-60.5 -19h-343q-31 0 -44 9t-13 31q0 24 18 42t60 18h122l50 237h-78q-32 0 -45 9t-13 31z" />
    <glyph glyph-name="IJ" unicode="&#x132;" 
d="M359 544q0 -24 -18 -42.5t-60 -18.5h-9l-81 -383h8q28 0 42.5 -7.5t14.5 -31.5t-18 -42.5t-60 -18.5h-119q-31 0 -44 9t-13 31q0 24 18 42t60 18h11l81 383h-11q-31 0 -43.5 9t-12.5 31q0 24 18 42t60 18h119q29 0 43 -7.5t14 -31.5zM726 543q0 -23 -18 -41.5t-60 -18.5
h-11l-63 -296q-9 -50 -16.5 -80.5t-18 -54.5t-20.5 -36t-28.5 -19.5t-37 -9t-51.5 -1.5q-46 0 -85 28t-39 78q0 7 2 21l21 100q13 67 65 67q17 0 28.5 -10.5t11.5 -26.5q0 -11 -4 -30l-21 -96q2 -22 8.5 -26.5t32.5 -4.5q11 0 19 6t14 20.5t8.5 24t6.5 32t6 29.5l61 285h-16
q-31 0 -44 9t-13 31q0 23 17 41.5t61 18.5h127q19 0 29.5 -2t19 -11.5t8.5 -26.5z" />
    <glyph glyph-name="ij" unicode="&#x133;" 
d="M103 377q0 23 17 41.5t62 18.5h178l-71 -337h81q28 0 42.5 -7.5t14.5 -32.5q0 -22 -17.5 -41t-60.5 -19h-273q-31 0 -44 9t-13 31q0 24 18 42t60 18h92l50 237h-78q-32 0 -45 9t-13 31zM386 623l-23 -105h-118l23 105h118zM171 -160q0 23 18 41.5t60 18.5h110
q44 0 74.5 23t38.5 62l75 352h-102q-31 0 -44 9t-13 31q0 23 18 41.5t60 18.5h202l-96 -452q-16 -79 -82.5 -132t-148.5 -53h-113q-31 0 -44 9t-13 31zM650 623l-23 -105h-119l22 105h120z" />
    <glyph glyph-name="Jcircumflex" unicode="&#x134;" 
d="M544 711l-124 -62q-26 -13 -30 -13q-13 0 -21.5 9t-8.5 21q0 11 6.5 20t10 11.5t14.5 8.5l169 94l142 -101q10 -10 10 -22q0 -16 -13 -28.5t-27 -12.5q-7 0 -27 13zM727 543q0 -23 -18 -41.5t-60 -18.5h-57l-63 -296q-14 -67 -60.5 -114.5t-99 -67t-103.5 -19.5
q-84 0 -202 65l34 162q13 67 65 67q17 0 28.5 -10.5t11.5 -26.5q0 -11 -4 -30l-21 -96q63 -31 110 -31q26 0 51 6.5t53.5 33.5t38.5 72l61 285h-119q-31 0 -44 9t-13 31q0 23 17 41.5t61 18.5h276q19 0 29.5 -2t19 -11.5t8.5 -26.5z" />
    <glyph glyph-name="jcircumflex" unicode="&#x135;" 
d="M84 -160q0 23 18 41.5t60 18.5h110q44 0 74.5 23t38.5 62l75 352h-202q-31 0 -44 9t-13 31q0 23 18 41.5t60 18.5h302l-96 -452q-16 -79 -82.5 -132t-148.5 -53h-113q-31 0 -44 9t-13 31zM439 572l-124 -62q-26 -13 -30 -13q-13 0 -21.5 9t-8.5 21q0 11 6.5 20t10 11.5
t14.5 8.5l169 94l142 -101q10 -10 10 -22q0 -16 -13 -28.5t-27 -12.5q-7 0 -27 13z" />
    <glyph glyph-name="Kcommaaccent" unicode="&#x136;" 
d="M233 -29h119l-114 -150q-15 -20 -32 -20q-26 0 -26 25q0 10 3 19zM614 61q0 -24 -18.5 -42.5t-60.5 -18.5h-109q-13 107 -44 176t-74 83l-70 -51l-23 -108h35q28 0 42 -8t14 -32q0 -22 -18 -41t-60 -19h-149q-31 0 -44 9.5t-13 30.5q0 24 18 42t60 18h15l81 383h-15
q-31 0 -43.5 9t-12.5 31q0 23 17 41.5t61 18.5h149q19 0 29.5 -2t19 -11.5t8.5 -26.5q0 -23 -18 -41.5t-60 -18.5h-35l-31 -149l210 153q-23 9 -23 33q0 26 18 44.5t60 18.5h101q28 0 42 -7.5t14 -31.5q0 -23 -17.5 -42t-56.5 -19l-209 -153q41 -24 73 -84t48 -146h32
q29 0 43 -8t14 -31z" />
    <glyph glyph-name="kcommaaccent" unicode="&#x137;" 
d="M212 -29h119l-114 -150q-15 -20 -32 -20q-26 0 -26 25q0 10 3 19zM582 60q0 -23 -18 -41.5t-60 -18.5h-118q-31 0 -44 9t-13 31q0 25 25 47l-84 91l-21 -14l-34 -164h-117q-30 0 -43 9t-13 31q0 23 18 41.5t60 18.5h16l90 424h-16q-31 0 -44 8.5t-13 30.5q0 24 17 42.5
t61 18.5h116l-72 -337l92 63q-8 15 -8 26q0 25 18 43t60 18h112q31 0 44 -9t13 -30q0 -24 -18 -42.5t-60 -18.5h-27l-139 -96l130 -141h33q28 0 42.5 -7.5t14.5 -32.5z" />
    <glyph glyph-name="kgreenlandic" unicode="&#x138;" 
d="M262 38q0 27 25 49l-61 77l-35 -164h-116q-57 0 -57 38q0 24 17 43t61 19h16l50 237h-16q-28 0 -42 7t-14 31t17 43t61 19h116l-32 -150l92 63q-9 15 -9 29q0 23 18 40.5t61 17.5h112q29 0 42.5 -7t13.5 -30q0 -25 -18 -44t-60 -19h-28l-159 -110l108 -127h33
q19 0 29.5 -2t19 -11t8.5 -26q0 -23 -18 -42t-60 -19h-118q-57 0 -57 38z" />
    <glyph glyph-name="Lacute" unicode="&#x139;" 
d="M455 728l-99 -76q-20 -16 -30 -16q-15 0 -25 10.5t-10 28.5q0 10 29 34l99 75q22 16 34 16q31 0 31 -37q0 -12 -29 -35zM493 543q0 -23 -18 -41.5t-60 -18.5h-57l-81 -383h215l20 92q13 67 64 67q17 0 28.5 -11t11.5 -27q0 -9 -4 -29l-41 -192h-472q-31 0 -44 9.5
t-13 30.5q0 24 18 42t60 18h57l81 383h-56q-31 0 -44 9t-13 31q0 23 17 41.5t61 18.5h213q19 0 29.5 -2t19 -11.5t8.5 -26.5z" />
    <glyph glyph-name="lacute" unicode="&#x13a;" 
d="M499 728l-99 -76q-20 -16 -30 -16q-15 0 -25 10.5t-10 28.5q0 10 29 34l99 75q22 16 34 16q31 0 31 -37q0 -12 -29 -35zM226 564q0 24 18 42t61 18h178l-111 -524h121q28 0 42.5 -7.5t14.5 -32.5q0 -22 -17.5 -41t-60.5 -19h-343q-31 0 -44 9t-13 31q0 24 18 42t60 18
h122l90 424h-79q-27 0 -42 8t-15 32z" />
    <glyph glyph-name="Lcommaaccent" unicode="&#x13b;" 
d="M242 -29h119l-114 -150q-15 -20 -32 -20q-26 0 -26 25q0 10 3 19zM493 543q0 -23 -18 -41.5t-60 -18.5h-57l-81 -383h215l20 92q13 67 64 67q17 0 28.5 -11t11.5 -27q0 -9 -4 -29l-41 -192h-472q-31 0 -44 9.5t-13 30.5q0 24 18 42t60 18h57l81 383h-56q-31 0 -44 9
t-13 31q0 23 17 41.5t61 18.5h213q19 0 29.5 -2t19 -11.5t8.5 -26.5z" />
    <glyph glyph-name="lcommaaccent" unicode="&#x13c;" 
d="M243 -29h119l-114 -150q-15 -20 -32 -20q-26 0 -26 25q0 10 3 19zM226 564q0 24 18 42t61 18h178l-111 -524h121q28 0 42.5 -7.5t14.5 -32.5q0 -22 -17.5 -41t-60.5 -19h-343q-31 0 -44 9t-13 31q0 24 18 42t60 18h122l90 424h-79q-27 0 -42 8t-15 32z" />
    <glyph glyph-name="Lcaron" unicode="&#x13d;" 
d="M690 547l-99 -76q-20 -16 -30 -16q-15 0 -25 10.5t-10 28.5q0 10 29 34l99 75q22 16 34 16q31 0 31 -37q0 -12 -29 -35zM493 543q0 -23 -18 -41.5t-60 -18.5h-57l-81 -383h215l20 92q13 67 64 67q17 0 28.5 -11t11.5 -27q0 -9 -4 -29l-41 -192h-472q-31 0 -44 9.5
t-13 30.5q0 24 18 42t60 18h57l81 383h-56q-31 0 -44 9t-13 31q0 23 17 41.5t61 18.5h213q19 0 29.5 -2t19 -11.5t8.5 -26.5z" />
    <glyph glyph-name="lcaron" unicode="&#x13e;" 
d="M669 566l-99 -76q-20 -16 -30 -16q-15 0 -25 10.5t-10 28.5q0 10 29 34l99 75q22 16 34 16q31 0 31 -37q0 -12 -29 -35zM226 564q0 24 18 42t61 18h178l-111 -524h121q28 0 42.5 -7.5t14.5 -32.5q0 -22 -17.5 -41t-60.5 -19h-343q-31 0 -44 9t-13 31q0 24 18 42t60 18
h122l90 424h-79q-27 0 -42 8t-15 32z" />
    <glyph glyph-name="Ldot" unicode="&#x13f;" 
d="M499 398q22 0 35.5 -13.5t13.5 -34.5q0 -28 -23 -50t-52 -22q-20 0 -34 14t-14 34q0 28 22.5 50t51.5 22zM493 543q0 -23 -18 -41.5t-60 -18.5h-57l-81 -383h215l20 92q13 67 64 67q17 0 28.5 -11t11.5 -27q0 -9 -4 -29l-41 -192h-472q-31 0 -44 9.5t-13 30.5q0 24 18 42
t60 18h57l81 383h-56q-31 0 -44 9t-13 31q0 23 17 41.5t61 18.5h213q19 0 29.5 -2t19 -11.5t8.5 -26.5z" />
    <glyph glyph-name="ldot" unicode="&#x140;" 
d="M592 398q22 0 35.5 -13.5t13.5 -34.5q0 -28 -23 -50t-52 -22q-20 0 -34 14t-14 34q0 28 22.5 50t51.5 22zM226 564q0 24 18 42t61 18h178l-111 -524h121q28 0 42.5 -7.5t14.5 -32.5q0 -22 -17.5 -41t-60.5 -19h-343q-31 0 -44 9t-13 31q0 24 18 42t60 18h122l90 424h-79
q-27 0 -42 8t-15 32z" />
    <glyph glyph-name="Lslash" unicode="&#x141;" 
d="M494 543q0 -23 -18 -41.5t-61 -18.5h-56l-26 -124l98 52q29 15 45 15q15 0 26 -11.5t11 -26.5q0 -21 -11 -34.5t-40 -28.5l-154 -81l-30 -144h214l20 91q13 67 64 67q17 0 28.5 -11t11.5 -27q0 -8 -4 -29l-41 -191h-471q-31 0 -44 9t-13 31q0 24 18 42t60 18h57l21 103
l-60 -32q-29 -15 -45 -15q-15 0 -26.5 11.5t-11.5 27.5q0 21 11 34.5t40 28.5l117 60l35 165h-57q-31 0 -44 9t-13 31q0 23 17 41.5t62 18.5h213q19 0 29.5 -2t19 -11.5t8.5 -26.5z" />
    <glyph glyph-name="lslash" unicode="&#x142;" 
d="M229 564q0 24 18 42t61 18h175l-48 -225l39 20q27 16 45 16q15 0 26.5 -12t11.5 -28q0 -21 -11 -35t-40 -28l-96 -49l-39 -183h122q28 0 42.5 -8t14.5 -31t-18 -42t-60 -19h-343q-57 0 -57 40q0 24 18 42t60 18h122l30 143q-65 -34 -82 -34q-16 0 -27 11.5t-11 28.5
q0 20 11.5 34.5t39.5 28.5l94 47l35 165h-76q-31 0 -44 9t-13 31z" />
    <glyph glyph-name="Nacute" unicode="&#x143;" 
d="M547 728l-99 -76q-20 -16 -30 -16q-15 0 -25 10.5t-10 28.5q0 10 29 34l99 75q22 16 34 16q31 0 31 -37q0 -12 -29 -35zM706 543q0 -21 -17.5 -40.5t-55.5 -19.5l-103 -483h-98l-176 394l-62 -294h35q28 0 42 -7.5t14 -31.5q0 -23 -18 -42t-60 -19h-129q-31 0 -44 9
t-13 31q0 21 17 40.5t56 19.5l81 383h-15q-31 0 -43.5 9t-12.5 31q0 23 18 41.5t60 18.5h114l175 -392l62 292h-35q-31 0 -43.5 9t-12.5 31q0 24 17.5 42t59.5 18h130q19 0 29.5 -2t19 -11.5t8.5 -26.5z" />
    <glyph glyph-name="nacute" unicode="&#x144;" 
d="M522 602l-99 -76q-20 -16 -30 -16q-15 0 -25 10.5t-10 28.5q0 10 29 34l99 75q22 16 34 16q31 0 31 -37q0 -12 -29 -35zM115 377q0 23 18.5 41.5t60.5 18.5h94l-10 -48q43 34 76 47.5t74 13.5q66 0 106.5 -33.5t40.5 -88.5q0 -19 -5 -46l-39 -182q52 0 52 -40
q0 -23 -18 -41.5t-60 -18.5h-89q-31 0 -44 9t-13 31q0 21 17.5 40.5t55.5 19.5l37 178q3 14 3 23q0 49 -78 49q-35 0 -65.5 -15t-73.5 -53l-38 -182h6q28 0 42 -8t14 -32q0 -23 -18 -41.5t-60 -18.5h-112q-30 0 -43 9t-13 31q0 23 18 41.5t60 18.5h6l50 237q-52 0 -52 40z
" />
    <glyph glyph-name="Ncommaaccent" unicode="&#x145;" 
d="M251 -29h119l-114 -150q-15 -20 -32 -20q-26 0 -26 25q0 10 3 19zM706 543q0 -21 -17.5 -40.5t-55.5 -19.5l-103 -483h-98l-176 394l-62 -294h35q28 0 42 -7.5t14 -31.5q0 -23 -18 -42t-60 -19h-129q-31 0 -44 9t-13 31q0 21 17 40.5t56 19.5l81 383h-15q-31 0 -43.5 9
t-12.5 31q0 23 18 41.5t60 18.5h114l175 -392l62 292h-35q-31 0 -43.5 9t-12.5 31q0 24 17.5 42t59.5 18h130q19 0 29.5 -2t19 -11.5t8.5 -26.5z" />
    <glyph glyph-name="ncommaaccent" unicode="&#x146;" 
d="M252 -29h119l-114 -150q-15 -20 -32 -20q-26 0 -26 25q0 10 3 19zM115 377q0 23 18.5 41.5t60.5 18.5h94l-10 -48q43 34 76 47.5t74 13.5q66 0 106.5 -33.5t40.5 -88.5q0 -19 -5 -46l-39 -182q52 0 52 -40q0 -23 -18 -41.5t-60 -18.5h-89q-31 0 -44 9t-13 31
q0 21 17.5 40.5t55.5 19.5l37 178q3 14 3 23q0 49 -78 49q-35 0 -65.5 -15t-73.5 -53l-38 -182h6q28 0 42 -8t14 -32q0 -23 -18 -41.5t-60 -18.5h-112q-30 0 -43 9t-13 31q0 23 18 41.5t60 18.5h6l50 237q-52 0 -52 40z" />
    <glyph glyph-name="Ncaron" unicode="&#x147;" 
d="M433 725l124 62q26 13 30 13q13 0 21.5 -9t8.5 -21q0 -11 -6.5 -20t-10 -11.5t-14.5 -8.5l-169 -94l-142 101q-10 10 -10 22q0 16 13 28.5t27 12.5q7 0 27 -13zM706 543q0 -21 -17.5 -40.5t-55.5 -19.5l-103 -483h-98l-176 394l-62 -294h35q28 0 42 -7.5t14 -31.5
q0 -23 -18 -42t-60 -19h-129q-31 0 -44 9t-13 31q0 21 17 40.5t56 19.5l81 383h-15q-31 0 -43.5 9t-12.5 31q0 23 18 41.5t60 18.5h114l175 -392l62 292h-35q-31 0 -43.5 9t-12.5 31q0 24 17.5 42t59.5 18h130q19 0 29.5 -2t19 -11.5t8.5 -26.5z" />
    <glyph glyph-name="ncaron" unicode="&#x148;" 
d="M409 587l124 62q26 13 30 13q13 0 21.5 -9t8.5 -21q0 -11 -6.5 -20t-10 -11.5t-14.5 -8.5l-169 -94l-142 101q-10 10 -10 22q0 16 13 28.5t27 12.5q7 0 27 -13zM115 377q0 23 18.5 41.5t60.5 18.5h94l-10 -48q43 34 76 47.5t74 13.5q66 0 106.5 -33.5t40.5 -88.5
q0 -19 -5 -46l-39 -182q52 0 52 -40q0 -23 -18 -41.5t-60 -18.5h-89q-31 0 -44 9t-13 31q0 21 17.5 40.5t55.5 19.5l37 178q3 14 3 23q0 49 -78 49q-35 0 -65.5 -15t-73.5 -53l-38 -182h6q28 0 42 -8t14 -32q0 -23 -18 -41.5t-60 -18.5h-112q-30 0 -43 9t-13 31
q0 23 18 41.5t60 18.5h6l50 237q-52 0 -52 40z" />
    <glyph glyph-name="napostrophe" unicode="&#x149;" 
d="M249 589l-99 -76q-20 -16 -30 -16q-15 0 -25 10.5t-10 28.5q0 10 29 34l99 75q22 16 34 16q31 0 31 -37q0 -12 -29 -35zM115 377q0 23 18.5 41.5t60.5 18.5h94l-10 -48q43 34 76 47.5t74 13.5q66 0 106.5 -33.5t40.5 -88.5q0 -19 -5 -46l-39 -182q52 0 52 -40
q0 -23 -18 -41.5t-60 -18.5h-89q-31 0 -44 9t-13 31q0 21 17.5 40.5t55.5 19.5l37 178q3 14 3 23q0 49 -78 49q-35 0 -65.5 -15t-73.5 -53l-38 -182h6q28 0 42 -8t14 -32q0 -23 -18 -41.5t-60 -18.5h-112q-30 0 -43 9t-13 31q0 23 18 41.5t60 18.5h6l50 237q-52 0 -52 40z
" />
    <glyph glyph-name="Eng" unicode="&#x14a;" 
d="M255 -69q0 24 19.5 42t40.5 18q4 0 25.5 -7t42.5 -7q35 0 73.5 80t65.5 207q17 81 17 138q0 135 -95 135q-72 0 -149 -68l-79 -369h3q60 0 60 -36q0 -64 -78 -64h-112q-57 0 -57 37q0 63 84 63l90 424q-51 2 -51 38q0 32 22.5 47t56.5 15h94l-11 -48q77 61 160 61
q31 0 57 -8.5t52 -29.5t41 -64.5t15 -105.5q0 -74 -19 -161q-26 -120 -57 -201t-66 -120.5t-66.5 -54.5t-68.5 -15q-52 0 -81 14t-29 40z" />
    <glyph glyph-name="eng" unicode="&#x14b;" 
d="M6 37q0 25 17 44t61 19h6l50 237q-51 2 -51 38q0 24 18 43t61 19h94l-11 -48q43 34 76 47.5t74 13.5q67 0 107 -32.5t40 -93.5q0 -22 -4 -42l-63 -296q-17 -80 -78.5 -133t-136.5 -53q-110 0 -110 54q0 24 20 42t40 18q4 0 25.5 -7t42.5 -7q35 0 62 23.5t35 62.5l62 292
q2 16 2 21q0 51 -77 51q-35 0 -65.5 -15t-73.5 -53l-39 -182h6q57 0 57 -36q0 -64 -78 -64h-112q-57 0 -57 37z" />
    <glyph glyph-name="Omacron" unicode="&#x14c;" 
d="M334 737h244q25 0 35 -7.5t10 -25.5q0 -20 -17.5 -33.5t-44.5 -13.5h-244q-25 0 -35 7t-10 26q0 21 17 34t45 13zM75 220q0 80 34 152.5t86 120.5t113.5 76t117.5 28q96 0 159.5 -66t63.5 -165q0 -82 -33.5 -155t-86 -121t-114 -76t-118.5 -28q-95 0 -158.5 67t-63.5 167
zM405 497q-86 0 -156.5 -79t-70.5 -175q0 -68 39.5 -112.5t99.5 -44.5q88 0 158.5 79t70.5 177q0 67 -40 111t-101 44z" />
    <glyph glyph-name="omacron" unicode="&#x14d;" 
d="M307 590h244q25 0 35 -7.5t10 -25.5q0 -20 -17.5 -33.5t-44.5 -13.5h-244q-25 0 -35 7t-10 26q0 21 17 34t45 13zM84 174q0 59 36 121t110.5 108.5t168.5 46.5q93 0 151.5 -53t58.5 -137q0 -109 -95 -192.5t-217 -83.5q-96 0 -154.5 52t-58.5 138zM376 350
q-77 0 -133.5 -47t-56.5 -111q0 -47 37 -77.5t95 -30.5q76 0 132.5 47.5t56.5 110.5q0 47 -37 77.5t-94 30.5z" />
    <glyph glyph-name="Obreve" unicode="&#x14e;" 
d="M312 781q15 0 21 -6.5t7 -25.5q2 -19 30.5 -36t67.5 -17t73 17t43 36q10 20 17.5 26t22.5 6q29 0 29 -25q0 -45 -62 -86.5t-135 -41.5q-63 0 -109 33t-46 76q0 44 41 44zM75 220q0 80 34 152.5t86 120.5t113.5 76t117.5 28q96 0 159.5 -66t63.5 -165q0 -82 -33.5 -155
t-86 -121t-114 -76t-118.5 -28q-95 0 -158.5 67t-63.5 167zM405 497q-86 0 -156.5 -79t-70.5 -175q0 -68 39.5 -112.5t99.5 -44.5q88 0 158.5 79t70.5 177q0 67 -40 111t-101 44z" />
    <glyph glyph-name="obreve" unicode="&#x14f;" 
d="M280 663q15 0 21 -6.5t7 -25.5q2 -19 30.5 -36t67.5 -17t73 17t43 36q10 20 17.5 26t22.5 6q29 0 29 -25q0 -45 -62 -86.5t-135 -41.5q-63 0 -109 33t-46 76q0 44 41 44zM84 174q0 59 36 121t110.5 108.5t168.5 46.5q93 0 151.5 -53t58.5 -137q0 -109 -95 -192.5
t-217 -83.5q-96 0 -154.5 52t-58.5 138zM376 350q-77 0 -133.5 -47t-56.5 -111q0 -47 37 -77.5t95 -30.5q76 0 132.5 47.5t56.5 110.5q0 47 -37 77.5t-94 30.5z" />
    <glyph glyph-name="Ohungarumlaut" unicode="&#x150;" 
d="M651 728l-99 -76q-20 -16 -30 -16q-15 0 -25 10.5t-10 28.5q0 10 29 34l99 75q22 16 34 16q31 0 31 -37q0 -12 -29 -35zM475 728l-99 -76q-20 -16 -30 -16q-15 0 -25 10.5t-10 28.5q0 10 29 34l99 75q22 16 34 16q31 0 31 -37q0 -12 -29 -35zM75 220q0 80 34 152.5
t86 120.5t113.5 76t117.5 28q96 0 159.5 -66t63.5 -165q0 -82 -33.5 -155t-86 -121t-114 -76t-118.5 -28q-95 0 -158.5 67t-63.5 167zM405 497q-86 0 -156.5 -79t-70.5 -175q0 -68 39.5 -112.5t99.5 -44.5q88 0 158.5 79t70.5 177q0 67 -40 111t-101 44z" />
    <glyph glyph-name="ohungarumlaut" unicode="&#x151;" 
d="M584 594l-99 -76q-20 -16 -30 -16q-15 0 -25 10.5t-10 28.5q0 10 29 34l99 75q22 16 34 16q31 0 31 -37q0 -12 -29 -35zM408 594l-99 -76q-20 -16 -30 -16q-15 0 -25 10.5t-10 28.5q0 10 29 34l99 75q22 16 34 16q31 0 31 -37q0 -12 -29 -35zM84 174q0 59 36 121
t110.5 108.5t168.5 46.5q93 0 151.5 -53t58.5 -137q0 -109 -95 -192.5t-217 -83.5q-96 0 -154.5 52t-58.5 138zM376 350q-77 0 -133.5 -47t-56.5 -111q0 -47 37 -77.5t95 -30.5q76 0 132.5 47.5t56.5 110.5q0 47 -37 77.5t-94 30.5z" />
    <glyph glyph-name="OE" unicode="&#x152;" 
d="M418 243l-31 -143h147l5 22q12 66 64 66q17 0 28 -10.5t11 -26.5q0 -9 -4 -29l-26 -122h-353q-102 0 -163.5 60t-61.5 160q0 147 103.5 255t245.5 108h334l-35 -165q-16 -66 -65 -66q-16 0 -27.5 11t-11.5 26q0 7 4 29l14 65h-127l-30 -141h18q15 55 62 55q17 0 28.5 -11
t11.5 -27q0 -4 -5 -28l-16 -78q-18 -66 -65 -66q-16 0 -27.5 11t-11.5 27q0 4 2 18h-18zM369 483q-54 -1 -97 -20.5t-67.5 -47.5t-40.5 -62t-21.5 -59.5t-5.5 -45.5q0 -26 6 -49.5t21 -47t46.5 -37.5t76.5 -14z" />
    <glyph glyph-name="oe" unicode="&#x153;" 
d="M628 77q0 -28 -24.5 -48t-60.5 -29t-63.5 -12.5t-45.5 -3.5q-82 0 -119 74q-69 -74 -146 -74q-62 0 -101.5 47t-39.5 121q0 106 72 202t168 96q75 0 114 -80q70 80 150 80q59 0 96.5 -44.5t37.5 -114.5q0 -39 -18 -120h-251q0 -87 64 -87q32 0 74.5 16.5t54.5 16.5
q16 0 27 -11.5t11 -28.5zM247 349q-43 0 -79.5 -54.5t-36.5 -119.5q0 -43 15.5 -67t43.5 -24q43 0 79.5 54.5t36.5 119.5q0 43 -15.5 67t-43.5 24zM509 349q-30 0 -51 -25t-40 -67h141v6q0 86 -50 86z" />
    <glyph glyph-name="Racute" unicode="&#x154;" 
d="M459 728l-99 -76q-20 -16 -30 -16q-15 0 -25 10.5t-10 28.5q0 10 29 34l99 75q22 16 34 16q31 0 31 -37q0 -12 -29 -35zM631 60q0 -22 -18 -41t-60 -19h-78q-23 74 -65.5 142.5t-71.5 79.5h-96l-26 -122h35q28 0 42 -8t14 -32q0 -22 -18 -41t-60 -19h-149q-31 0 -44 9
t-13 31q0 23 18 41.5t60 18.5h15l81 383h-15q-31 0 -43.5 9t-12.5 31q0 23 17 41.5t61 18.5h223q86 0 135.5 -38.5t49.5 -106.5q0 -113 -143 -184q52 -56 92 -154h13q32 0 44.5 -9t12.5 -31zM263 322h76q68 0 116.5 28.5t48.5 69.5q0 28 -26 45.5t-69 17.5h-112z" />
    <glyph glyph-name="racute" unicode="&#x155;" 
d="M537 602l-99 -76q-20 -16 -30 -16q-15 0 -25 10.5t-10 28.5q0 10 29 34l99 75q22 16 34 16q31 0 31 -37q0 -12 -29 -35zM159 377q0 23 18 41.5t59 18.5h135l-13 -64q72 46 109 61t74 15q40 0 74.5 -24t34.5 -50q0 -23 -19.5 -42t-42.5 -19q-15 0 -34.5 18t-36.5 18
q-23 0 -64 -22.5t-122 -79.5l-31 -148h139q28 0 42.5 -7.5t14.5 -32.5q0 -22 -17.5 -41t-60.5 -19h-298q-30 0 -43 9t-13 31q0 24 17.5 42t59.5 18h59l50 238h-35q-30 0 -43 9t-13 30z" />
    <glyph glyph-name="Rcommaaccent" unicode="&#x156;" 
d="M248 -29h119l-114 -150q-15 -20 -32 -20q-26 0 -26 25q0 10 3 19zM631 60q0 -22 -18 -41t-60 -19h-78q-23 74 -65.5 142.5t-71.5 79.5h-96l-26 -122h35q28 0 42 -8t14 -32q0 -22 -18 -41t-60 -19h-149q-31 0 -44 9t-13 31q0 23 18 41.5t60 18.5h15l81 383h-15
q-31 0 -43.5 9t-12.5 31q0 23 17 41.5t61 18.5h223q86 0 135.5 -38.5t49.5 -106.5q0 -113 -143 -184q52 -56 92 -154h13q32 0 44.5 -9t12.5 -31zM263 322h76q68 0 116.5 28.5t48.5 69.5q0 28 -26 45.5t-69 17.5h-112z" />
    <glyph glyph-name="rcommaaccent" unicode="&#x157;" 
d="M256 -29h119l-114 -150q-15 -20 -32 -20q-26 0 -26 25q0 10 3 19zM159 377q0 23 18 41.5t59 18.5h135l-13 -64q72 46 109 61t74 15q40 0 74.5 -24t34.5 -50q0 -23 -19.5 -42t-42.5 -19q-15 0 -34.5 18t-36.5 18q-23 0 -64 -22.5t-122 -79.5l-31 -148h139q28 0 42.5 -7.5
t14.5 -32.5q0 -22 -17.5 -41t-60.5 -19h-298q-30 0 -43 9t-13 31q0 24 17.5 42t59.5 18h59l50 238h-35q-30 0 -43 9t-13 30z" />
    <glyph glyph-name="Rcaron" unicode="&#x158;" 
d="M411 724l124 62q26 13 30 13q13 0 21.5 -9t8.5 -21q0 -11 -6.5 -20t-10 -11.5t-14.5 -8.5l-169 -94l-142 101q-10 10 -10 22q0 16 13 28.5t27 12.5q7 0 27 -13zM631 60q0 -22 -18 -41t-60 -19h-78q-23 74 -65.5 142.5t-71.5 79.5h-96l-26 -122h35q28 0 42 -8t14 -32
q0 -22 -18 -41t-60 -19h-149q-31 0 -44 9t-13 31q0 23 18 41.5t60 18.5h15l81 383h-15q-31 0 -43.5 9t-12.5 31q0 23 17 41.5t61 18.5h223q86 0 135.5 -38.5t49.5 -106.5q0 -113 -143 -184q52 -56 92 -154h13q32 0 44.5 -9t12.5 -31zM263 322h76q68 0 116.5 28.5t48.5 69.5
q0 28 -26 45.5t-69 17.5h-112z" />
    <glyph glyph-name="rcaron" unicode="&#x159;" 
d="M423 587l124 62q26 13 30 13q13 0 21.5 -9t8.5 -21q0 -11 -6.5 -20t-10 -11.5t-14.5 -8.5l-169 -94l-142 101q-10 10 -10 22q0 16 13 28.5t27 12.5q7 0 27 -13zM159 377q0 23 18 41.5t59 18.5h135l-13 -64q72 46 109 61t74 15q40 0 74.5 -24t34.5 -50q0 -23 -19.5 -42
t-42.5 -19q-15 0 -34.5 18t-36.5 18q-23 0 -64 -22.5t-122 -79.5l-31 -148h139q28 0 42.5 -7.5t14.5 -32.5q0 -22 -17.5 -41t-60.5 -19h-298q-30 0 -43 9t-13 31q0 24 17.5 42t59.5 18h59l50 238h-35q-30 0 -43 9t-13 30z" />
    <glyph glyph-name="Sacute" unicode="&#x15a;" 
d="M494 728l-99 -76q-20 -16 -30 -16q-15 0 -25 10.5t-10 28.5q0 10 29 34l99 75q22 16 34 16q31 0 31 -37q0 -12 -29 -35zM273 411q0 -29 31 -45t76 -24.5t89.5 -20.5t75.5 -42.5t31 -79.5q0 -92 -77 -152.5t-193 -60.5q-82 0 -148 39q-27 -24 -46 -24q-17 0 -28.5 10.5
t-11.5 26.5q0 13 4 29l14 66q15 66 65 66q24 0 30.5 -11t8.5 -37q2 -27 39 -46t86 -19q62 0 106.5 25.5t44.5 61.5q0 26 -27 41.5t-63 20.5t-82.5 16.5t-74.5 29.5q-56 38 -56 104q0 87 76 149.5t182 62.5q78 0 123 -33q21 33 46 33q18 0 29 -10t11 -26q0 -12 -4 -30
l-19 -88q-13 -67 -64 -67q-11 0 -19 3.5t-11.5 6.5t-5.5 12.5t-2.5 13.5t-0.5 18q0 30 -28.5 48.5t-75.5 18.5q-53 0 -92 -26t-39 -60z" />
    <glyph glyph-name="sacute" unicode="&#x15b;" 
d="M507 589l-99 -76q-20 -16 -30 -16q-15 0 -25 10.5t-10 28.5q0 10 29 34l99 75q22 16 34 16q31 0 31 -37q0 -12 -29 -35zM516 281q-16 0 -24 7t-13 17.5t-13.5 20.5t-31 17t-58.5 7q-41 0 -74 -12t-33 -26q0 -18 41 -25.5t102.5 -17.5t94.5 -30q49 -32 49 -89
q0 -70 -73.5 -118t-181.5 -48q-87 0 -142 29q-19 -12 -35 -12q-18 0 -29.5 10.5t-11.5 27.5q0 8 4 28l7 33q15 67 65 67q38 0 42 -44q35 -39 117 -39q51 0 88.5 14t37.5 33q0 36 -116 48q-91 10 -131.5 35.5t-40.5 74.5q0 68 69 114.5t169 46.5q72 0 123 -26q17 26 38 26
q17 0 27 -10t10 -26q0 -11 -4 -30l-8 -37q-13 -66 -64 -66z" />
    <glyph glyph-name="Scircumflex" unicode="&#x15c;" 
d="M480 711l-124 -62q-26 -13 -30 -13q-13 0 -21.5 9t-8.5 21q0 11 6.5 20t10 11.5t14.5 8.5l169 94l142 -101q10 -10 10 -22q0 -16 -13 -28.5t-27 -12.5q-7 0 -27 13zM273 411q0 -29 31 -45t76 -24.5t89.5 -20.5t75.5 -42.5t31 -79.5q0 -92 -77 -152.5t-193 -60.5
q-82 0 -148 39q-27 -24 -46 -24q-17 0 -28.5 10.5t-11.5 26.5q0 13 4 29l14 66q15 66 65 66q24 0 30.5 -11t8.5 -37q2 -27 39 -46t86 -19q62 0 106.5 25.5t44.5 61.5q0 26 -27 41.5t-63 20.5t-82.5 16.5t-74.5 29.5q-56 38 -56 104q0 87 76 149.5t182 62.5q78 0 123 -33
q21 33 46 33q18 0 29 -10t11 -26q0 -12 -4 -30l-19 -88q-13 -67 -64 -67q-11 0 -19 3.5t-11.5 6.5t-5.5 12.5t-2.5 13.5t-0.5 18q0 30 -28.5 48.5t-75.5 18.5q-53 0 -92 -26t-39 -60z" />
    <glyph glyph-name="scircumflex" unicode="&#x15d;" 
d="M445 585l-124 -62q-26 -13 -30 -13q-13 0 -21.5 9t-8.5 21q0 11 6.5 20t10 11.5t14.5 8.5l169 94l142 -101q10 -10 10 -22q0 -16 -13 -28.5t-27 -12.5q-7 0 -27 13zM516 281q-16 0 -24 7t-13 17.5t-13.5 20.5t-31 17t-58.5 7q-41 0 -74 -12t-33 -26q0 -18 41 -25.5
t102.5 -17.5t94.5 -30q49 -32 49 -89q0 -70 -73.5 -118t-181.5 -48q-87 0 -142 29q-19 -12 -35 -12q-18 0 -29.5 10.5t-11.5 27.5q0 8 4 28l7 33q15 67 65 67q38 0 42 -44q35 -39 117 -39q51 0 88.5 14t37.5 33q0 36 -116 48q-91 10 -131.5 35.5t-40.5 74.5q0 68 69 114.5
t169 46.5q72 0 123 -26q17 26 38 26q17 0 27 -10t10 -26q0 -11 -4 -30l-8 -37q-13 -66 -64 -66z" />
    <glyph glyph-name="Scedilla" unicode="&#x15e;" 
d="M273 411q0 -29 31 -45t76 -24.5t89.5 -20.5t75.5 -42.5t31 -79.5q0 -85 -66.5 -143.5t-174.5 -68.5q51 -13 51 -73q0 -50 -34 -82t-87 -32q-47 0 -79.5 16.5t-32.5 39.5q0 18 10.5 29t27.5 11q12 0 36.5 -15t52.5 -15q34 0 34 26q0 31 -46 31l-24 -2l21 67q-56 6 -107 37
q-27 -24 -46 -24q-17 0 -28.5 10.5t-11.5 26.5q0 13 4 29l14 66q15 66 65 66q24 0 30.5 -11t8.5 -37q2 -27 39 -46t86 -19q62 0 106.5 25.5t44.5 61.5q0 26 -27 41.5t-63 20.5t-82.5 16.5t-74.5 29.5q-56 38 -56 104q0 87 76 149.5t182 62.5q78 0 123 -33q21 33 46 33
q18 0 29 -10t11 -26q0 -12 -4 -30l-19 -88q-13 -67 -64 -67q-11 0 -19 3.5t-11.5 6.5t-5.5 12.5t-2.5 13.5t-0.5 18q0 30 -28.5 48.5t-75.5 18.5q-53 0 -92 -26t-39 -60z" />
    <glyph glyph-name="scedilla" unicode="&#x15f;" 
d="M516 281q-16 0 -24 7t-13 17.5t-13.5 20.5t-31 17t-58.5 7q-41 0 -74 -12t-33 -26q0 -18 42.5 -26t104 -18t91.5 -30q49 -30 49 -88q0 -65 -63.5 -111.5t-163.5 -53.5q31 -6 41.5 -20t10.5 -45q0 -50 -38 -85t-92 -35q-33 0 -70.5 15t-37.5 40q0 17 13.5 30t30.5 13
q5 0 31.5 -14t48.5 -14q42 0 42 31q0 28 -46 28q-11 0 -23 -2l19 59q-65 7 -100 27q-19 -12 -35 -12q-18 0 -29.5 10.5t-11.5 27.5q0 8 4 28l7 33q15 67 65 67q38 0 42 -44q35 -39 117 -39q51 0 88.5 14t37.5 33q0 36 -116 48q-91 10 -131.5 35.5t-40.5 74.5q0 68 69 114.5
t169 46.5q72 0 123 -26q17 26 38 26q17 0 27 -10t10 -26q0 -11 -4 -30l-8 -37q-13 -66 -64 -66z" />
    <glyph glyph-name="Scaron" unicode="&#x160;" 
d="M467 725l124 62q26 13 30 13q13 0 21.5 -9t8.5 -21q0 -11 -6.5 -20t-10 -11.5t-14.5 -8.5l-169 -94l-142 101q-10 10 -10 22q0 16 13 28.5t27 12.5q7 0 27 -13zM273 411q0 -29 31 -45t76 -24.5t89.5 -20.5t75.5 -42.5t31 -79.5q0 -92 -77 -152.5t-193 -60.5
q-82 0 -148 39q-27 -24 -46 -24q-17 0 -28.5 10.5t-11.5 26.5q0 13 4 29l14 66q15 66 65 66q24 0 30.5 -11t8.5 -37q2 -27 39 -46t86 -19q62 0 106.5 25.5t44.5 61.5q0 26 -27 41.5t-63 20.5t-82.5 16.5t-74.5 29.5q-56 38 -56 104q0 87 76 149.5t182 62.5q78 0 123 -33
q21 33 46 33q18 0 29 -10t11 -26q0 -12 -4 -30l-19 -88q-13 -67 -64 -67q-11 0 -19 3.5t-11.5 6.5t-5.5 12.5t-2.5 13.5t-0.5 18q0 30 -28.5 48.5t-75.5 18.5q-53 0 -92 -26t-39 -60z" />
    <glyph glyph-name="scaron" unicode="&#x161;" 
d="M435 585l124 62q26 13 30 13q13 0 21.5 -9t8.5 -21q0 -11 -6.5 -20t-10 -11.5t-14.5 -8.5l-169 -94l-142 101q-10 10 -10 22q0 16 13 28.5t27 12.5q7 0 27 -13zM516 281q-16 0 -24 7t-13 17.5t-13.5 20.5t-31 17t-58.5 7q-41 0 -74 -12t-33 -26q0 -18 41 -25.5
t102.5 -17.5t94.5 -30q49 -32 49 -89q0 -70 -73.5 -118t-181.5 -48q-87 0 -142 29q-19 -12 -35 -12q-18 0 -29.5 10.5t-11.5 27.5q0 8 4 28l7 33q15 67 65 67q38 0 42 -44q35 -39 117 -39q51 0 88.5 14t37.5 33q0 36 -116 48q-91 10 -131.5 35.5t-40.5 74.5q0 68 69 114.5
t169 46.5q72 0 123 -26q17 26 38 26q17 0 27 -10t10 -26q0 -11 -4 -30l-8 -37q-13 -66 -64 -66z" />
    <glyph glyph-name="uni0162" unicode="&#x162;" 
d="M128 40q0 24 18 42t60 18h64l82 383h-107l-20 -93q-13 -51 -41 -62q-11 -4 -23 -4q-16 0 -28 11t-12 26q0 13 4 29l41 193h516l-41 -193q-14 -66 -64 -66q-17 0 -28.5 10.5t-11.5 26.5q0 12 4 29l20 93h-109l-82 -383h66q28 0 42.5 -8t14.5 -31t-18 -42t-60 -19h-75
l-2 -13q28 -5 40 -20.5t12 -45.5q0 -50 -38 -85.5t-92 -35.5q-33 0 -70.5 15t-37.5 40q0 17 13.5 30t30.5 13q5 0 31.5 -14t48.5 -14q42 0 42 31q0 28 -46 28q-11 0 -23 -2l21 73h-86q-56 0 -56 40z" />
    <glyph glyph-name="uni0163" unicode="&#x163;" 
d="M545 397q0 -23 -18 -41.5t-60 -18.5h-181l-42 -196q-3 -13 -3 -24q0 -33 77 -33q50 0 89.5 11t64 22.5t36.5 11.5q17 0 28 -11t11 -29q0 -24 -24.5 -44t-62.5 -32t-73.5 -18.5t-68.5 -9.5q32 -7 45.5 -21t13.5 -43q0 -50 -38 -85.5t-92 -35.5q-33 0 -70.5 15t-37.5 40
q0 17 13.5 30t30.5 13q5 0 31.5 -14t48.5 -14q42 0 42 31q0 28 -46 28q-11 0 -23 -2l12 61q-47 8 -79 33t-32 71q0 15 3 30l46 215h-35q-31 0 -44 9t-13 31q0 23 17 41.5t61 18.5h35l19 88q12 66 64 66q17 0 28.5 -11t11.5 -27q0 -9 -4 -28l-19 -88h181q19 0 29.5 -2
t19 -11.5t8.5 -26.5z" />
    <glyph glyph-name="Tcaron" unicode="&#x164;" 
d="M459 725l124 62q26 13 30 13q13 0 21.5 -9t8.5 -21q0 -11 -6.5 -20t-10 -11.5t-14.5 -8.5l-169 -94l-142 101q-10 10 -10 22q0 16 13 28.5t27 12.5q7 0 27 -13zM128 40q0 24 18 42t60 18h64l82 383h-107l-20 -93q-13 -51 -41 -62q-11 -4 -23 -4q-16 0 -28 11t-12 26
q0 13 4 29l41 193h516l-41 -193q-14 -66 -64 -66q-17 0 -28.5 10.5t-11.5 26.5q0 12 4 29l20 93h-109l-82 -383h66q28 0 42.5 -8t14.5 -31t-18 -42t-60 -19h-231q-56 0 -56 40z" />
    <glyph glyph-name="tcaron" unicode="&#x165;" 
d="M678 588l-99 -76q-20 -16 -30 -16q-15 0 -25 10.5t-10 28.5q0 10 29 34l99 75q22 16 34 16q31 0 31 -37q0 -12 -29 -35zM545 397q0 -23 -18 -41.5t-60 -18.5h-181l-42 -196q-3 -13 -3 -24q0 -33 77 -33q50 0 89.5 11t64 22.5t36.5 11.5q17 0 28 -11t11 -29
q0 -28 -31.5 -49.5t-77 -33t-84 -17t-63.5 -5.5q-35 0 -67 8.5t-59.5 34t-27.5 65.5q0 15 3 30l46 215h-35q-31 0 -44 9t-13 31q0 23 17 41.5t61 18.5h35l19 88q12 66 64 66q17 0 28.5 -11t11.5 -27q0 -9 -4 -28l-19 -88h181q19 0 29.5 -2t19 -11.5t8.5 -26.5z" />
    <glyph glyph-name="Tbar" unicode="&#x166;" 
d="M103 213q0 64 78 64h65l44 206h-107l-20 -93q-15 -66 -64 -66q-39 0 -39 39q0 12 3 27l41 193h516l-41 -193q-7 -32 -21 -49t-43 -17q-39 0 -39 39q0 13 3 27l20 93h-109l-44 -206h66q57 0 57 -35q0 -26 -17 -45.5t-61 -19.5h-66l-17 -77h66q57 0 57 -36q0 -64 -78 -64
h-231q-57 0 -57 39q0 61 78 61h65l17 77h-65q-57 0 -57 36z" />
    <glyph glyph-name="tbar" unicode="&#x167;" 
d="M484 402q0 -26 -17 -45.5t-61 -19.5h-181l-13 -60h36q57 0 57 -35q0 -26 -17 -45.5t-61 -19.5h-36l-8 -36q-3 -11 -3 -20q0 -20 17 -28.5t60 -8.5q50 0 89.5 11t64 22.5t36.5 11.5q18 0 28.5 -11t10.5 -29q0 -45 -85 -75t-167 -30q-75 0 -116.5 29t-41.5 80q0 14 3 29
l12 55h-35q-57 0 -57 36q0 64 78 64h35l13 60h-35q-57 0 -57 36q0 64 78 64h35l18 88q15 66 65 66q39 0 39 -37q0 -14 -4 -29l-18 -88h181q57 0 57 -35z" />
    <glyph glyph-name="Utilde" unicode="&#x168;" 
d="M508 734q17 0 44 24t44 24q12 0 20 -7.5t8 -16.5q0 -22 -41.5 -57.5t-83.5 -35.5q-28 0 -77 24t-64 24q-21 0 -47 -22.5t-42 -22.5q-11 0 -18.5 7t-7.5 18q0 23 39.5 56t85.5 33q28 0 76.5 -24t63.5 -24zM648 583q28 0 42.5 -7.5t14.5 -31.5q0 -26 -19.5 -43.5
t-53.5 -17.5l-59 -278q-19 -93 -98.5 -156t-176.5 -63q-82 0 -135 49t-53 123q0 26 5 47l59 278q-51 0 -51 40q0 23 17 41.5t61 18.5h130q28 0 42 -7t14 -32q0 -24 -17.5 -42.5t-60.5 -18.5h-35l-61 -287q-2 -14 -2 -20q0 -39 30.5 -64.5t77.5 -25.5q53 0 97.5 32t54.5 78
l61 287h-35q-31 0 -43.5 9t-12.5 31q0 23 17 41.5t61 18.5h129z" />
    <glyph glyph-name="utilde" unicode="&#x169;" 
d="M471 587q17 0 44 24t44 24q12 0 20 -7.5t8 -16.5q0 -22 -41.5 -57.5t-83.5 -35.5q-28 0 -77 24t-64 24q-21 0 -47 -22.5t-42 -22.5q-11 0 -18.5 7t-7.5 18q0 23 39.5 56t85.5 33q28 0 76.5 -24t63.5 -24zM390 377q0 24 18 42t60 18h135l-72 -337q52 0 52 -39
q0 -24 -18.5 -42.5t-60.5 -18.5h-94l10 48q-45 -35 -76.5 -48t-73.5 -13q-66 0 -106.5 34t-40.5 89q0 19 5 46l38 182h-16q-30 0 -43 9t-13 31q0 24 18 41.5t60 17.5h116l-59 -278q-3 -12 -3 -23q0 -49 75 -49q37 0 66 13.5t76 54.5l39 183h-35q-31 0 -44 9t-13 30z" />
    <glyph glyph-name="Umacron" unicode="&#x16a;" 
d="M335 737h244q25 0 35 -7.5t10 -25.5q0 -20 -17.5 -33.5t-44.5 -13.5h-244q-25 0 -35 7t-10 26q0 21 17 34t45 13zM648 583q28 0 42.5 -7.5t14.5 -31.5q0 -26 -19.5 -43.5t-53.5 -17.5l-59 -278q-19 -93 -98.5 -156t-176.5 -63q-82 0 -135 49t-53 123q0 26 5 47l59 278
q-51 0 -51 40q0 23 17 41.5t61 18.5h130q28 0 42 -7t14 -32q0 -24 -17.5 -42.5t-60.5 -18.5h-35l-61 -287q-2 -14 -2 -20q0 -39 30.5 -64.5t77.5 -25.5q53 0 97.5 32t54.5 78l61 287h-35q-31 0 -43.5 9t-12.5 31q0 23 17 41.5t61 18.5h129z" />
    <glyph glyph-name="umacron" unicode="&#x16b;" 
d="M298 590h244q25 0 35 -7.5t10 -25.5q0 -20 -17.5 -33.5t-44.5 -13.5h-244q-25 0 -35 7t-10 26q0 21 17 34t45 13zM390 377q0 24 18 42t60 18h135l-72 -337q52 0 52 -39q0 -24 -18.5 -42.5t-60.5 -18.5h-94l10 48q-45 -35 -76.5 -48t-73.5 -13q-66 0 -106.5 34t-40.5 89
q0 19 5 46l38 182h-16q-30 0 -43 9t-13 31q0 24 18 41.5t60 17.5h116l-59 -278q-3 -12 -3 -23q0 -49 75 -49q37 0 66 13.5t76 54.5l39 183h-35q-31 0 -44 9t-13 30z" />
    <glyph glyph-name="Ubreve" unicode="&#x16c;" 
d="M308 800q15 0 21 -6.5t7 -25.5q2 -19 30.5 -36t67.5 -17t73 17t43 36q10 20 17.5 26t22.5 6q29 0 29 -25q0 -45 -62 -86.5t-135 -41.5q-63 0 -109 33t-46 76q0 44 41 44zM648 583q28 0 42.5 -7.5t14.5 -31.5q0 -26 -19.5 -43.5t-53.5 -17.5l-59 -278q-19 -93 -98.5 -156
t-176.5 -63q-82 0 -135 49t-53 123q0 26 5 47l59 278q-51 0 -51 40q0 23 17 41.5t61 18.5h130q28 0 42 -7t14 -32q0 -24 -17.5 -42.5t-60.5 -18.5h-35l-61 -287q-2 -14 -2 -20q0 -39 30.5 -64.5t77.5 -25.5q53 0 97.5 32t54.5 78l61 287h-35q-31 0 -43.5 9t-12.5 31
q0 23 17 41.5t61 18.5h129z" />
    <glyph glyph-name="ubreve" unicode="&#x16d;" 
d="M271 663q15 0 21 -6.5t7 -25.5q2 -19 30.5 -36t67.5 -17t73 17t43 36q10 20 17.5 26t22.5 6q29 0 29 -25q0 -45 -62 -86.5t-135 -41.5q-63 0 -109 33t-46 76q0 44 41 44zM390 377q0 24 18 42t60 18h135l-72 -337q52 0 52 -39q0 -24 -18.5 -42.5t-60.5 -18.5h-94l10 48
q-45 -35 -76.5 -48t-73.5 -13q-66 0 -106.5 34t-40.5 89q0 19 5 46l38 182h-16q-30 0 -43 9t-13 31q0 24 18 41.5t60 17.5h116l-59 -278q-3 -12 -3 -23q0 -49 75 -49q37 0 66 13.5t76 54.5l39 183h-35q-31 0 -44 9t-13 30z" />
    <glyph glyph-name="Uring" unicode="&#x16e;" 
d="M457 800q35 0 57 -21t22 -54q0 -44 -35 -75t-76 -31q-34 0 -56 22t-22 54q0 43 34.5 74t75.5 31zM446 738q-13 0 -24 -9.5t-11 -23.5q0 -10 7 -17t18 -7q13 0 24.5 9.5t11.5 23.5q0 10 -7.5 17t-18.5 7zM648 583q28 0 42.5 -7.5t14.5 -31.5q0 -26 -19.5 -43.5
t-53.5 -17.5l-59 -278q-19 -93 -98.5 -156t-176.5 -63q-82 0 -135 49t-53 123q0 26 5 47l59 278q-51 0 -51 40q0 23 17 41.5t61 18.5h130q28 0 42 -7t14 -32q0 -24 -17.5 -42.5t-60.5 -18.5h-35l-61 -287q-2 -14 -2 -20q0 -39 30.5 -64.5t77.5 -25.5q53 0 97.5 32t54.5 78
l61 287h-35q-31 0 -43.5 9t-12.5 31q0 23 17 41.5t61 18.5h129z" />
    <glyph glyph-name="uring" unicode="&#x16f;" 
d="M419 701q35 0 57 -21t22 -54q0 -44 -35 -75t-76 -31q-34 0 -56 22t-22 54q0 43 34.5 74t75.5 31zM408 639q-13 0 -24 -9.5t-11 -23.5q0 -10 7 -17t18 -7q13 0 24.5 9.5t11.5 23.5q0 10 -7.5 17t-18.5 7zM390 377q0 24 18 42t60 18h135l-72 -337q52 0 52 -39
q0 -24 -18.5 -42.5t-60.5 -18.5h-94l10 48q-45 -35 -76.5 -48t-73.5 -13q-66 0 -106.5 34t-40.5 89q0 19 5 46l38 182h-16q-30 0 -43 9t-13 31q0 24 18 41.5t60 17.5h116l-59 -278q-3 -12 -3 -23q0 -49 75 -49q37 0 66 13.5t76 54.5l39 183h-35q-31 0 -44 9t-13 30z" />
    <glyph glyph-name="Uhungarumlaut" unicode="&#x170;" 
d="M655 728l-99 -76q-20 -16 -30 -16q-15 0 -25 10.5t-10 28.5q0 10 29 34l99 75q22 16 34 16q31 0 31 -37q0 -12 -29 -35zM479 728l-99 -76q-20 -16 -30 -16q-15 0 -25 10.5t-10 28.5q0 10 29 34l99 75q22 16 34 16q31 0 31 -37q0 -12 -29 -35zM648 583q28 0 42.5 -7.5
t14.5 -31.5q0 -26 -19.5 -43.5t-53.5 -17.5l-59 -278q-19 -93 -98.5 -156t-176.5 -63q-82 0 -135 49t-53 123q0 26 5 47l59 278q-51 0 -51 40q0 23 17 41.5t61 18.5h130q28 0 42 -7t14 -32q0 -24 -17.5 -42.5t-60.5 -18.5h-35l-61 -287q-2 -14 -2 -20q0 -39 30.5 -64.5
t77.5 -25.5q53 0 97.5 32t54.5 78l61 287h-35q-31 0 -43.5 9t-12.5 31q0 23 17 41.5t61 18.5h129z" />
    <glyph glyph-name="uhungarumlaut" unicode="&#x171;" 
d="M579 592l-99 -76q-20 -16 -30 -16q-15 0 -25 10.5t-10 28.5q0 10 29 34l99 75q22 16 34 16q31 0 31 -37q0 -12 -29 -35zM403 592l-99 -76q-20 -16 -30 -16q-15 0 -25 10.5t-10 28.5q0 10 29 34l99 75q22 16 34 16q31 0 31 -37q0 -12 -29 -35zM390 377q0 24 18 42t60 18
h135l-72 -337q52 0 52 -39q0 -24 -18.5 -42.5t-60.5 -18.5h-94l10 48q-45 -35 -76.5 -48t-73.5 -13q-66 0 -106.5 34t-40.5 89q0 19 5 46l38 182h-16q-30 0 -43 9t-13 31q0 24 18 41.5t60 17.5h116l-59 -278q-3 -12 -3 -23q0 -49 75 -49q37 0 66 13.5t76 54.5l39 183h-35
q-31 0 -44 9t-13 30z" />
    <glyph glyph-name="Uogonek" unicode="&#x172;" 
d="M648 583q28 0 42.5 -7.5t14.5 -31.5q0 -26 -19.5 -43.5t-53.5 -17.5l-59 -278q-16 -60 -42 -97.5t-90 -93.5q-70 -62 -87.5 -81t-17.5 -39q0 -16 17 -16q15 0 40 11t36 11q14 0 22.5 -9t8.5 -23q0 -22 -25 -38.5t-53 -23t-51 -6.5q-36 0 -56.5 19.5t-20.5 53.5
q0 56 59 96l38 22q-27 -5 -53 -5q-82 0 -135 49t-53 123q0 26 5 47l59 278q-51 0 -51 40q0 23 17 41.5t61 18.5h130q28 0 42 -7t14 -32q0 -24 -17.5 -42.5t-60.5 -18.5h-35l-61 -287q-2 -14 -2 -20q0 -39 30.5 -64.5t77.5 -25.5q53 0 97.5 32t54.5 78l61 287h-35
q-31 0 -43.5 9t-12.5 31q0 23 17 41.5t61 18.5h129z" />
    <glyph glyph-name="uogonek" unicode="&#x173;" 
d="M442 -124q16 0 42.5 12t37.5 12q14 0 22.5 -8.5t8.5 -21.5q0 -18 -15 -32.5t-37.5 -22t-44 -11.5t-37.5 -4q-36 0 -56.5 17.5t-20.5 48.5q0 15 4 29.5t9 25t14.5 21.5t16.5 17.5t18.5 14.5t17 11t16 8.5t11.5 6.5h-39l10 48q-45 -35 -76.5 -48t-73.5 -13q-66 0 -106.5 34
t-40.5 89q0 19 5 46l38 182h-16q-30 0 -43 9t-13 31q0 24 18 41.5t60 17.5h116l-59 -278q-3 -12 -3 -23q0 -49 75 -49q37 0 66 13.5t76 54.5l39 183h-35q-31 0 -44 9t-13 30q0 24 18 42t60 18h135l-72 -337q52 0 52 -39q0 -22 -25 -45t-55 -39.5t-55 -40t-25 -45.5
q0 -15 19 -15z" />
    <glyph glyph-name="Wcircumflex" unicode="&#x174;" 
d="M436 711l-124 -62q-26 -13 -30 -13q-13 0 -21.5 9t-8.5 21q0 11 6.5 20t10 11.5t14.5 8.5l169 94l142 -101q10 -10 10 -22q0 -16 -13 -28.5t-27 -12.5q-7 0 -27 13zM668 583q28 0 42.5 -7.5t14.5 -31.5q0 -23 -16 -39.5t-42 -21.5l-163 -483h-110l-35 277l-150 -277h-111
l41 483q-37 4 -37 36q0 25 17 44.5t61 19.5h132q19 0 29.5 -2t19 -11.5t8.5 -26.5q0 -23 -18.5 -41.5t-60.5 -18.5h-48l-21 -272l124 226h103l28 -226l94 272h-54q-31 0 -43.5 9t-12.5 31q0 23 17 41.5t61 18.5h130z" />
    <glyph glyph-name="wcircumflex" unicode="&#x175;" 
d="M405 585l-124 -62q-26 -13 -30 -13q-13 0 -21.5 9t-8.5 21q0 11 6.5 20t10 11.5t14.5 8.5l169 94l142 -101q10 -10 10 -22q0 -16 -13 -28.5t-27 -12.5q-7 0 -27 13zM627 437q19 0 29.5 -2t19 -11.5t8.5 -26.5q0 -9 -4 -20t-19.5 -24t-40.5 -15l-155 -338h-92l-33 181
l-106 -181h-94l-13 338q-45 2 -45 39q0 24 18 42t60 18h92q28 0 42 -7.5t14 -31.5t-17 -42t-58 -18l6 -153l93 158h89l27 -158l73 153h-7q-28 0 -42.5 8t-14.5 31t18 41.5t60 18.5h92z" />
    <glyph glyph-name="Ycircumflex" unicode="&#x176;" 
d="M437 711l-124 -62q-26 -13 -30 -13q-13 0 -21.5 9t-8.5 21q0 11 6.5 20t10 11.5t14.5 8.5l169 94l142 -101q10 -10 10 -22q0 -16 -13 -28.5t-27 -12.5q-7 0 -27 13zM694 544q0 -22 -17.5 -41.5t-56.5 -19.5h-3l-215 -238l-30 -145h65q28 0 42.5 -8t14.5 -31t-18 -42
t-60 -19h-231q-31 0 -44 9.5t-13 30.5q0 24 17.5 42t60.5 18h66l30 145l-114 238h-6q-48 0 -48 40q0 24 18 42t60 18h90q28 0 42 -7.5t14 -31.5q0 -41 -50 -61l66 -135l123 135q-30 12 -30 40q0 24 18 42t60 18h93q28 0 42 -7.5t14 -31.5z" />
    <glyph glyph-name="ycircumflex" unicode="&#x177;" 
d="M404 585l-124 -62q-26 -13 -30 -13q-13 0 -21.5 9t-8.5 21q0 11 6.5 20t10 11.5t14.5 8.5l169 94l142 -101q10 -10 10 -22q0 -16 -13 -28.5t-27 -12.5q-7 0 -27 13zM-12 -160q0 23 18 41.5t60 18.5h100l77 103l-101 334q-40 6 -40 40q0 23 18 41.5t60 18.5h90
q28 0 42 -7.5t14 -31.5q0 -27 -19.5 -43.5t-51.5 -17.5l68 -223l166 223h-5q-49 0 -49 40q0 23 18 41.5t60 18.5h92q19 0 29.5 -2t19 -11.5t8.5 -26.5q0 -24 -17.5 -40.5t-45.5 -19.5l-324 -437h5q28 0 42.5 -8t14.5 -31q0 -24 -18 -42.5t-60 -18.5h-214q-31 0 -44 9t-13 31
z" />
    <glyph glyph-name="Ydieresis" unicode="&#x178;" 
d="M362 777q22 0 35.5 -13.5t13.5 -34.5q0 -28 -23 -50t-52 -22q-20 0 -34 14t-14 34q0 27 23 49.5t51 22.5zM570 777q22 0 35.5 -13.5t13.5 -34.5q0 -28 -23 -50t-52 -22q-20 0 -34 14t-14 34q0 27 23 49.5t51 22.5zM694 544q0 -22 -17.5 -41.5t-56.5 -19.5h-3l-215 -238
l-30 -145h65q28 0 42.5 -8t14.5 -31t-18 -42t-60 -19h-231q-31 0 -44 9.5t-13 30.5q0 24 17.5 42t60.5 18h66l30 145l-114 238h-6q-48 0 -48 40q0 24 18 42t60 18h90q28 0 42 -7.5t14 -31.5q0 -41 -50 -61l66 -135l123 135q-30 12 -30 40q0 24 18 42t60 18h93q28 0 42 -7.5
t14 -31.5z" />
    <glyph glyph-name="Zacute" unicode="&#x179;" 
d="M520 728l-99 -76q-20 -16 -30 -16q-15 0 -25 10.5t-10 28.5q0 10 29 34l99 75q22 16 34 16q31 0 31 -37q0 -12 -29 -35zM222 100h226l16 72q13 66 64 66q17 0 28.5 -11t11.5 -27q0 -9 -4 -28l-37 -172h-454l21 100l383 383h-178l-15 -70q-15 -66 -65 -66q-16 0 -28 11
t-12 26q0 5 5 29l36 170h408l-21 -97z" />
    <glyph glyph-name="zacute" unicode="&#x17a;" 
d="M508 590l-99 -76q-20 -16 -30 -16q-15 0 -25 10.5t-10 28.5q0 10 29 34l99 75q22 16 34 16q31 0 31 -37q0 -12 -29 -35zM269 337l-2 -9q-2 -9 -3.5 -13.5t-5 -13.5t-8 -14.5t-11 -12t-16 -9.5t-20.5 -3q-17 0 -28.5 10.5t-11.5 26.5q0 11 4 29l23 109h409l-17 -81
l-317 -256h176q15 54 61 54q17 0 28.5 -10.5t11.5 -26.5q0 -9 -4 -29l-19 -88h-434l18 83l314 254h-148z" />
    <glyph glyph-name="Zdotaccent" unicode="&#x17b;" 
d="M465 777q22 0 35.5 -13.5t13.5 -34.5q0 -28 -23 -50t-52 -22q-20 0 -34 14t-14 34q0 28 22.5 50t51.5 22zM222 100h226l16 72q13 66 64 66q17 0 28.5 -11t11.5 -27q0 -9 -4 -28l-37 -172h-454l21 100l383 383h-178l-15 -70q-15 -66 -65 -66q-16 0 -28 11t-12 26q0 5 5 29
l36 170h408l-21 -97z" />
    <glyph glyph-name="zdotaccent" unicode="&#x17c;" 
d="M435 630q22 0 35.5 -13.5t13.5 -34.5q0 -28 -23 -50t-52 -22q-20 0 -34 14t-14 34q0 28 22.5 50t51.5 22zM269 337l-2 -9q-2 -9 -3.5 -13.5t-5 -13.5t-8 -14.5t-11 -12t-16 -9.5t-20.5 -3q-17 0 -28.5 10.5t-11.5 26.5q0 11 4 29l23 109h409l-17 -81l-317 -256h176
q15 54 61 54q17 0 28.5 -10.5t11.5 -26.5q0 -9 -4 -29l-19 -88h-434l18 83l314 254h-148z" />
    <glyph glyph-name="Zcaron" unicode="&#x17d;" 
d="M457 725l124 62q26 13 30 13q13 0 21.5 -9t8.5 -21q0 -11 -6.5 -20t-10 -11.5t-14.5 -8.5l-169 -94l-142 101q-10 10 -10 22q0 16 13 28.5t27 12.5q7 0 27 -13zM222 100h226l16 72q13 66 64 66q17 0 28.5 -11t11.5 -27q0 -9 -4 -28l-37 -172h-454l21 100l383 383h-178
l-15 -70q-15 -66 -65 -66q-16 0 -28 11t-12 26q0 5 5 29l36 170h408l-21 -97z" />
    <glyph glyph-name="zcaron" unicode="&#x17e;" 
d="M427 587l124 62q26 13 30 13q13 0 21.5 -9t8.5 -21q0 -11 -6.5 -20t-10 -11.5t-14.5 -8.5l-169 -94l-142 101q-10 10 -10 22q0 16 13 28.5t27 12.5q7 0 27 -13zM269 337l-2 -9q-2 -9 -3.5 -13.5t-5 -13.5t-8 -14.5t-11 -12t-16 -9.5t-20.5 -3q-17 0 -28.5 10.5
t-11.5 26.5q0 11 4 29l23 109h409l-17 -81l-317 -256h176q15 54 61 54q17 0 28.5 -10.5t11.5 -26.5q0 -9 -4 -29l-19 -88h-434l18 83l314 254h-148z" />
    <glyph glyph-name="longs" unicode="&#x17f;" 
d="M632 509q-6 0 -51 7t-87 7q-85 0 -95 -49q-10 -50 -37.5 -177t-41.5 -197h139q28 0 42.5 -8t14.5 -31t-18 -42t-60 -19h-298q-56 0 -56 40q0 24 18 42t60 18h58l50 237h-46q-32 0 -45 9t-13 31q0 60 79 60h46l8 37q15 69 75.5 109t150.5 40q166 0 166 -53
q0 -23 -18.5 -42t-40.5 -19z" />
    <glyph glyph-name="uni0180" unicode="&#x180;" 
d="M356 86q50 0 88 19.5t56.5 47.5t27 52t8.5 42q0 46 -33 75t-90 29q-53 0 -91.5 -20t-56 -49t-25 -52t-7.5 -40q0 -47 33 -75.5t90 -28.5zM127 559q0 65 79 65h215q57 0 57 -35q0 -65 -78 -65h-99l-27 -123q75 50 161 50q96 0 149.5 -50t53.5 -130q0 -23 -5 -53
q-21 -100 -103.5 -166t-192.5 -66q-80 0 -140 49l-8 -35h-116q-57 0 -57 36q0 64 78 64h16l91 424h-16q-58 0 -58 35z" />
    <glyph glyph-name="uni0181" unicode="&#x181;" 
d="M398 342q61 0 99.5 26t38.5 63q0 52 -88 52h-133l-30 -141h113zM408 100q115 0 115 69q0 33 -34 53t-91 20h-135l-30 -142h175zM40 38q0 62 78 62h15l82 383h-15q-47 0 -47 -11q0 -4 9.5 -16t9.5 -25q0 -26 -21 -44t-44 -18q-21 0 -39 23.5t-18 57.5q0 60 46.5 96.5
t124.5 36.5h253q75 0 119.5 -36.5t44.5 -96.5q0 -84 -90 -145q79 -45 79 -113q0 -15 -5 -36t-21 -49t-40 -51t-68.5 -39.5t-100.5 -16.5h-295q-57 0 -57 38z" />
    <glyph glyph-name="uni0182" unicode="&#x182;" 
d="M570 366q-22 0 -31 13t-9 23q0 13 4 30l10 51h-256l-30 -141h179q83 0 123 -48t40 -107q0 -15 -3 -27q-16 -72 -79.5 -116t-151.5 -44h-295q-57 0 -57 39q0 24 18 42.5t60 18.5h15l81 383h-15q-28 0 -42 7.5t-14 30.5q0 25 18 43.5t60 18.5h471l-32 -151q-13 -66 -64 -66
zM496 163q0 47 -32.5 63t-91.5 16h-135l-30 -142h175q114 0 114 63z" />
    <glyph glyph-name="uni0183" unicode="&#x183;" 
d="M346 86q50 0 88 19.5t56.5 47.5t27 52t8.5 42q0 46 -33 75t-90 29q-53 0 -91.5 -20t-56 -49t-25 -52t-7.5 -40q0 -47 33 -75.5t90 -28.5zM117 559q0 65 79 65h315q57 0 57 -35q0 -65 -78 -65h-199l-27 -123q75 50 161 50q96 0 149.5 -50t53.5 -130q0 -23 -5 -53
q-21 -100 -103.5 -166t-192.5 -66q-80 0 -140 49l-8 -35h-116q-57 0 -57 36q0 64 78 64h16l91 424h-16q-58 0 -58 35z" />
    <glyph glyph-name="uni0184" unicode="&#x184;" 
d="M275 363h122q61 0 105.5 -13t68 -35t34.5 -47t11 -54q0 -82 -70.5 -148t-161.5 -66h-306q-43 0 -43 36q0 18 14.5 36.5t47.5 18.5h29l66 309q-29 -18 -45.5 -18t-26 11.5t-9.5 26.5q0 25 25 43q5 3 13 7l66 40l12 53q4 16 5 16q6 15 19.5 25.5t31.5 10.5q14 0 25 -8.5
t11 -27.5v-6l41 25q20 10 33 10q16 0 26 -10t10 -25q0 -28 -26 -45q-1 -1 -20 -12.5t-45.5 -27.5t-41.5 -25zM523 194q0 33 -32.5 55.5t-110.5 22.5h-124l-39 -181h183q51 0 87 32t36 71z" />
    <glyph glyph-name="uni0185" unicode="&#x185;" 
d="M257 395q78 61 168 61q89 0 144 -49t55 -130q0 -74 -40.5 -141.5t-110.5 -109.5t-148 -42q-90 0 -142 61l-10 -45h-120q-43 0 -43 36q0 18 14.5 36.5t47.5 18.5h29l66 307l-7 -4l-3 -1q-19 -9 -30 -9q-17 0 -26 11.5t-9 26.5q0 31 37 50l61 37l12 54q4 16 5 16
q6 15 19.5 25.5t31.5 10.5q14 0 25 -8.5t11 -27.5v-7l46 28q20 10 34 10q16 0 25.5 -10t9.5 -25q0 -29 -26 -45l-112 -68zM217 190q0 -52 34.5 -83.5t90.5 -31.5q71 0 129.5 52t58.5 127q0 52 -35 81.5t-91 29.5q-81 0 -134 -53t-53 -122z" />
    <glyph glyph-name="uni0186" unicode="&#x186;" 
d="M169 179l-1 -23q0 -28 37.5 -49t86.5 -21q56 0 100 25t68 59.5t39.5 77t20.5 72t5 49.5q0 59 -44.5 93.5t-120.5 34.5q-48 0 -84.5 -11.5t-53 -25t-33 -25t-29.5 -11.5q-17 0 -29 12t-12 29q0 43 77 87.5t187 44.5q111 0 177.5 -57t66.5 -152q0 -27 -6 -54l-14 -66
q-26 -120 -121 -201t-211 -81q-70 0 -144 38q-24 -24 -47 -24q-17 0 -28.5 11t-11.5 27q0 11 4 28l18 84q15 66 64 66q17 0 28 -10.5t11 -26.5z" />
    <glyph glyph-name="uni0187" unicode="&#x187;" 
d="M578 119q0 -42 -79 -87.5t-186 -45.5q-110 0 -177 57.5t-67 150.5q0 26 6 55l14 66q25 120 120.5 201t211.5 81q75 0 137 -35q14 47 49 82t85 35q39 0 64 -22t25 -47q0 -21 -18.5 -40.5t-44.5 -19.5q-19 0 -31.5 14.5t-16.5 14.5q-9 0 -18 -45l-22 -101q-14 -66 -64 -66
q-39 0 -39 63q0 28 -39 47.5t-84 19.5q-76 0 -137 -51.5t-78 -130.5l-13 -64q-4 -17 -4 -37q0 -60 44 -94t122 -34q47 0 83 11.5t52.5 25t33.5 25t30 11.5q18 0 29.5 -11.5t11.5 -28.5z" />
    <glyph glyph-name="uni0188" unicode="&#x188;" 
d="M728 477q0 -21 -18.5 -40.5t-44.5 -19.5q-19 0 -31.5 14.5t-16.5 14.5q-9 0 -18 -45l-20 -94q-15 -66 -64 -66q-21 0 -30.5 9.5t-9.5 22.5t-3 28.5t-13 23.5q-36 25 -101 25q-45 0 -80.5 -14.5t-55.5 -35.5t-33 -46.5t-17 -44.5t-4 -32q0 -93 154 -93q52 0 89.5 9t52 19
t29 19t25.5 9q18 0 29.5 -11.5t11.5 -28.5q0 -32 -32 -56.5t-79 -36.5t-86.5 -17.5t-68.5 -5.5q-123 0 -175 48.5t-52 122.5q0 25 8.5 59t31 76.5t56 77t90.5 58.5t127 24q76 0 125 -23q14 47 49.5 83t85.5 36q39 0 64 -22t25 -47z" />
    <glyph glyph-name="uni0189" unicode="&#x189;" 
d="M23 40q0 21 17.5 40.5t55.5 19.5l30 143h-7q-31 0 -44 9t-13 31q0 23 18 41.5t60 18.5h7l30 140q-51 0 -51 40q0 23 17 41.5t61 18.5h213q92 0 148.5 -59t56.5 -155q0 -155 -93.5 -262t-243.5 -107h-205q-31 0 -44 9.5t-13 30.5zM378 304q0 -24 -18 -42.5t-60 -18.5h-74
l-30 -143h110q165 0 200 161l10 46q4 19 4 43q0 52 -30.5 92.5t-102.5 40.5h-110l-30 -140h74q29 0 43 -7.5t14 -31.5z" />
    <glyph glyph-name="uni018A" unicode="&#x18a;" 
d="M543 307q5 19 5 44q0 59 -35 95.5t-98 36.5h-110l-82 -383h111q163 0 200 161zM160 431q0 -27 -20.5 -44.5t-44.5 -17.5q-21 0 -39 23.5t-18 57.5q0 58 49.5 95.5t121.5 37.5h235q93 0 149.5 -59.5t56.5 -152.5q0 -34 -7 -66l-10 -47q-25 -117 -112.5 -187.5
t-208.5 -70.5h-204q-58 0 -58 37q0 28 20 45.5t53 17.5l82 383q-64 0 -64 -9q0 -5 9.5 -18t9.5 -25z" />
    <glyph glyph-name="uni018B" unicode="&#x18b;" 
d="M608 483h-15l-81 -383h15q57 0 57 -37q0 -25 -18 -44t-61 -19h-295q-77 0 -121.5 34.5t-44.5 92.5q0 73 70 144t170 71h179l30 141h-256l-11 -51q-15 -66 -64 -66q-40 0 -40 40q0 6 4 26l32 151h471q57 0 57 -37q0 -63 -78 -63zM144 140q0 -40 93 -40h175l30 142h-135
q-87 0 -125 -32t-38 -70z" />
    <glyph glyph-name="uni018C" unicode="&#x18c;" 
d="M235 86q43 0 77 14t52.5 33.5t31 43.5t16.5 41t4 29q0 48 -33 76t-92 28q-51 0 -89 -19.5t-56 -48t-26 -52t-8 -40.5q0 -47 33 -76t90 -29zM560 64q0 -64 -78 -64h-116l8 35q-83 -49 -162 -49q-96 0 -149.5 50.5t-53.5 130.5q0 25 6 52q21 99 102.5 165.5t194.5 66.5
q88 0 139 -50l27 123h-230q-57 0 -57 36q0 64 78 64h330l-112 -524h16q57 0 57 -36z" />
    <glyph glyph-name="uni018D" unicode="&#x18d;" 
d="M302 354q-51 0 -89.5 -18.5t-57 -45.5t-27.5 -50t-9 -39q0 -49 37.5 -81t96.5 -32q52 0 91 18.5t58 45.5t27.5 50t8.5 40q0 48 -38 80t-98 32zM472 -30q0 -74 -62 -122t-154 -48q-26 0 -59.5 4.5t-53 8.5t-58 13t-45.5 11q-13 -31 -39 -31q-37 0 -37 41q0 16 2 25l7 37
q10 66 61 66q18 0 27.5 -10t17.5 -30q5 -1 39 -9.5t52.5 -12.5t49 -8.5t54.5 -4.5q97 0 97 51q0 33 -104 37h-33q-95 0 -156 55.5t-61 139.5q0 61 36 122.5t107.5 105t159.5 43.5q96 0 158 -55.5t62 -139.5q0 -58 -29 -112.5t-81 -93.5q42 -31 42 -83z" />
    <glyph glyph-name="uni018E" unicode="&#x18e;" 
d="M351 241q-2 -13 -6 -27t-19.5 -30.5t-39.5 -16.5q-17 0 -28.5 11t-11.5 27q0 9 4 29l25 113q14 66 63 66q17 0 28.5 -10.5t11.5 -26.5t-6 -36h85l30 143h-255l-12 -52q-13 -67 -63 -67q-17 0 -29 10.5t-12 26.5q0 12 4 30l33 152h470q57 0 57 -40q0 -24 -17.5 -42
t-60.5 -18h-15l-81 -383h15q31 0 44 -9t13 -31q0 -23 -17 -41.5t-62 -18.5h-448l32 150q13 67 64 67q17 0 28.5 -11t11.5 -27t-15 -79h234l30 141h-85z" />
    <glyph glyph-name="uni018f" unicode="&#x18f;" 
d="M80 259l18 83h443q3 16 3 31q0 63 -45 100t-116 37q-46 0 -86 -19t-86 -62q-20 -19 -41 -19q-17 0 -27 9.5t-10 24.5q0 5 2 10q1 7 6 15q10 16 33.5 37t57.5 43t80 37t91 15q99 0 166.5 -58.5t67.5 -150.5q0 -24 -5 -50l-18 -83q-5 -24 -18.5 -55.5t-41 -71.5t-63 -72
t-89 -54.5t-114.5 -22.5q-49 0 -88 15.5t-62 39t-37.5 55.5t-19.5 60.5t-5 57.5q0 27 4 48zM521 252l-351 -1q-2 -15 -2 -29q0 -64 39 -106t101 -42q69 0 131 51.5t82 126.5z" />
    <glyph glyph-name="uni0190" unicode="&#x190;" 
d="M404 497q-36 0 -63.5 -10.5t-41 -26t-20 -29t-6.5 -22.5q0 -30 31.5 -49t90.5 -19h42q56 0 56 -37q0 -64 -78 -64h-59q-70 0 -114.5 -25.5t-44.5 -62.5q0 -29 33 -47.5t84 -18.5q50 0 95 19t58 46q16 36 39 44q10 4 22 4q40 0 40 -37q0 -14 -4 -29l-14 -66
q-13 -66 -65 -66q-12 0 -18.5 4.5t-16.5 19.5q-81 -39 -164 -39q-90 0 -143 38t-53 102q0 42 24 89.5t86 82.5q-34 23 -34 81q0 22 4 41q17 76 89.5 126.5t165.5 50.5q78 0 123 -33q20 33 46 33q39 0 39 -35q0 -9 -4 -31l-19 -88q-13 -67 -63 -67q-41 0 -41 37q0 7 2 17
q1 3 1 8q0 25 -30.5 42t-74.5 17z" />
    <glyph glyph-name="uni0191" unicode="&#x191;" 
d="M353 342q8 38 22.5 55.5t42.5 17.5q39 0 39 -38q0 -15 -4 -28l-24 -113q-13 -67 -63 -67q-39 0 -39 39q0 18 5 35h-85l-38 -177q-17 -80 -79 -134.5t-136 -54.5q-52 0 -81 14t-29 40q0 24 20 42t40 18q4 0 25.5 -7t42.5 -7q35 0 62 24.5t35 64.5l89 417h-15q-57 0 -57 36
q0 64 78 64h471l-32 -151q-15 -66 -64 -66q-39 0 -39 39q0 13 3 27l11 51h-256l-30 -141h85z" />
    <glyph glyph-name="florin" unicode="&#x192;" 
d="M657 586q0 -21 -17.5 -41.5t-42.5 -20.5q-10 0 -28 7t-42 7q-30 0 -56.5 -24t-34.5 -58l-11 -52h57q58 0 58 -35q0 -65 -79 -65h-57l-51 -238q-16 -80 -78.5 -134.5t-136.5 -54.5q-109 0 -109 54q0 24 19.5 42t39.5 18q4 0 25.5 -7t42.5 -7q35 0 62 24.5t35 64.5l51 238
h-57q-58 0 -58 36q0 64 79 64h57l12 55q16 74 78 126.5t134 52.5q108 0 108 -52z" />
    <glyph glyph-name="uni0193" unicode="&#x193;" 
d="M321 217q0 63 78 63h175q58 0 58 -36q0 -49 -54 -64l-28 -132q-75 -35 -124.5 -48.5t-107.5 -13.5q-70 0 -121 16.5t-78 46t-39 62.5t-12 72q0 28 7 63l15 71q25 117 122 198.5t222 81.5q75 0 129 -27q16 44 49.5 75t79.5 31q39 0 64.5 -22t25.5 -47q0 -20 -19 -40
t-44 -20q-19 0 -31.5 14.5t-16.5 14.5q-9 0 -18 -45l-17 -78q-7 -32 -21 -49t-43 -17q-38 0 -38 53q0 26 -33 41.5t-88 15.5q-84 0 -145 -49.5t-78 -130.5l-14 -64q-5 -28 -5 -49q0 -118 162 -118q70 0 130 25l15 69h-100q-57 0 -57 37z" />
    <glyph glyph-name="uni0194" unicode="&#x194;" 
d="M191 497h-10q-44 0 -44 36q0 5 1 10q1 0 2.5 4.5t2.5 7t3.5 7t5.5 7.5t7.5 7t10.5 6.5t13.5 4t16.5 1.5h111q15 -1 16 -2q28 -6 28 -33q0 -5 -2 -10q-3 -16 -16 -29.5t-37 -16.5l76 -138l133 138q-8 1 -10 2q-29 6 -29 34q0 5 1 10l2 5t3 7l3.5 7t5.5 7.5t7.5 6.5t11 6.5
t13.5 3.5q8 2 17 2h110q15 -2 16 -2q27 -7 27 -33q0 -5 -1 -10l-1 -3.5t-2 -6t-3.5 -7t-6 -8l-7.5 -7.5t-10.5 -7t-14.5 -5t-16 -2h-11l-200 -215l5 -9t6.5 -11t6 -11t6.5 -13.5t6 -13t5.5 -15t3.5 -15t3 -17t1 -16.5q0 -15 -3 -30q-15 -70 -58.5 -111.5t-100.5 -41.5
q-46 0 -72 30.5t-26 79.5q0 21 5 43q3 14 8 27.5t10 23.5t13.5 22t14 19t16 18t14.5 14.5t15 14t13 11.5zM343 202l-14 -14l-13 -13t-9.5 -11.5t-8.5 -14.5t-5 -16v-2q-3 -16 -3 -27q0 -17 6 -27q4 -6 12 -7q2 -1 7 -1h1q5 0 10 1q8 3 15 10q15 16 22 51q1 6 1 11
q0 8 -2.5 16.5t-4 12.5t-7.5 16t-7 15z" />
    <glyph glyph-name="uni0195" unicode="&#x195;" 
d="M58 559q0 65 79 65h116l-43 -203q31 29 79 29q65 0 98 -31t33 -87q0 -22 -6 -48l-26 -125q-3 -13 -3 -24q0 -48 50 -48q61 0 77 72l38 178h-27q-21 0 -33.5 10.5t-12.5 28.5q0 61 78 61h116l-60 -281q-11 -51 -34 -86.5t-53 -52.5t-56.5 -23.5t-54.5 -6.5q-24 0 -45 5
t-41.5 16.5t-33 36t-12.5 58.5q0 23 6 53l25 115q4 24 4 33q0 46 -60 46q-38 0 -69 -35l-46 -215h6q58 0 58 -36q0 -64 -79 -64h-112q-57 0 -57 37q0 25 17 44t61 19h6l90 424h-16q-57 0 -57 35z" />
    <glyph glyph-name="uni0196" unicode="&#x196;" 
d="M196 520q0 63 80 63h178l-87 -410q-3 -13 -3 -25q0 -29 16.5 -46.5t45.5 -17.5q22 0 46 7t28 7q16 0 27 -11.5t11 -28.5q0 -28 -33.5 -51t-103.5 -23q-62 0 -100.5 40t-38.5 104q0 25 5 45l65 310h-78q-58 0 -58 37z" />
    <glyph glyph-name="uni0197" unicode="&#x197;" 
d="M140 270q0 64 78 64h101l32 149h-101q-57 0 -57 36q0 64 78 64h302q57 0 57 -35q0 -65 -78 -65h-101l-32 -149h101q57 0 57 -35q0 -65 -78 -65h-101l-29 -134h101q57 0 57 -35q0 -27 -17.5 -46t-60.5 -19h-302q-57 0 -57 39q0 61 78 61h101l29 134h-101q-57 0 -57 36z
" />
    <glyph glyph-name="uni0198" unicode="&#x198;" 
d="M385 331q38 -23 58.5 -45t39 -68t33.5 -126h39q43 -4 43 -35q0 -19 -15.5 -37.5t-47.5 -18.5h-104l-3 17q-13 91 -31 141t-39 70t-60 36l-73 -55l-25 -118h50q43 -4 43 -35q0 -19 -15.5 -37.5t-47.5 -18.5h-170q-43 0 -43 36q0 19 15.5 37t47.5 18h29l86 405h-29
q-44 0 -44 36q0 19 15.5 37t47.5 18h170h3t5 -0.5t5.5 -1t6.5 -1.5t7 -3t6.5 -4.5t5 -6t4 -8t1.5 -10.5q0 -19 -16 -37.5t-47 -18.5h-50l-36 -168l228 170q-27 7 -27 34q0 17 15 36t49 19h118q39 0 69 -26t30 -68q0 -57 -46.5 -101t-101.5 -44q-16 0 -26 10t-10 26
q0 21 17 38t39 17q2 0 6 1q8 2 18.5 10t10.5 20q0 10 -8.5 18t-16.5 8h-7z" />
    <glyph glyph-name="uni0199" unicode="&#x199;" 
d="M34 37q0 63 78 63h16l77 359q16 74 78 126.5t134 52.5q51 0 79.5 -13.5t28.5 -38.5q0 -21 -17.5 -41.5t-42.5 -20.5q-10 0 -28 7t-42 7q-30 0 -56.5 -24t-34.5 -58l-36 -169l93 63q-10 14 -10 26q0 24 17 42.5t62 18.5h112q57 0 57 -35q0 -26 -17 -45.5t-61 -19.5h-28
l-139 -96l130 -141h33q58 0 58 -36q0 -64 -79 -64h-118q-57 0 -57 37q0 27 26 50l-84 91l-21 -14l-35 -164h-116q-57 0 -57 37z" />
    <glyph glyph-name="uni019A" unicode="&#x19a;" 
d="M135 270q0 64 79 64h101l40 190h-78q-58 0 -58 36q0 64 79 64h178l-61 -290h101q57 0 57 -35q0 -65 -79 -65h-101l-28 -134h122q57 0 57 -36q0 -25 -17 -44.5t-61 -19.5h-344q-57 0 -57 38q0 62 78 62h122l28 134h-101q-57 0 -57 36z" />
    <glyph glyph-name="uni019B" unicode="&#x19b;" 
d="M249 62q0 -62 -78 -62h-90q-57 0 -57 38q0 10 3.5 21t18.5 24.5t39 16.5l242 332l-95 -45q-15 -5 -25 -5q-17 0 -29 11t-12 29q0 36 38 54l98 46l-1 2h-100q-57 0 -57 36q0 26 19 45t49 19h107q63 0 80 -56l91 42q12 6 25 6q17 0 28.5 -11t11.5 -29q0 -36 -37 -54
l-93 -44l117 -378q43 -5 43 -38q0 -62 -78 -62h-92q-58 0 -58 39q0 27 21 44t55 17l-73 223l-161 -223q50 -2 50 -38z" />
    <glyph glyph-name="uni019C" unicode="&#x19c;" 
d="M503 521q0 24 17 43t61 19h88q58 0 58 -37q0 -28 -19.5 -45.5t-52.5 -17.5l-81 -383q50 -2 50 -38q0 -24 -18 -43t-61 -19h-93l6 24q-54 -37 -93 -37q-58 0 -92 49q-55 -49 -114 -49q-48 0 -77.5 28t-29.5 73q0 17 4 30l77 365q-51 0 -51 38q0 24 18 43t60 19h94
l-97 -457q-2 -14 -2 -17q0 -22 29 -22q20 0 37.5 9t47.5 36l75 351q-51 0 -51 38q0 24 17 43t61 19h94l-97 -457q-2 -12 -2 -16q0 -23 29 -23q36 0 85 45l75 351q-52 0 -52 38z" />
    <glyph glyph-name="uni019D" unicode="&#x19d;" 
d="M443 519q0 64 78 64h130q57 0 57 -36q0 -24 -17 -44t-56 -20l-103 -483h-99l-175 394l-70 -328q-17 -80 -79 -134.5t-136 -54.5q-52 0 -81 14t-29 40q0 24 20 42t40 18q4 0 25.5 -7t42.5 -7q35 0 62 24.5t35 64.5l89 417h-15q-57 0 -57 36q0 64 78 64h115l175 -392
l62 292h-35q-57 0 -57 36z" />
    <glyph glyph-name="uni019E" unicode="&#x19e;" 
d="M56 37q0 25 17 44t61 19h6l51 237q-52 2 -52 38q0 24 18.5 43t60.5 19h94l-10 -48q43 34 76 47.5t74 13.5q67 0 107 -32.5t40 -93.5q0 -17 -5 -42l-81 -382q51 0 51 -38q0 -62 -78 -62h-89q-57 0 -57 37q0 29 19.5 46t53.5 17l80 378q2 8 2 21q0 51 -77 51
q-35 0 -65.5 -15t-73.5 -53l-39 -182h6q57 0 57 -36q0 -64 -78 -64h-112q-57 0 -57 37z" />
    <glyph glyph-name="uni019F" unicode="&#x19f;" 
d="M74 222q0 104 56 192.5t136.5 135.5t158.5 47q19 0 43.5 -5t57 -20.5t58.5 -39t44.5 -66t18.5 -96.5q0 -108 -56 -198.5t-136.5 -138t-159.5 -47.5q-98 0 -159.5 67t-61.5 169zM544 329v9q0 70 -39 114.5t-101 44.5q-65 0 -125.5 -48t-86.5 -120h352zM518 229h-341
q4 -63 42 -103t97 -40q58 0 114 40t88 103z" />
    <glyph glyph-name="Ohorn" unicode="&#x1a0;" 
d="M289 86q79 0 153.5 74.5t74.5 178.5q0 69 -39 113.5t-101 44.5q-79 0 -153.5 -74.5t-74.5 -178.5q0 -68 39 -113t101 -45zM572 602q0 26 20.5 44t43.5 18q21 0 39 -23.5t18 -57.5q0 -27 -10.5 -49.5t-26.5 -37t-29 -22.5t-25 -12q18 -42 18 -95q0 -82 -33.5 -155
t-85.5 -121.5t-113.5 -76.5t-119.5 -28q-98 0 -160 67t-62 169q0 104 56.5 192.5t136.5 135.5t159 47t138 -47q55 0 55 11q0 4 -9.5 16t-9.5 25z" />
    <glyph glyph-name="ohorn" unicode="&#x1a1;" 
d="M264 84q42 0 76.5 13t54.5 32t34 42t19 40.5t5 29.5q0 48 -36.5 78.5t-93.5 30.5q-43 0 -78 -13t-55.5 -32t-34 -42t-18.5 -40.5t-5 -30.5q0 -47 36.5 -77.5t95.5 -30.5zM519 458q0 26 20.5 44t43.5 18q21 0 39 -23.5t18 -57.5q0 -27 -10.5 -50t-27.5 -37t-29.5 -22
t-25.5 -13q8 -27 8 -56q0 -47 -23.5 -96t-63 -89.5t-99.5 -66t-126 -25.5q-94 0 -153.5 53t-59.5 135q0 25 5 45q21 99 110 166t200 67q83 0 140 -44q53 0 53 11q0 4 -9.5 15.5t-9.5 25.5z" />
    <glyph glyph-name="uni01A2" unicode="&#x1a2;" 
d="M107 325l-15 -68q-6 -33 -6 -61q0 -52 22.5 -81.5t64.5 -29.5q53 0 94.5 47t58.5 125l15 68q7 31 7 61q0 52 -23 81.5t-65 29.5q-53 0 -94.5 -47t-58.5 -125zM351 37q0 25 17 44t61 19h7l76 358q5 21 5 40q0 30 -20 30q-26 0 -65 -28q17 -43 17 -97q0 -42 -10 -85
l-11 -54q-25 -117 -98 -198t-178 -81q-85 0 -126.5 53t-41.5 139q0 37 10 87l11 54q25 117 98 198t179 81q56 0 95 -25q79 56 149 56q47 0 70 -30t23 -80q0 -31 -7 -60l-76 -358h5q57 0 57 -36q0 -64 -78 -64h-112q-57 0 -57 37z" />
    <glyph glyph-name="uni01A3" unicode="&#x1a3;" 
d="M172 84q41 1 73 15.5t49 34t28 44t14.5 41.5t3.5 29q0 47 -28 74t-82 28q-42 -1 -74 -15.5t-49.5 -34t-28.5 -43.5t-14.5 -41.5t-3.5 -30.5q0 -46 28.5 -73t83.5 -28zM366 37q0 25 17 44t61 19h6l55 258q2 12 2 15q0 13 -17 13h-12q-41 0 -62 -20q27 -44 27 -99
q0 -62 -33 -125.5t-101.5 -110.5t-153.5 -47h-8q-86 0 -138 51.5t-52 129.5q0 45 20 94.5t55.5 92t92 70.5t121.5 28h6q55 0 99 -22q1 1 11.5 9.5t13.5 10.5t13 9.5t16 9.5t17.5 7t22 7t24.5 3.5t30 1.5q49 0 79 -27.5t30 -72.5q0 -13 -3 -28l-55 -258h6q57 0 57 -36
q0 -64 -78 -64h-112q-57 0 -57 37z" />
    <glyph glyph-name="uni01A4" unicode="&#x1a4;" 
d="M314 300q60 0 96.5 32.5t36.5 79.5q0 34 -24.5 52.5t-69.5 18.5h-118l-39 -183h118zM-40 38q0 62 78 62h15l82 383h-32q-45 0 -47 -9v-2q0 -4 9.5 -16.5t9.5 -24.5q0 -26 -21 -44t-44 -18q-21 0 -39 23.5t-18 57.5q0 57 48.5 95t122.5 38h250q83 0 132 -41t49 -108
q0 -100 -78.5 -167t-203.5 -67h-98l-22 -100h99q57 0 57 -36q0 -64 -78 -64h-214q-57 0 -57 38z" />
    <glyph glyph-name="uni01A5" unicode="&#x1a5;" 
d="M351 350q-50 0 -87 -17t-55 -42t-26.5 -46.5t-8.5 -37.5q0 -44 34.5 -70.5t91.5 -26.5q49 0 86 17t55 41.5t26.5 45.5t8.5 36q0 39 -29 69.5t-96 30.5zM446 586q0 -21 -17.5 -41.5t-43.5 -20.5q-10 0 -28 7t-42 7q-30 0 -56.5 -24t-33.5 -58l-14 -64q80 58 166 58
q91 0 146 -49.5t55 -128.5q0 -23 -8 -53t-29 -67.5t-52.5 -68.5t-84.5 -52t-119 -21q-81 0 -143 56l-35 -166h58q57 0 57 -35q0 -26 -17 -45.5t-62 -19.5h-174q-57 0 -57 36q0 64 79 64h16l119 559q16 74 78 126.5t134 52.5q51 0 79.5 -13.5t28.5 -38.5z" />
    <glyph glyph-name="uni01A6" unicode="&#x1a6;" 
d="M302 251q67 0 90 11t23 48q0 27 -59 27h-118l-18 -86h82zM256 65q0 -26 -17 -45.5t-61 -19.5h-127q-57 0 -57 36q0 64 78 64h16l81 383h-18q-57 0 -57 36q0 64 79 64h124q57 0 57 -35q0 -65 -79 -65h-6l-9 -46h114q77 0 112 -32t35 -81q0 -59 -31 -93.5t-65 -47.5
q16 -53 16 -141q0 -49 -7 -142h12q57 0 57 -36q0 -26 -18 -45t-61 -19h-87q9 165 9 193q0 121 -25 158h-122l-11 -51h11q57 0 57 -35z" />
    <glyph glyph-name="uni01A7" unicode="&#x1a7;" 
d="M200 376q-39 0 -39 42q0 10 3 25l19 88q13 66 64 66q14 0 20.5 -7t11.5 -26q59 33 137 33q83 0 133 -40t50 -103q0 -33 -15 -69q-23 -54 -73 -86.5t-103.5 -44t-104.5 -21t-84 -28t-33 -53.5q0 -29 33 -47.5t86 -18.5q49 0 94 19t58 46q9 18 14.5 26t17 15t28.5 7
q40 0 40 -40q0 -11 -3 -26l-14 -66q-4 -21 -12.5 -35.5t-19 -20.5t-18 -8t-14.5 -2q-20 0 -36 24q-82 -39 -165 -39q-90 0 -142.5 38.5t-52.5 102.5q0 34 16 72q22 51 71 82t103 43t105.5 22t84.5 30.5t33 56.5q0 27 -27.5 45.5t-71.5 18.5q-43 0 -72 -12.5t-42 -30.5
t-23 -35.5t-23 -30t-34 -12.5z" />
    <glyph glyph-name="uni01A8" unicode="&#x1a8;" 
d="M202 281q-39 0 -39 39q0 12 3 27l8 37q15 66 61 66q21 0 27 -26q62 26 134 26q82 0 131 -32t49 -83q0 -19 -10 -46q-18 -43 -62 -68t-92.5 -33.5t-95 -13.5t-77 -16t-30.5 -34q0 -17 31 -28.5t76 -11.5q83 0 134 39q23 44 61 44q40 0 40 -39q0 -8 -4 -28l-7 -33
q-13 -66 -65 -66q-17 0 -30 12q-67 -29 -154 -29q-88 0 -141.5 33.5t-53.5 86.5q0 21 11 46q19 45 63 73t92.5 38.5t94.5 16.5t76 14.5t30 24.5q0 13 -27 23t-64 10q-44 0 -73 -11t-39.5 -23.5t-24.5 -23.5t-33 -11z" />
    <glyph glyph-name="uni01A9" unicode="&#x1a9;" 
d="M519 238q39 0 39 -37q0 -13 -3 -29l-37 -172h-454l21 100l193 193l-111 193l21 97h454l-36 -170q-14 -66 -64 -66q-40 0 -40 38q0 8 4 28l15 70h-225l109 -190l-192 -193h226l16 72q7 32 21 49t43 17z" />
    <glyph glyph-name="uni01aa" unicode="&#x1aa;" 
d="M431 -118q-72 0 -122 51.5t-50 124.5v352q-35 -35 -85 -35q-49 0 -83.5 34t-34.5 82t35 81.5t83 33.5q74 0 125 -53t51 -128v-361q0 -39 21.5 -65t56.5 -26h2q23 1 41 6.5t23 6.5h6q19 0 31 -13.5t12 -31.5q-1 -2 -1.5 -7.5t-1.5 -8t-4 -7.5t-9 -10q-12 -10 -35 -16.5
t-37 -8t-24 -1.5zM174 523q-15 0 -25 -10t-10 -22q0 -13 10 -23t25 -10t25 10t10 22q0 13 -10 23t-25 10z" />
    <glyph glyph-name="uni01AB" unicode="&#x1ab;" 
d="M203 -146q0 24 20 42t40 18q4 0 25.5 -7t42.5 -7q35 0 62 23.5t35 62.5l4 19q-74 -21 -135 -21q-75 0 -116.5 29t-41.5 80q0 14 3 29l45 215h-35q-57 0 -57 36q0 64 79 64h35l18 88q15 66 64 66q40 0 40 -37q0 -14 -4 -29l-18 -88h198q18 0 28.5 -10.5t10.5 -27.5
q0 -62 -78 -62h-181l-41 -196q-3 -11 -3 -20q0 -20 17 -28.5t60 -8.5q50 0 89.5 11t64 22.5t36.5 11.5q17 0 28 -11.5t11 -28.5q0 -3 -2 -11l-19 -92q-17 -80 -78.5 -133t-136.5 -53q-110 0 -110 54z" />
    <glyph glyph-name="uni01AC" unicode="&#x1ac;" 
d="M136 39q0 61 78 61h65l82 383h-107q-47 0 -47 -11q0 -3 9.5 -17t9.5 -24q0 -26 -21 -44t-44 -18q-20 0 -38.5 23.5t-18.5 57.5q0 57 47.5 95t123.5 38h416l-41 -193q-7 -32 -21 -49t-43 -17q-39 0 -39 39q0 13 3 27l20 93h-109l-82 -383h66q57 0 57 -36q0 -64 -78 -64
h-231q-57 0 -57 39z" />
    <glyph glyph-name="uni01AD" unicode="&#x1ad;" 
d="M89 373q0 64 78 64h35l4 22q17 74 79 126.5t134 52.5q51 0 79.5 -13.5t28.5 -38.5q0 -21 -18 -41.5t-43 -20.5q-10 0 -28 7t-42 7q-30 0 -56.5 -24t-33.5 -58l-4 -19h198q18 0 28.5 -10.5t10.5 -27.5q0 -24 -16.5 -43t-60.5 -19h-181l-42 -196q-3 -11 -3 -20
q0 -20 17 -28.5t60 -8.5q50 0 89.5 11t64 22.5t36.5 11.5q18 0 28.5 -11t10.5 -29q0 -45 -85 -75t-167 -30q-75 0 -116.5 29t-41.5 80q0 14 3 29l46 215h-35q-57 0 -57 36z" />
    <glyph glyph-name="uni01AE" unicode="&#x1ae;" 
d="M534 -49q0 -27 -34 -50.5t-103 -23.5q-63 0 -101.5 40t-38.5 104q0 18 5 45l89 417h-107l-20 -93q-13 -66 -64 -66q-39 0 -39 39q0 12 3 27l41 193h516l-41 -193q-7 -32 -21 -49t-43 -17q-39 0 -39 39q0 13 3 27l20 93h-109l-89 -417q-3 -14 -3 -25q0 -29 17 -46.5
t45 -17.5q22 0 46 7t28 7q16 0 27.5 -11.5t11.5 -28.5z" />
    <glyph glyph-name="Uhorn" unicode="&#x1af;" 
d="M626 635q0 26 20.5 44t43.5 18q21 0 39 -23.5t18 -57.5q0 -14 -6.5 -33t-21.5 -43t-49 -40.5t-81 -16.5h-8l-59 -278q-20 -96 -101.5 -157.5t-174.5 -61.5q-80 0 -133.5 47.5t-53.5 124.5q0 20 5 47l59 278q-52 2 -52 37q0 63 78 63h130q57 0 57 -35q0 -65 -78 -65h-35
l-61 -287q-2 -14 -2 -20q0 -39 30.5 -64.5t77.5 -25.5q53 0 97.5 32t54.5 78l61 287h-35q-57 0 -57 36q0 64 78 64h130q45 0 47 9v2q0 4 -9 16t-9 25z" />
    <glyph glyph-name="uhorn" unicode="&#x1b0;" 
d="M524 62q0 -24 -17 -43t-61 -19h-95l10 48q-45 -35 -77 -48t-73 -13q-67 0 -107 33t-40 93q0 18 5 43l38 181h-27q-21 0 -33 11t-12 28q0 61 78 61h116l-59 -278q-3 -12 -3 -21q0 -51 75 -51q38 0 66 13.5t76 54.5l38 182h-45q-46 0 -46 39q0 24 17 42.5t61 18.5h145
q37 0 37 11q0 4 -9.5 16t-9.5 25q0 26 20.5 44t43.5 18q21 0 39 -23.5t18 -57.5q0 -57 -48 -95t-123 -38l-50 -237q52 0 52 -38z" />
    <glyph glyph-name="uni01b1" unicode="&#x1b1;" 
d="M304 444l13 59h-67l-10 -48v-1q-2 -5 -4 -10.5t-8 -16.5t-17.5 -17.5t-25.5 -6.5l-5 1t-7 1.5t-6.5 2t-7 4t-5.5 6t-4.5 9t-1.5 12.5t2 16l30 141h237l-48 -224q-22 -3 -43.5 -10t-49 -22.5t-48.5 -45.5t-30 -71q-4 -22 -4 -41q0 -51 25.5 -80.5t55.5 -29.5h89
q37 0 86 45.5t61 105.5q5 21 5 40q0 28 -10.5 49.5t-27.5 33t-32.5 17.5t-32.5 8l48 225h231l-30 -139q-18 -52 -58 -52l-4.5 1t-7.5 1.5t-7.5 3t-7.5 6t-5.5 10t-2.5 14.5q0 7 2 16l10 46h-71l-12 -58q51 -17 81.5 -58t30.5 -102q0 -27 -7 -57q-12 -57 -38 -102.5
t-56 -71.5t-63 -43t-57.5 -23t-42.5 -6h-93q-17 3 -34 8t-39 18t-38.5 30.5t-28.5 48t-12 68.5q0 31 8 66q12 56 35.5 99t53.5 67t54.5 37t51.5 20z" />
    <glyph glyph-name="uni01b2" unicode="&#x1b2;" 
d="M440 162l91 426h119q14 -1 15 -1q29 -7 29 -35q0 -5 -1 -11q-9 -44 -62 -44h-27l-72 -335q-18 -87 -77.5 -134t-156.5 -47q-82 0 -126 34t-44 99q0 23 6 50l71 333h-28l-15 2q-30 7 -30 35q0 4 1 9l2 5t2.5 6t2.5 5.5t3.5 6t4.5 5.5t6 5.5t7 4t9 4t11 2.5q7 1 15 1h141
q17 -1 22 -3q25 -9 25 -33q0 -4 -1 -9l-2 -5.5t-2.5 -7t-3 -6t-4.5 -7t-6 -6.5t-8 -6t-10 -4t-13 -3q-6 -1 -14 -1h-24l-71 -331q-2 -12 -2 -23q0 -38 27.5 -54.5t64.5 -16.5q106 0 125 90z" />
    <glyph glyph-name="uni01B3" unicode="&#x1b3;" 
d="M200 431q0 -26 -21 -44t-44 -18q-21 0 -39 23.5t-18 57.5q0 57 48.5 95t122.5 38h92q57 0 57 -36q0 -43 -50 -63l66 -136l123 136q-31 12 -31 38q0 61 79 61h92q57 0 57 -35q0 -25 -14.5 -41t-28 -20t-24.5 -4h-10l-215 -238l-31 -145h65q58 0 58 -36q0 -64 -79 -64h-230
q-58 0 -58 37q0 63 79 63h65l31 145l-114 238q-45 0 -47 -9v-2q0 -4 9.5 -16.5t9.5 -24.5z" />
    <glyph glyph-name="uni01B4" unicode="&#x1b4;" 
d="M65 375q0 28 21.5 45t56.5 17h90q57 0 57 -35q0 -29 -19 -46.5t-52 -18.5l66 -223l168 223q-55 0 -55 38q0 24 18.5 43t60.5 19h106q45 0 47 9v2q0 4 -9.5 16.5t-9.5 24.5q0 26 20.5 44t43.5 18q21 0 39.5 -23.5t18.5 -57.5q0 -39 -19.5 -68t-48 -42t-51.5 -18.5
t-39 -5.5q-3 0 -7 0.5t-6 0.5l-323 -437h5q57 0 57 -35q0 -26 -17 -45.5t-61 -19.5h-225q-47 0 -47 39q0 24 17 42.5t61 18.5h100l77 103l-101 334q-40 5 -40 38z" />
    <glyph glyph-name="uni01B5" unicode="&#x1b5;" 
d="M543 299q0 -65 -78 -65h-109l-134 -134h226l5 24q7 32 21 49t43 17q40 0 40 -37q0 -14 -4 -29l-26 -124h-454l21 100l135 134h-34q-57 0 -57 36q0 64 78 64h113l149 149h-179l-5 -22q-13 -66 -64 -66q-39 0 -39 39q0 12 3 27l26 122h408l-21 -97l-151 -152h30
q57 0 57 -35z" />
    <glyph glyph-name="uni01B6" unicode="&#x1b6;" 
d="M495 217q0 -25 -17 -44t-61 -19h-88l-66 -54h175q14 54 61 54q40 0 40 -37q0 -14 -4 -29l-18 -88h-434l17 83l90 72q-31 5 -31 39q0 24 16.5 42t61.5 18h76l102 83h-149q-9 -40 -23 -57.5t-43 -17.5q-39 0 -39 39q0 12 3 27l23 109h409l-17 -81l-126 -102q42 -3 42 -37z
" />
    <glyph glyph-name="uni01B7" unicode="&#x1b7;" 
d="M250 273q0 22 17.5 41.5t43.5 19.5l149 149h-179l-5 -22q-13 -66 -64 -66q-39 0 -39 39q0 12 3 27l26 122h408l-20 -97l-152 -152h7q64 0 100.5 -40t36.5 -100q0 -21 -4 -40q-11 -53 -43 -93.5t-74.5 -64t-87 -35t-87.5 -11.5q-56 0 -104.5 17t-76.5 41t-43.5 45.5
t-15.5 33.5q0 22 17.5 41.5t44.5 19.5q13 0 30.5 -15.5t35.5 -33.5t53.5 -33.5t79.5 -15.5q93 0 133.5 41t40.5 91q0 52 -65 52h-126q-18 0 -29 11t-11 28z" />
    <glyph glyph-name="uni01B8" unicode="&#x1b8;" 
d="M384 234h-126q-52 0 -75 -31t-23 -69q0 -84 129 -84q44 0 86.5 15.5t68 33.5t49.5 33.5t37 15.5q20 0 30 -11.5t10 -28.5q0 -12 -4 -21q-5 -12 -30 -33.5t-63 -45.5t-94 -41t-112 -17q-52 0 -98 15.5t-79 53.5t-33 92q0 81 63 152t152 71h7l-88 152l22 97h408l-26 -122
q-14 -66 -64 -66q-40 0 -40 38q0 15 4 28l4 22h-179l86 -149q19 0 29 -11t10 -28q0 -26 -19.5 -43.5t-41.5 -17.5z" />
    <glyph glyph-name="uni01b9" unicode="&#x1b9;" 
d="M299 185q-42 0 -80 -51.5t-38 -118.5q0 -46 20 -77t50 -31h1q33 1 59 15t48 32t38 24q9 3 17 3q13 0 24 -9.5t11 -25.5q0 -25 -22.5 -43t-36.5 -28t-41.5 -26t-56.5 -24t-59 -8q-68 0 -106.5 50t-38.5 127q0 98 56 176.5t129 98.5l-69 82h-6h-3.5t-5 0.5t-6 1t-6.5 1.5
t-7 3t-6.5 4.5t-5 6t-4 8.5t-1.5 11q0 14 11 31t36 22q8 2 17 2h273q18 0 29 -10t11 -26q0 -23 -19 -39t-40 -16h-138l107 -130q9 -16 9 -25q0 -21 -17 -36.5t-36 -15.5q-28 0 -44 20q-1 1 -3 3.5t-2.5 3l-2.5 2.5l-3 3t-4 2.5t-5 2t-5.5 2t-7.5 1.5t-9 0.5t-11 0.5z" />
    <glyph glyph-name="uni01ba" unicode="&#x1ba;" 
d="M220 -200q-175 0 -175 100q0 27 10.5 53.5t33.5 52.5t68 42t107 16q70 0 98 25.5t28 62.5q0 18 -16 25.5t-54 7.5q-32 0 -43 -4t-27 -17q-25 -20 -51 -20q-18 0 -27 10t-9 25q0 23 22 42l164 130h-138q-19 0 -30 10.5t-11 26.5q0 18 16.5 36t43.5 18h273h3t5 -0.5t6 -1
t7 -1.5t6.5 -3t6.5 -4.5t5.5 -6t3.5 -8t1 -10.5q0 -17 -14.5 -36.5t-48.5 -19.5h-6l-101 -79q49 -5 77.5 -27t28.5 -69q0 -26 -7.5 -52t-25 -53.5t-43.5 -48.5t-68.5 -34.5t-94.5 -13.5q-62 0 -84.5 -13.5t-22.5 -40.5q0 -30 104 -30q30 0 58 9t41.5 18t17.5 15
q6 13 19.5 23.5t31.5 10.5q15 0 25.5 -10t10.5 -25q0 -5 -1 -10q-7 -36 -46 -65t-86.5 -42.5t-91.5 -13.5z" />
    <glyph glyph-name="uni01BB" unicode="&#x1bb;" 
d="M174 421q0 15 17 42.5t46.5 58.5t80.5 53.5t109 22.5q79 0 127.5 -42.5t48.5 -111.5q0 -64 -34 -117q15 -11 15 -32q0 -23 -17 -42t-61 -19h-44q-40 -27 -116 -73t-100 -61h209q15 54 61 54q40 0 40 -38q0 -8 -4 -28l-19 -88h-470l23 105l207 129h-57q-57 0 -57 36
q0 64 78 64h187q57 42 57 89q0 32 -27.5 53.5t-70.5 21.5q-37 0 -64 -12t-40.5 -29t-25 -34t-25.5 -29t-33 -12q-18 0 -29.5 11t-11.5 28z" />
    <glyph glyph-name="uni01bc" unicode="&#x1bc;" 
d="M229 288q-15 0 -25 10t-10 26q0 5 1 11l35 162h-20q-19 0 -30 10.5t-11 26.5q0 4 1 8q5 20 21.5 33t37.5 13h109h109h109q9 0 16 -2q29 -6 29 -33q0 -5 -2 -10l-1.5 -5t-2.5 -7l-3.5 -7t-5.5 -8t-7.5 -7t-11 -6.5t-14.5 -3.5q-7 -2 -16 -2h-216l-21 -96q59 19 111 19
q75 0 119 -43.5t44 -115.5q0 -26 -6 -53q-22 -103 -98.5 -166.5t-175.5 -63.5h-4q-44 1 -82 13t-61.5 29.5t-37 34t-16.5 28.5q-1 5 -1 10v7q4 19 20 32t34 13h1q9 0 17 -5q7 -4 20.5 -17t26.5 -24t38.5 -20.5t58.5 -9.5q64 0 109.5 37t60.5 104q3 17 3 33q0 41 -24.5 63.5
t-68.5 22.5h-2q-34 -1 -57 -6.5t-45.5 -16.5t-31.5 -14q-13 -4 -23 -4z" />
    <glyph glyph-name="uni01bd" unicode="&#x1bd;" 
d="M145 226l28 129q-20 9 -20 32q0 5 1 10l2 5t3 7l3.5 7t5.5 7.5t7.5 6.5t11 6.5t13.5 3.5q8 2 17 2h273q18 0 29 -10t11 -26q0 -5 -1 -10q-4 -20 -21.5 -32.5t-36.5 -12.5h-208l-14 -62q20 4 43 4h16q80 0 124 -29.5t44 -88.5q0 -18 -4 -38q-15 -71 -70.5 -116.5
t-136.5 -45.5h-4q-83 1 -120.5 26.5t-37.5 53.5q0 5 1 10q4 19 21 32.5t35 13.5q1 0 4.5 -0.5t5 -1l4.5 -1.5t5.5 -3t5.5 -6q1 0 5.5 -5.5t6 -6.5t6.5 -5.5t8.5 -5.5t11 -4t15 -4t18.5 -2t24 -1q46 0 70 16.5t32 55.5q3 15 3 24q0 23 -18.5 32.5t-65.5 9.5h-12
q-31 -1 -50.5 -5.5t-33 -11.5t-21.5 -9q-6 -1 -11 -1q-14 0 -22 9t-8 25q0 8 2 16z" />
    <glyph glyph-name="uni01be" unicode="&#x1be;" 
d="M133 112q6 28 22.5 40t34.5 12l4.5 -0.5t6.5 -1t6.5 -2t7 -4t5.5 -6.5t4.5 -9.5t1.5 -12.5t-2 -16l-6 -25q28 -15 49 -21.5t50 -6.5q51 0 89 24.5t46 63.5q2 7 2 13q0 26 -28 49.5t-98 56.5l-14 6l15 73h-80q-15 1 -15 2q-28 6 -28 33q0 5 1 10q4 18 19 32t43 14h80
l13 61h-20q-16 1 -16 2q-28 6 -28 33q0 5 1 10q4 18 19 32t43 14h44h43h44q9 0 16 -2q28 -6 28 -34q0 -5 -1 -10l-1.5 -5t-2.5 -7l-3.5 -7t-6 -7.5t-8 -6.5t-10.5 -6.5t-14 -3.5q-7 -2 -16 -2h-20l-13 -61h80l15 -2q29 -6 29 -34q0 -5 -1 -10l-1.5 -5t-3 -7t-4 -7t-5.5 -7.5
t-7.5 -6.5t-10.5 -6.5t-14 -3.5q-8 -2 -17 -2h-80l-2 -13q70 -39 100 -71.5t30 -76.5q0 -17 -5 -37q-17 -79 -82.5 -124t-156.5 -45q-33 0 -63 5.5t-46 11t-37 14.5t-27 11l-17 6z" />
    <glyph glyph-name="uni01bf" unicode="&#x1bf;" 
d="M180 39l275 180q46 31 67 64.5t21 53.5q0 36 -64 36q-103 0 -170 -45l-78 -52zM82 379q0 22 17 39.5t46 17.5h120l-10 -45l13 9q33 22 66.5 36t65.5 19.5t50.5 6.5t45.5 1q72 0 106 -28.5t34 -74.5q0 -54 -41 -114t-97 -97l-343 -228l-6 -30h73q16 0 29.5 -8t13.5 -26
q0 -21 -15.5 -39t-47.5 -18h-193q-23 0 -33 11t-10 26q0 20 15.5 37t47.5 17h29l96 454h-29q-43 0 -43 34z" />
    <glyph glyph-name="uni01c0" unicode="&#x1c0;" 
d="M468 556l-137 -643q-5 -27 -19 -43t-24 -19.5t-21 -3.5q-17 0 -28.5 10.5t-11.5 26.5q0 12 4 29l137 643q13 66 64 66q17 0 28.5 -11t11.5 -27q0 -9 -4 -28z" />
    <glyph glyph-name="uni01c1" unicode="&#x1c1;" 
d="M528 622q40 0 40 -38q0 -12 -4 -28l-136 -643q-15 -66 -65 -66q-39 0 -39 39q0 12 4 27l136 643q7 32 21.5 49t42.5 17zM336 622q40 0 40 -38q0 -12 -4 -28l-136 -643q-15 -66 -65 -66q-39 0 -39 39q0 12 4 27l136 643q7 32 21.5 49t42.5 17z" />
    <glyph glyph-name="uni01c2" unicode="&#x1c2;" 
d="M607 400q15 -1 16 -2q28 -6 28 -33q0 -19 -15.5 -37.5t-47.5 -18.5h-177l-12 -53h177q16 -1 16 -2q28 -6 28 -33q0 -19 -15.5 -37.5t-47.5 -18.5h-177l-56 -262q-4 -15 -5 -16q-6 -15 -19.5 -25.5t-31.5 -10.5l-4.5 0.5t-6.5 1t-6.5 2t-7 4t-5.5 6.5t-4 9.5t-1 12.5
q0 8 1 16l56 262h-177q-43 0 -43 36q0 14 10.5 31t35.5 22q8 2 16 2h177l12 53h-177q-44 0 -44 36q0 14 10.5 31t36.5 22q7 2 16 2h177l38 177q4 16 5 16q6 15 19.5 25.5t31.5 10.5l4.5 -0.5t6.5 -1t6.5 -2t7 -4t5.5 -6.5t4 -9.5t1 -12.5q0 -8 -1 -16l-38 -177h177z" />
    <glyph glyph-name="uni01c3" unicode="&#x1c3;" 
d="M490 525l-92 -297q-16 -49 -60 -49q-40 0 -40 40q0 6 1 9l34 297q14 113 102 113q29 0 47.5 -17t18.5 -44q0 -18 -11 -52zM305 -15h-17q-24 0 -39 15t-15 38q0 30 25.5 54.5t56.5 24.5h17q24 0 39 -14.5t15 -37.5q0 -31 -25 -55.5t-57 -24.5z" />
    <glyph glyph-name="uni01c4" unicode="&#x1c4;" 
d="M156 92q24 0 42 6t38.5 23t36.5 54.5t29 95.5l11 55q10 47 10 78q0 92 -82 92zM588 0h-284l19 90l262 406h-67l-19 -93l-1 -1q-13 -52 -56 -52l-3.5 0.5t-5.5 1l-6 1.5t-6.5 2.5t-5.5 4t-5 6.5q-3 -27 -9 -57l-6 -29q-60 -280 -251 -280h-92q-43 0 -43 36q0 6 1 11
q9 41 54 45l86 404q-36 3 -36 36q0 5 1 10l1.5 4.5t2.5 6.5t4 7t5.5 8t7.5 7t10.5 6.5t13.5 4t17 1.5h92q141 0 145 -153l33 153h258l-19 -88l-263 -407h94l24 116q6 28 22.5 40t33.5 12q15 0 26 -8.5t11 -27.5q0 -7 -2 -16zM543 701l124 62q26 13 30 13q13 0 21.5 -9
t8.5 -21q0 -11 -6.5 -20t-10 -11.5t-14.5 -8.5l-169 -94l-142 101q-10 10 -10 22q0 16 13 28.5t27 12.5q7 0 27 -13z" />
    <glyph glyph-name="uni01c5" unicode="&#x1c5;" 
d="M155 91h3h3q20 0 31.5 1.5t28.5 9.5t28.5 23.5t24.5 45.5t22 74l18 82q10 47 10 78q0 92 -82 92zM675 442l-14 -67l-220 -284h83l7 31q6 28 22.5 40t34.5 12q36 0 36 -34q0 -8 -2 -18l-26 -122h-296l14 67l218 284h-49l-7 -30v-1q-13 -51 -56 -51q-16 0 -26 9l-5 -24
q-16 -74 -40 -124.5t-56 -78.5t-67.5 -39.5t-81.5 -11.5h-92q-43 0 -43 36q0 5 1 10l1.5 5t2.5 6.5t3.5 6.5t5 7.5l6.5 6.5t9 6t11.5 4t14.5 3l87 406q-37 3 -37 36q0 5 1 10l2 4.5t2.5 6.5t3.5 7t5.5 8t7.5 7t10.5 6.5t13.5 4t17 1.5h92q138 0 145 -146h261zM545 594
l124 62q26 13 30 13q13 0 21.5 -9t8.5 -21q0 -11 -6.5 -20t-10 -11.5t-14.5 -8.5l-169 -94l-142 101q-10 10 -10 22q0 16 13 28.5t27 12.5q7 0 27 -13z" />
    <glyph glyph-name="uni01c6" unicode="&#x1c6;" 
d="M284 439l21 99h-29q-43 0 -43 36q0 5 1 10l1.5 4.5t2.5 6.5t4 7t5.5 8t7.5 7t10.5 6.5t13.5 4t17 1.5h120l-115 -538h16l200 260h-57l-7 -30v-1q-13 -51 -56 -51q-14 0 -25.5 8.5t-11.5 27.5q0 7 2 16l26 121h272l-14 -67l-220 -284h83l7 31q6 28 22.5 40t34.5 12l4 -0.5
t6.5 -1t7 -2t7 -4t5.5 -6t4.5 -9t1.5 -12.5q0 -8 -2 -17l-26 -122h-382q-29 -16 -78 -16q-84 0 -84 127q0 49 13 111q8 37 16.5 66.5t23 62t31.5 54.5t42.5 36.5t56.5 14.5q41 0 64 -17zM144 75q32 1 55 35t39 110q8 41 8 72q0 73 -41 73q-8 0 -17.5 -11.5t-22.5 -45.5
t-24 -86q-11 -50 -11 -89q0 -49 14 -58zM563 651l124 62q26 13 30 13q13 0 21.5 -9t8.5 -21q0 -11 -6.5 -20t-10 -11.5t-14.5 -8.5l-169 -94l-142 101q-10 10 -10 22q0 16 13 28.5t27 12.5q7 0 27 -13z" />
    <glyph glyph-name="uni01C7" unicode="&#x1c7;" 
d="M716 547q0 -10 -4.5 -23t-20 -27t-39.5 -14l-63 -296q-20 -98 -76 -149.5t-116 -51.5q-28 0 -70 14h-255q-57 0 -57 38q0 27 19.5 44.5t51.5 17.5l81 383q-49 0 -49 38q0 62 77 62h99q57 0 57 -36q0 -64 -78 -64h-6l-81 -383h74l22 103q14 67 64 67q40 0 40 -37
q0 -8 -4 -30l-19 -86q11 -31 48 -31q10 0 18.5 2t15.5 7t12 9.5t9.5 12.5t7 13t5.5 14.5t3.5 12.5t2.5 12l2 9l65 305h-19q-57 0 -57 36q0 64 78 64h105q57 0 57 -36z" />
    <glyph glyph-name="uni01C8" unicode="&#x1c8;" 
d="M412 547q0 -64 -78 -64h-25l-81 -383h103l19 92q15 67 65 67q39 0 39 -38q0 -14 -4 -29l-40 -192h-320q-57 0 -57 38q0 62 78 62h17l81 383h-17q-57 0 -57 36q0 64 78 64h142q57 0 57 -36zM162 -163q0 63 78 63h111q43 0 73.5 23t38.5 62l75 352h-102q-57 0 -57 37
q0 63 78 63h202l-96 -452q-17 -79 -82.5 -132t-147.5 -53h-114q-57 0 -57 37zM641 623l-22 -105h-119l22 105h119z" />
    <glyph glyph-name="uni01C9" unicode="&#x1c9;" 
d="M131 -159q0 23 17.5 41t59.5 18h111q43 0 73.5 23t38.5 62l75 352h-92q-28 0 -42 8t-14 33q0 23 17.5 41t59.5 18h192l-96 -452q-17 -79 -82.5 -132t-147.5 -53h-114q-28 0 -42 8t-14 33zM614 624l-22 -106h-119l22 106h119zM223 624h146l-111 -524h62q27 0 41.5 -7.5
t14.5 -32.5q0 -23 -18 -41.5t-60 -18.5h-224q-56 0 -56 41q0 23 18 41t60 18h62l90 424h-46q-28 0 -43 8t-15 31q0 61 76 61h3z" />
    <glyph glyph-name="uni01ca" unicode="&#x1ca;" 
d="M344 1h-93l-51 322l-49 -231h18q16 0 29.5 -8t13.5 -26q0 -20 -16 -38.5t-47 -18.5h-102q-45 0 -45 29q0 15 6 26.5t13.5 17.5t17.5 10.5t14 5.5t7 2l86 405h-13q-44 0 -44 35q0 18 14.5 37t48.5 19h108l52 -322l49 231h-17q-17 0 -31 8t-14 27q0 18 15 37t49 19h117
q17 0 30.5 -8.5t13.5 -26.5q15 32 56 32h117q17 0 30.5 -8t13.5 -26q0 -21 -15.5 -39t-47.5 -18h-15l-75 -355q-11 -45 -19 -69.5t-23.5 -47t-38 -31.5t-57.5 -9q-83 0 -83 75q0 18 5 40l31 149q6 28 21.5 40t31.5 12q37 0 37 -33q0 -9 -3 -19l-27 -130q-4 -19 -4 -29
q0 -14 11 -14q4 0 7 3t8 18.5t12 44.5l75 355h-11q-42 0 -44 35q-14 -32 -56 -32h-9z" />
    <glyph glyph-name="uni01CB" unicode="&#x1cb;" 
d="M685 623l-22 -105h-108l22 105h108zM156 -163q0 63 78 63h111q43 0 73.5 23t38.5 62l75 352q-23 0 -35 11t-12 29q0 60 77 60h91l-96 -452q-17 -79 -82.5 -132t-147.5 -53h-114q-57 0 -57 37zM309 520q0 63 78 63h77q57 0 57 -36q0 -26 -16 -44.5t-45 -19.5l-102 -483
h-99l-49 314l-45 -214q49 0 49 -37q0 -24 -17 -43.5t-61 -19.5h-82q-58 0 -58 37q0 27 19.5 45t49.5 18l81 383q-49 0 -49 38q0 62 77 62h93l48 -312l45 212q-51 0 -51 37z" />
    <glyph glyph-name="uni01CC" unicode="&#x1cc;" 
d="M678 623l-22 -105h-119l22 105h119zM149 -163q0 63 78 63h111q43 0 73.5 23t38.5 62l75 352h-21q-57 0 -57 37q0 63 78 63h121l-96 -452q-17 -79 -82.5 -132t-147.5 -53h-114q-57 0 -57 37zM246 0l59 278q7 35 7 47q0 25 -25 25q-30 0 -48.5 -20.5t-23.5 -47.5l-39 -182
q31 0 43 -9q13 -13 13 -31q0 -7 -1 -10q-5 -26 -33 -43q-13 -7 -43 -7h-100q-33 0 -44 10q-13 11 -13 30q0 2 0.5 5.5t0.5 4.5q7 29 33 43q14 7 44 7l50 237q-52 2 -52 38q0 4 2 12q10 50 77 50h94l-10 -48q14 28 41 44.5t51 16.5q85 0 85 -96q0 -29 -8 -72l-39 -182
q52 0 52 -38q0 -4 -2 -12q-5 -28 -33 -43q-13 -7 -43 -7h-95z" />
    <glyph glyph-name="uni01CD" unicode="&#x1cd;" 
d="M401 725l124 62q26 13 30 13q13 0 21.5 -9t8.5 -21q0 -11 -6.5 -20t-10 -11.5t-14.5 -8.5l-169 -94l-142 101q-10 10 -10 22q0 16 13 28.5t27 12.5q7 0 27 -13zM360 40q0 24 18 42t60 18h23l-11 58h-238l-36 -58h23q28 0 42.5 -7.5t14.5 -32.5q0 -23 -18 -41.5t-60 -18.5
h-132q-31 0 -44 9t-13 31q0 24 18 42t61 18l236 383h-63q-31 0 -44 9t-13 31q0 23 17 41.5t61 18.5h216l97 -483q29 0 43.5 -7.5t14.5 -32.5q0 -23 -18 -41.5t-60 -18.5h-139q-30 0 -43 9t-13 31zM430 258l-38 192l-119 -192h157z" />
    <glyph glyph-name="uni01CE" unicode="&#x1ce;" 
d="M417 579l124 62q26 13 30 13q13 0 21.5 -9t8.5 -21q0 -11 -6.5 -20t-10 -11.5t-14.5 -8.5l-169 -94l-142 101q-10 10 -10 22q0 16 13 28.5t27 12.5q7 0 27 -13zM583 61q0 -24 -18 -42.5t-60 -18.5h-117l5 23q-83 -39 -174 -39q-67 0 -110.5 32.5t-43.5 81.5q0 14 7 34.5
t27.5 48.5t50 51t81 39.5t115.5 16.5q45 0 101 -10q6 24 6 33q0 39 -84 39q-39 0 -94 -11.5t-68 -11.5q-17 0 -27.5 11t-10.5 28q0 45 68.5 64.5t151.5 19.5q78 0 123 -30.5t45 -82.5q0 -19 -4 -35l-43 -202h17q28 0 42 -7.5t14 -31.5zM320 196q-59 0 -102.5 -26t-43.5 -52
q0 -14 19.5 -24t47.5 -10q83 0 177 51l10 50q-60 11 -108 11z" />
    <glyph glyph-name="uni01CF" unicode="&#x1cf;" 
d="M455 725l124 62q26 13 30 13q13 0 21.5 -9t8.5 -21q0 -11 -6.5 -20t-10 -11.5t-14.5 -8.5l-169 -94l-142 101q-10 10 -10 22q0 16 13 28.5t27 12.5q7 0 27 -13zM632 544q0 -24 -18 -42.5t-60 -18.5h-101l-81 -383h100q28 0 42.5 -7.5t14.5 -31.5t-18 -42.5t-60 -18.5
h-301q-31 0 -44 9t-13 31q0 24 18 42t60 18h101l81 383h-101q-31 0 -43.5 9t-12.5 31q0 24 18 42t60 18h301q29 0 43 -7.5t14 -31.5z" />
    <glyph glyph-name="uni01D0" unicode="&#x1d0;" 
d="M381 579l124 62q26 13 30 13q13 0 21.5 -9t8.5 -21q0 -11 -6.5 -20t-10 -11.5t-14.5 -8.5l-169 -94l-142 101q-10 10 -10 22q0 16 13 28.5t27 12.5q7 0 27 -13zM186 377q0 23 17 41.5t62 18.5h178l-71 -337h121q28 0 42.5 -7.5t14.5 -32.5q0 -22 -17.5 -41t-60.5 -19
h-343q-31 0 -44 9t-13 31q0 24 18 42t60 18h122l50 237h-78q-32 0 -45 9t-13 31z" />
    <glyph glyph-name="uni01D1" unicode="&#x1d1;" 
d="M454 725l124 62q26 13 30 13q13 0 21.5 -9t8.5 -21q0 -11 -6.5 -20t-10 -11.5t-14.5 -8.5l-169 -94l-142 101q-10 10 -10 22q0 16 13 28.5t27 12.5q7 0 27 -13zM75 220q0 80 34 152.5t86 120.5t113.5 76t117.5 28q96 0 159.5 -66t63.5 -165q0 -82 -33.5 -155t-86 -121
t-114 -76t-118.5 -28q-95 0 -158.5 67t-63.5 167zM405 497q-86 0 -156.5 -79t-70.5 -175q0 -68 39.5 -112.5t99.5 -44.5q88 0 158.5 79t70.5 177q0 67 -40 111t-101 44z" />
    <glyph glyph-name="uni01D2" unicode="&#x1d2;" 
d="M427 579l124 62q26 13 30 13q13 0 21.5 -9t8.5 -21q0 -11 -6.5 -20t-10 -11.5t-14.5 -8.5l-169 -94l-142 101q-10 10 -10 22q0 16 13 28.5t27 12.5q7 0 27 -13zM84 174q0 59 36 121t110.5 108.5t168.5 46.5q93 0 151.5 -53t58.5 -137q0 -109 -95 -192.5t-217 -83.5
q-96 0 -154.5 52t-58.5 138zM376 350q-77 0 -133.5 -47t-56.5 -111q0 -47 37 -77.5t95 -30.5q76 0 132.5 47.5t56.5 110.5q0 47 -37 77.5t-94 30.5z" />
    <glyph glyph-name="uni01D3" unicode="&#x1d3;" 
d="M455 725l124 62q26 13 30 13q13 0 21.5 -9t8.5 -21q0 -11 -6.5 -20t-10 -11.5t-14.5 -8.5l-169 -94l-142 101q-10 10 -10 22q0 16 13 28.5t27 12.5q7 0 27 -13zM648 583q28 0 42.5 -7.5t14.5 -31.5q0 -26 -19.5 -43.5t-53.5 -17.5l-59 -278q-19 -93 -98.5 -156
t-176.5 -63q-82 0 -135 49t-53 123q0 26 5 47l59 278q-51 0 -51 40q0 23 17 41.5t61 18.5h130q28 0 42 -7t14 -32q0 -24 -17.5 -42.5t-60.5 -18.5h-35l-61 -287q-2 -14 -2 -20q0 -39 30.5 -64.5t77.5 -25.5q53 0 97.5 32t54.5 78l61 287h-35q-31 0 -43.5 9t-12.5 31
q0 23 17 41.5t61 18.5h129z" />
    <glyph glyph-name="uni01D4" unicode="&#x1d4;" 
d="M418 579l124 62q26 13 30 13q13 0 21.5 -9t8.5 -21q0 -11 -6.5 -20t-10 -11.5t-14.5 -8.5l-169 -94l-142 101q-10 10 -10 22q0 16 13 28.5t27 12.5q7 0 27 -13zM390 377q0 24 18 42t60 18h135l-72 -337q52 0 52 -39q0 -24 -18.5 -42.5t-60.5 -18.5h-94l10 48
q-45 -35 -76.5 -48t-73.5 -13q-66 0 -106.5 34t-40.5 89q0 19 5 46l38 182h-16q-30 0 -43 9t-13 31q0 24 18 41.5t60 17.5h116l-59 -278q-3 -12 -3 -23q0 -49 75 -49q37 0 66 13.5t76 54.5l39 183h-35q-31 0 -44 9t-13 30z" />
    <glyph glyph-name="uni01D5" unicode="&#x1d5;" 
d="M632 506q28 0 42.5 -7.5t14.5 -31.5q0 -26 -19.5 -43.5t-53.5 -17.5l-43 -201q-20 -93 -99 -156t-176 -63q-82 0 -135 49t-53 123q0 26 5 47l43 201q-51 0 -51 40q0 23 17 41.5t61 18.5h130q28 0 42 -7t14 -32q0 -24 -17.5 -42.5t-60.5 -18.5h-35l-45 -210q-2 -14 -2 -20
q0 -39 30.5 -64.5t77.5 -25.5q53 0 97.5 32t54.5 78l45 210h-35q-31 0 -43.5 9t-12.5 31q0 23 17 41.5t61 18.5h129zM342 672q22 0 35.5 -13.5t13.5 -34.5q0 -28 -23 -50t-52 -22q-20 0 -34 14t-14 34q0 27 23 49.5t51 22.5zM550 672q22 0 35.5 -13.5t13.5 -34.5
q0 -28 -23 -50t-52 -22q-20 0 -34 14t-14 34q0 27 23 49.5t51 22.5zM355 798h244q25 0 35 -7.5t10 -25.5q0 -20 -17.5 -33.5t-44.5 -13.5h-244q-25 0 -35 7t-10 26q0 21 17 34t45 13z" />
    <glyph glyph-name="uni01D6" unicode="&#x1d6;" 
d="M338 774h244q25 0 35 -7.5t10 -25.5q0 -20 -17.5 -33.5t-44.5 -13.5h-244q-25 0 -35 7t-10 26q0 21 17 34t45 13zM324 630q22 0 35.5 -13.5t13.5 -34.5q0 -28 -23 -50t-52 -22q-20 0 -34 14t-14 34q0 27 23 49.5t51 22.5zM532 630q22 0 35.5 -13.5t13.5 -34.5
q0 -28 -23 -50t-52 -22q-20 0 -34 14t-14 34q0 27 23 49.5t51 22.5zM390 377q0 24 18 42t60 18h135l-72 -337q52 0 52 -39q0 -24 -18.5 -42.5t-60.5 -18.5h-94l10 48q-45 -35 -76.5 -48t-73.5 -13q-66 0 -106.5 34t-40.5 89q0 19 5 46l38 182h-16q-30 0 -43 9t-13 31
q0 24 18 41.5t60 17.5h116l-59 -278q-3 -12 -3 -23q0 -49 75 -49q37 0 66 13.5t76 54.5l39 183h-35q-31 0 -44 9t-13 30z" />
    <glyph glyph-name="uni01D7" unicode="&#x1d7;" 
d="M574 728l-99 -76q-20 -16 -30 -16q-15 0 -25 10.5t-10 28.5q0 10 29 34l99 75q22 16 34 16q31 0 31 -37q0 -12 -29 -35zM581 667q22 0 35.5 -13.5t13.5 -34.5q0 -28 -23 -50t-52 -22q-20 0 -34 14t-14 34q0 27 23 49.5t51 22.5zM633 516q28 0 42.5 -7.5t14.5 -31.5
q0 -26 -19.5 -43.5t-53.5 -17.5l-44 -211q-19 -93 -98.5 -156t-176.5 -63q-82 0 -135 49t-53 123q0 26 5 47l44 211q-51 0 -51 40q0 23 17 41.5t61 18.5h130q28 0 42 -7t14 -32q0 -24 -17.5 -42.5t-60.5 -18.5h-35l-46 -220q-2 -14 -2 -20q0 -39 30.5 -64.5t77.5 -25.5
q53 0 97.5 32t54.5 78l46 220h-35q-31 0 -43.5 9t-12.5 31q0 23 17 41.5t61 18.5h129zM326 667q22 0 35.5 -13.5t13.5 -34.5q0 -28 -23 -50t-52 -22q-20 0 -34 14t-14 34q0 27 23 49.5t51 22.5z" />
    <glyph glyph-name="uni01D8" unicode="&#x1d8;" 
d="M559 725l-99 -76q-20 -16 -30 -16q-15 0 -25 10.5t-10 28.5q0 10 29 34l99 75q22 16 34 16q31 0 31 -37q0 -12 -29 -35zM324 630q22 0 35.5 -13.5t13.5 -34.5q0 -28 -23 -50t-52 -22q-20 0 -34 14t-14 34q0 27 23 49.5t51 22.5zM532 630q22 0 35.5 -13.5t13.5 -34.5
q0 -28 -23 -50t-52 -22q-20 0 -34 14t-14 34q0 27 23 49.5t51 22.5zM390 377q0 24 18 42t60 18h135l-72 -337q52 0 52 -39q0 -24 -18.5 -42.5t-60.5 -18.5h-94l10 48q-45 -35 -76.5 -48t-73.5 -13q-66 0 -106.5 34t-40.5 89q0 19 5 46l38 182h-16q-30 0 -43 9t-13 31
q0 24 18 41.5t60 17.5h116l-59 -278q-3 -12 -3 -23q0 -49 75 -49q37 0 66 13.5t76 54.5l39 183h-35q-31 0 -44 9t-13 30z" />
    <glyph glyph-name="uni01D9" unicode="&#x1d9;" 
d="M633 503q28 0 42.5 -7.5t14.5 -31.5q0 -26 -19.5 -43.5t-53.5 -17.5l-44 -198q-20 -93 -99 -156t-176 -63q-82 0 -135 49t-53 123q0 26 5 47l44 198q-51 0 -51 40q0 23 17 41.5t61 18.5h130q28 0 42 -7t14 -32q0 -24 -17.5 -42.5t-60.5 -18.5h-35l-46 -207q-2 -7 -2 -20
q0 -39 30.5 -64.5t77.5 -25.5q53 0 97 32t55 78l46 207h-35q-31 0 -43.5 9t-12.5 31q0 23 17 41.5t61 18.5h129zM340 649q22 0 35.5 -13.5t13.5 -34.5q0 -28 -23 -50t-52 -22q-20 0 -34 14t-14 34q0 27 23 49.5t51 22.5zM548 649q22 0 35.5 -13.5t13.5 -34.5q0 -28 -23 -50
t-52 -22q-20 0 -34 14t-14 34q0 27 23 49.5t51 22.5zM459 725l124 62q24 13 30 13q12 0 20.5 -9t8.5 -21q0 -11 -6 -20t-10 -11.5t-14 -8.5l-169 -94l-142 101q-11 10 -11 22q0 16 13 28.5t28 12.5q7 0 27 -13z" />
    <glyph glyph-name="uni01DA" unicode="&#x1da;" 
d="M446 725l124 62q26 13 30 13q13 0 21.5 -9t8.5 -21q0 -11 -6.5 -20t-10 -11.5t-14.5 -8.5l-169 -94l-142 101q-10 10 -10 22q0 16 13 28.5t27 12.5q7 0 27 -13zM324 630q22 0 35.5 -13.5t13.5 -34.5q0 -28 -23 -50t-52 -22q-20 0 -34 14t-14 34q0 27 23 49.5t51 22.5z
M532 630q22 0 35.5 -13.5t13.5 -34.5q0 -28 -23 -50t-52 -22q-20 0 -34 14t-14 34q0 27 23 49.5t51 22.5zM390 377q0 24 18 42t60 18h135l-72 -337q52 0 52 -39q0 -24 -18.5 -42.5t-60.5 -18.5h-94l10 48q-45 -35 -76.5 -48t-73.5 -13q-66 0 -106.5 34t-40.5 89q0 19 5 46
l38 182h-16q-30 0 -43 9t-13 31q0 24 18 41.5t60 17.5h116l-59 -278q-3 -12 -3 -23q0 -49 75 -49q37 0 66 13.5t76 54.5l39 183h-35q-31 0 -44 9t-13 30z" />
    <glyph glyph-name="uni01DB" unicode="&#x1db;" 
d="M566 649q22 0 35.5 -13.5t13.5 -34.5q0 -28 -23 -50t-52 -22q-20 0 -34 14t-14 34q0 27 23 49.5t51 22.5zM632 500q28 0 42.5 -7.5t14.5 -31.5q0 -26 -19.5 -43.5t-53.5 -17.5l-43 -195q-20 -93 -99 -156t-176 -63q-82 0 -135 49t-53 123q0 26 5 47l43 195q-51 0 -51 40
q0 23 17 41.5t61 18.5h130q28 0 42 -7t14 -32q0 -24 -17.5 -42.5t-60.5 -18.5h-35l-45 -204q-2 -7 -2 -20q0 -39 30.5 -64.5t77.5 -25.5q53 0 97.5 32t54.5 78l45 204h-35q-31 0 -43.5 9t-12.5 31q0 23 17 41.5t61 18.5h129zM311 649q22 0 35.5 -13.5t13.5 -34.5
q0 -28 -23 -50t-52 -22q-20 0 -34 14t-14 34q0 27 23 49.5t51 22.5zM387 784l81 -81q16 -16 16 -37q0 -14 -14 -25t-29 -11q-14 0 -29 16l-81 82q-16 16 -16 36q0 15 13.5 25.5t29.5 10.5q12 0 29 -16z" />
    <glyph glyph-name="uni01DC" unicode="&#x1dc;" 
d="M373 784l80 -81q17 -17 17 -37q0 -13 -14 -24.5t-30 -11.5q-13 0 -29 16l-80 82q-17 17 -17 36q0 15 13.5 25.5t29.5 10.5q13 0 30 -16zM324 630q22 0 35.5 -13.5t13.5 -34.5q0 -28 -23 -50t-52 -22q-20 0 -34 14t-14 34q0 27 23 49.5t51 22.5zM532 630q22 0 35.5 -13.5
t13.5 -34.5q0 -28 -23 -50t-52 -22q-20 0 -34 14t-14 34q0 27 23 49.5t51 22.5zM390 377q0 24 18 42t60 18h135l-72 -337q52 0 52 -39q0 -24 -18.5 -42.5t-60.5 -18.5h-94l10 48q-45 -35 -76.5 -48t-73.5 -13q-66 0 -106.5 34t-40.5 89q0 19 5 46l38 182h-16q-30 0 -43 9
t-13 31q0 24 18 41.5t60 17.5h116l-59 -278q-3 -12 -3 -23q0 -49 75 -49q37 0 66 13.5t76 54.5l39 183h-35q-31 0 -44 9t-13 30z" />
    <glyph glyph-name="uni01DD" unicode="&#x1dd;" 
d="M349 350q-49 0 -119 -16.5t-84 -16.5q-17 0 -27.5 10.5t-10.5 27.5q0 34 33 51q32 17 105.5 30.5t133.5 13.5q102 0 161 -49.5t59 -135.5q0 -112 -94.5 -196.5t-218.5 -84.5q-97 0 -155 52t-58 139q0 17 13 87h409q-16 88 -147 88zM474 174h-295q4 -41 39 -65.5t89 -24.5
q56 0 101 24.5t66 65.5z" />
    <glyph glyph-name="uni01DE" unicode="&#x1de;" 
d="M309 798h244q25 0 35 -7.5t10 -25.5q0 -20 -17.5 -33.5t-44.5 -13.5h-244q-25 0 -35 7t-10 26q0 21 17 34t45 13zM360 34q0 20 18 35.5t60 15.5h23l-11 49h-238l-36 -49h23q28 0 42.5 -6.5t14.5 -27.5q0 -19 -18 -35t-60 -16h-132q-31 0 -44 7.5t-13 26.5q0 20 18 35.5
t61 15.5l236 326h-63q-31 0 -44 7.5t-13 26.5t17 35t61 16h216l97 -411q29 0 43.5 -6.5t14.5 -27.5q0 -20 -18 -35.5t-60 -15.5h-139q-30 0 -43 7.5t-13 26.5zM430 219l-38 163l-119 -163h157zM307 668q22 0 35.5 -13.5t13.5 -34.5q0 -28 -23 -50t-52 -22q-20 0 -34 14
t-14 34q0 27 23 49.5t51 22.5zM515 668q22 0 35.5 -13.5t13.5 -34.5q0 -28 -23 -50t-52 -22q-20 0 -34 14t-14 34q0 27 23 49.5t51 22.5z" />
    <glyph glyph-name="uni01DF" unicode="&#x1df;" 
d="M332 774h244q25 0 35 -7.5t10 -25.5q0 -20 -17.5 -33.5t-44.5 -13.5h-244q-25 0 -35 7t-10 26q0 21 17 34t45 13zM323 630q22 0 35.5 -13.5t13.5 -34.5q0 -28 -23 -50t-52 -22q-20 0 -34 14t-14 34q0 27 23 49.5t51 22.5zM531 630q22 0 35.5 -13.5t13.5 -34.5
q0 -28 -23 -50t-52 -22q-20 0 -34 14t-14 34q0 27 23 49.5t51 22.5zM583 61q0 -24 -18 -42.5t-60 -18.5h-117l5 23q-83 -39 -174 -39q-67 0 -110.5 32.5t-43.5 81.5q0 14 7 34.5t27.5 48.5t50 51t81 39.5t115.5 16.5q45 0 101 -10q6 24 6 33q0 39 -84 39q-39 0 -94 -11.5
t-68 -11.5q-17 0 -27.5 11t-10.5 28q0 45 68.5 64.5t151.5 19.5q78 0 123 -30.5t45 -82.5q0 -19 -4 -35l-43 -202h17q28 0 42 -7.5t14 -31.5zM320 196q-59 0 -102.5 -26t-43.5 -52q0 -14 19.5 -24t47.5 -10q83 0 177 51l10 50q-60 11 -108 11z" />
    <glyph glyph-name="uni01e0" unicode="&#x1e0;" 
d="M434 85h23l-12 49h-238l-34 -49h23q58 0 58 -32q0 -53 -76 -53h-133q-58 0 -58 33q0 52 77 52l224 326h-63q-59 0 -59 32q0 53 77 53h216l112 -411q60 0 60 -32q0 -53 -76 -53h-139q-58 0 -58 34q0 51 76 51zM422 219l-44 163l-113 -163h157zM437 673q22 0 35.5 -13.5
t13.5 -34.5q0 -30 -24 -51t-50 -21q-22 0 -35.5 13.5t-13.5 34.5q0 29 24 50.5t50 21.5zM325 720q-46 0 -46 29q0 19 14.5 35t48.5 16h244q46 0 46 -29q0 -19 -15 -35t-48 -16h-244z" />
    <glyph glyph-name="uni01e1" unicode="&#x1e1;" 
d="M427 630q22 0 35.5 -13.5t13.5 -34.5q0 -28 -23 -50t-52 -22q-20 0 -34 14t-14 34q0 28 22.5 50t51.5 22zM583 61q0 -24 -18 -42.5t-60 -18.5h-117l5 23q-83 -39 -174 -39q-67 0 -110.5 32.5t-43.5 81.5q0 14 7 34.5t27.5 48.5t50 51t81 39.5t115.5 16.5q45 0 101 -10
q6 24 6 33q0 39 -84 39q-39 0 -94 -11.5t-68 -11.5q-17 0 -27.5 11t-10.5 28q0 45 68.5 64.5t151.5 19.5q78 0 123 -30.5t45 -82.5q0 -19 -4 -35l-43 -202h17q28 0 42 -7.5t14 -31.5zM320 196q-59 0 -102.5 -26t-43.5 -52q0 -14 19.5 -24t47.5 -10q83 0 177 51l10 50
q-60 11 -108 11zM303 741h244q25 0 35 -7.5t10 -25.5q0 -20 -17.5 -33.5t-44.5 -13.5h-244q-25 0 -35 7t-10 26q0 21 17 34t45 13z" />
    <glyph glyph-name="uni01E2" unicode="&#x1e2;" 
d="M405 717h244q25 0 35 -7.5t10 -25.5q0 -20 -17.5 -33.5t-44.5 -13.5h-244q-25 0 -35 7t-10 26q0 21 17 34t45 13zM-10 40q0 24 17.5 42t60.5 18h7l196 383h-14q-31 0 -43.5 9t-12.5 31q0 23 17 41.5t61 18.5h438l-35 -165q-14 -66 -65 -66q-16 0 -27.5 11t-11.5 26
q0 12 4 29l14 65h-126l-30 -141h19q16 55 62 55q16 0 28 -11t12 -26q0 -4 -5 -29l-16 -78q-15 -66 -64 -66q-17 0 -28.5 11t-11.5 27q0 8 2 18h-19l-30 -143h146l5 23q15 66 64 66q18 0 29.5 -10.5t11.5 -27.5q0 -4 -5 -28l-26 -123h-348q-47 0 -47 41q0 23 18 41t43 18h9
l12 58h-93l-30 -58q33 -4 33 -35q0 -29 -19.5 -47t-50.5 -18h-94q-31 0 -44 9.5t-13 30.5zM322 259l45 212l-109 -212h64z" />
    <glyph glyph-name="uni01E3" unicode="&#x1e3;" 
d="M320 570h244q25 0 35 -7.5t10 -25.5q0 -20 -17.5 -33.5t-44.5 -13.5h-244q-25 0 -35 7t-10 26q0 21 17 34t45 13zM125 365q0 25 22 43.5t54.5 26.5t57.5 11.5t43 3.5q67 0 104 -56q65 56 125 56q59 0 96.5 -45t37.5 -115q0 -39 -18 -118h-250q2 -47 16.5 -67.5
t45.5 -20.5q25 0 72 17t61 17q16 0 26 -10.5t10 -27.5q0 -27 -23 -47t-56.5 -30t-62 -14.5t-49.5 -4.5q-50 0 -91 32q-19 -17 -41 -17q-21 0 -33 17q-58 -32 -116 -32q-67 0 -104.5 32.5t-37.5 89.5q0 76 50 115q36 28 91 46.5t101 18.5q16 0 59 -5q5 25 5 33q-2 36 -38 36
q-20 0 -64 -12.5t-55 -12.5q-16 0 -27 11.5t-11 28.5zM241 197q-52 0 -88 -18.5t-36 -48.5q0 -22 16 -34t44 -12q40 0 106 46l12 59q-29 8 -54 8zM417 258h140q1 10 1 22q0 32 -13.5 51t-37.5 19q-55 0 -90 -92z" />
    <glyph glyph-name="uni01e4" unicode="&#x1e4;" 
d="M629 161q-6 -29 -25 -39.5t-51 -10.5h-31l-14 -63q-76 -36 -121 -49t-99 -13q-65 0 -111.5 17t-71 47t-35.5 63t-11 71q0 31 6 62l15 71q25 117 122 198.5t222 81.5q70 0 127 -32q13 18 23.5 25t24.5 7q37 0 37 -36q0 -12 -4 -30l-17 -78q-7 -32 -21 -49t-43 -17
q-8 0 -14.5 2t-10 6t-6.5 7t-4 9.5t-1.5 9.5t-0.5 10.5v8.5q-3 25 -33.5 41t-72.5 16q-54 0 -97 -18t-69 -47t-40.5 -57.5t-21.5 -57.5l-13 -64q-6 -26 -6 -49q0 -35 13.5 -60t36 -36.5t45 -16.5t47.5 -5q57 0 119 25l21 100h-100q-57 0 -57 37q0 6 1 13q7 29 26 39.5
t51 10.5h200l-21 -100h31q57 0 57 -37q0 -6 -2 -13z" />
    <glyph glyph-name="uni01e5" unicode="&#x1e5;" 
d="M346 351q-57 0 -106 -38.5t-60 -93.5q-3 -14 -3 -27q0 -46 31.5 -76t80.5 -30q57 0 106.5 38.5t60.5 92.5q3 14 3 28q0 46 -31.5 76t-81.5 30zM581 -50q-10 -50 -76 -50h-36q-33 -46 -84 -73t-109 -27h-112q-56 0 -56 37q0 6 1 13q6 29 25 39.5t52 10.5h109q43 0 73.5 23
t38.5 62l10 50q-76 -49 -151 -49q-86 0 -139 50.5t-53 130.5q0 25 5 51q22 100 103.5 166.5t182.5 66.5q82 0 130 -50l8 36h116q57 0 57 -36q0 -6 -2 -14q-10 -50 -76 -50h-16l-72 -337h16q28 0 42.5 -7.5t14.5 -27.5q0 -7 -2 -15z" />
    <glyph glyph-name="Gcaron" unicode="&#x1e6;" 
d="M476 725l124 62q26 13 30 13q13 0 21.5 -9t8.5 -21q0 -11 -6.5 -20t-10 -11.5t-14.5 -8.5l-169 -94l-142 101q-10 10 -10 22q0 16 13 28.5t27 12.5q7 0 27 -13zM585 280q28 0 42.5 -8t14.5 -31q0 -46 -54 -61l-28 -132q-75 -36 -124 -49t-109 -13q-43 0 -81.5 8
t-78.5 27.5t-64 61t-24 101.5q0 25 7 62l15 71q24 114 119 197t224 83q82 0 139 -32q21 32 47 32q16 0 26.5 -10.5t10.5 -26.5q0 -10 -4 -29l-17 -78q-16 -66 -64 -66q-17 0 -25.5 8.5t-10 16.5t-2.5 28q-2 26 -34 41.5t-87 15.5q-83 0 -144.5 -49.5t-77.5 -130.5
q-20 -93 -20 -118q0 -54 42 -83.5t119 -29.5q69 0 132 25l14 69h-99q-31 0 -44 9t-13 31q0 23 17 41.5t61 18.5h175z" />
    <glyph glyph-name="gcaron" unicode="&#x1e7;" 
d="M393 580l124 62q26 13 30 13q13 0 21.5 -9t8.5 -21q0 -11 -6.5 -20t-10 -11.5t-14.5 -8.5l-169 -94l-142 101q-10 10 -10 22q0 16 13 28.5t27 12.5q7 0 27 -13zM107 -160q0 24 18 42t60 18h109q43 0 73.5 23t38.5 62l11 50q-78 -49 -152 -49q-85 0 -138.5 50.5
t-53.5 131.5q0 112 88 197.5t204 85.5q82 0 130 -50l7 36h117q28 0 42 -7.5t14 -32.5q0 -23 -18 -41.5t-60 -18.5h-16l-75 -352q-16 -79 -82 -132t-149 -53h-111q-31 0 -44 9t-13 31zM345 351q-65 0 -117 -48.5t-52 -109.5q0 -47 31.5 -77t81.5 -30q66 0 118 48.5t52 109.5
q0 47 -32 77t-82 30z" />
    <glyph glyph-name="uni01E8" unicode="&#x1e8;" 
d="M448 725l124 62q26 13 30 13q13 0 21.5 -9t8.5 -21q0 -11 -6.5 -20t-10 -11.5t-14.5 -8.5l-169 -94l-142 101q-10 10 -10 22q0 16 13 28.5t27 12.5q7 0 27 -13zM614 61q0 -24 -18.5 -42.5t-60.5 -18.5h-109q-13 107 -44 176t-74 83l-70 -51l-23 -108h35q28 0 42 -8
t14 -32q0 -22 -18 -41t-60 -19h-149q-31 0 -44 9.5t-13 30.5q0 24 18 42t60 18h15l81 383h-15q-31 0 -43.5 9t-12.5 31q0 23 17 41.5t61 18.5h149q19 0 29.5 -2t19 -11.5t8.5 -26.5q0 -23 -18 -41.5t-60 -18.5h-35l-31 -149l210 153q-23 9 -23 33q0 26 18 44.5t60 18.5h101
q28 0 42 -7.5t14 -31.5q0 -23 -17.5 -42t-56.5 -19l-209 -153q41 -24 73 -84t48 -146h32q29 0 43 -8t14 -31z" />
    <glyph glyph-name="uni01E9" unicode="&#x1e9;" 
d="M458 725l124 62q26 13 30 13q13 0 21.5 -9t8.5 -21q0 -11 -6.5 -20t-10 -11.5t-14.5 -8.5l-169 -94l-142 101q-10 10 -10 22q0 16 13 28.5t27 12.5q7 0 27 -13zM582 60q0 -23 -18 -41.5t-60 -18.5h-118q-31 0 -44 9t-13 31q0 25 25 47l-84 91l-21 -14l-34 -164h-117
q-30 0 -43 9t-13 31q0 23 18 41.5t60 18.5h16l90 424h-16q-31 0 -44 8.5t-13 30.5q0 24 17 42.5t61 18.5h116l-72 -337l92 63q-8 15 -8 26q0 25 18 43t60 18h112q31 0 44 -9t13 -30q0 -24 -18 -42.5t-60 -18.5h-27l-139 -96l130 -141h33q28 0 42.5 -7.5t14.5 -32.5z" />
    <glyph glyph-name="uni01EA" unicode="&#x1ea;" 
d="M242 -124q16 0 42.5 12t37.5 12q14 0 22.5 -8.5t8.5 -21.5q0 -18 -15 -32.5t-37.5 -22t-44 -11.5t-37.5 -4q-36 0 -56.5 17.5t-20.5 48.5q0 41 21 69t75 59q-73 19 -118 81t-45 145q0 80 34 152.5t86 120.5t113.5 76t117.5 28q96 0 159.5 -66t63.5 -165q0 -77 -29.5 -146
t-77 -116.5t-103.5 -78t-112 -37.5q-72 -41 -91 -65q-13 -17 -13 -32t19 -15zM405 497q-86 0 -156.5 -79t-70.5 -175q0 -68 39.5 -112.5t99.5 -44.5q88 0 158.5 79t70.5 177q0 67 -40 111t-101 44z" />
    <glyph glyph-name="uni01EB" unicode="&#x1eb;" 
d="M250 -124q16 0 42.5 12t37.5 12q14 0 22.5 -8.5t8.5 -21.5q0 -18 -15 -32.5t-37.5 -22t-44 -11.5t-37.5 -4q-36 0 -56.5 17.5t-20.5 48.5q0 40 21 65.5t76 56.5q-75 13 -119 63t-44 123q0 59 36 121t110.5 108.5t168.5 46.5q93 0 151.5 -53t58.5 -137q0 -97 -78 -176
t-187 -96q-3 -2 -22.5 -12t-31 -17.5t-27.5 -19t-24 -24t-8 -24.5q0 -15 19 -15zM376 350q-77 0 -133.5 -47t-56.5 -111q0 -47 37 -77.5t95 -30.5q76 0 132.5 47.5t56.5 110.5q0 47 -37 77.5t-94 30.5z" />
    </font>
</defs>
</svg>
