<?xml version="1.0" standalone="no"?>
<!DOCTYPE svg PUBLIC "-//W3C//DTD SVG 1.1//EN" "http://www.w3.org/Graphics/SVG/1.1/DTD/svg11.dtd" >
<svg xmlns="http://www.w3.org/2000/svg" xmlns:xlink="http://www.w3.org/1999/xlink" version="1.1">
<metadata>
Created by FontForge 20200511 at Sun Sep 19 12:35:57 2010
 By convertio
Copyleft 2002, 2003, 2005, 2008, 2009, 2010 Free Software Foundation.
</metadata>
<defs>
<font id="FreeSerif" horiz-adv-x="0" >
  <font-face 
    font-family="FreeSerif"
    font-weight="400"
    font-stretch="normal"
    units-per-em="1000"
    panose-1="2 2 6 3 5 4 5 2 3 4"
    ascent="800"
    descent="-200"
    x-height="450"
    cap-height="662"
    bbox="-879 -545 1767 934"
    underline-thickness="50"
    underline-position="-150"
    unicode-range="U+0020-1F093"
  />
<missing-glyph horiz-adv-x="700" 
d="M88 0v666h524v-666h-524zM164 33h372v600h-372v-600z" />
    <glyph glyph-name="IJ" unicode="IJ" horiz-adv-x="703" 
d="M373 108q21 0 33 -13t16 -29t11 -29t19 -13q38 0 38 66v463q0 55 -16 70.5t-77 19.5v19h287v-19q-61 -4 -76.5 -19.5t-15.5 -70.5v-370q0 -94 -44 -145.5t-125 -51.5q-43 0 -71 20t-28 52q0 20 14.5 35t34.5 15zM115 109v444q0 55 -16.5 70.5t-80.5 19.5v19h297v-19
q-63 -3 -80.5 -19t-17.5 -71v-444q0 -55 18 -71.5t80 -18.5v-19h-297v19q63 2 80 18t17 72z" />
    <glyph glyph-name="ij" unicode="ij" horiz-adv-x="529" 
d="M328 393l-45 -3v16q80 25 156 54l5 -3v-457q0 -106 -43 -162t-126 -56q-41 0 -67.5 15.5t-26.5 39.5q0 16 12 27.5t29 11.5q21 0 46 -30t44 -30q30 0 39 31t9 108v379q0 32 -7.5 45.5t-24.5 13.5zM393 683q22 0 37 -15t15 -36q0 -22 -15 -36.5t-37 -14.5q-21 0 -35.5 15
t-14.5 36t15 36t35 15zM62 393q-22 0 -42 -3v15q70 20 155 55l4 -3v-355q0 -54 12.5 -68.5t61.5 -18.5v-15h-237v15q52 3 65.5 18t13.5 69v232q0 33 -7.5 46t-25.5 13zM128 683q22 0 37 -15t15 -36q0 -22 -15 -36.5t-37 -14.5q-21 0 -35.5 15t-14.5 36t15 36t35 15z" />
    <glyph glyph-name="ee2_sinh" unicode="&#xdd9;&#xdca;" horiz-adv-x="1062" 
d="M904 597v-111l-22 8v333q7 -4 34 -22.5t37 -25.5t32 -24.5t31.5 -29t22.5 -28.5t18 -34.5t5 -36.5q0 -26 -19.5 -40.5t-50.5 -14.5q-45 0 -88 26zM904 786v-164q28 -17 54 -17q22 0 36 11t14 29q0 42 -28 75t-76 66zM404 291q0 -35 -23.5 -61t-63.5 -26t-63.5 26
t-23.5 61q0 30 17 52.5t43.5 33.5t50.5 16t46 5q79 0 136.5 -50t57.5 -127q0 -68 -41 -120t-103 -76.5t-132 -24.5q-108 0 -186.5 72t-78.5 176q0 122 94.5 204.5t225.5 82.5q99 0 183 -53t127 -143q0 -1 0.5 -2.5t0.5 -2.5q0 -11 -11 -11q-7 0 -10 6q-40 84 -118.5 134
t-171.5 50q-120 0 -209 -71t-89 -179q0 -77 67.5 -124.5t158.5 -47.5q270 0 271 131q-1 68 -51.5 111t-120.5 43q-19 0 -37 -3q26 -9 40 -32t14 -50zM317 356q-31 0 -48 -19.5t-17 -45.5t17 -45.5t48 -19.5t48 19.5t17 45.5t-16.5 45.5t-48.5 19.5z" />
    <glyph glyph-name="o2_sinh" unicode="&#xdd9;&#xdcf;" horiz-adv-x="1278" 
d="M969 387q0 45 35.5 74.5t84.5 29.5q70 0 109.5 -66.5t39.5 -157.5t-39.5 -157.5t-109.5 -66.5q-49 0 -84.5 30t-35.5 75h22q0 -26 22 -42.5t52 -16.5q52 0 76 52t24 126q0 75 -24 127t-76 52q-30 0 -52 -16.5t-22 -42.5h-22zM404 291q0 -35 -23.5 -61t-63.5 -26t-63.5 26
t-23.5 61q0 30 17 52.5t43.5 33.5t50.5 16t46 5q79 0 136.5 -50t57.5 -127q0 -68 -41 -120t-103 -76.5t-132 -24.5q-108 0 -186.5 72t-78.5 176q0 122 94.5 204.5t225.5 82.5q99 0 183 -53t127 -143q0 -1 0.5 -2.5t0.5 -2.5q0 -11 -11 -11q-7 0 -10 6q-40 84 -118.5 134
t-171.5 50q-120 0 -209 -71t-89 -179q0 -77 67.5 -124.5t158.5 -47.5q270 0 271 131q-1 68 -51.5 111t-120.5 43q-19 0 -37 -3q26 -9 40 -32t14 -50zM317 356q-31 0 -48 -19.5t-17 -45.5t17 -45.5t48 -19.5t48 19.5t17 45.5t-16.5 45.5t-48.5 19.5z" />
    <glyph glyph-name="oo2_sinh" unicode="&#xddc;&#xdca;" horiz-adv-x="1235" 
d="M860 387q0 45 35.5 74.5t84.5 29.5q20 0 42.5 -9t33.5 -18v362q3 -2 23 -15t25 -16.5t23.5 -16.5t25 -18.5t21.5 -18.5t20.5 -21t15.5 -21t14 -23.5t7.5 -24t3.5 -26.5q0 -26 -19 -40t-51 -14q-43 0 -87 25v-154q51 -66 51 -175q0 -91 -39.5 -157.5t-109.5 -66.5
q-49 0 -84.5 30t-35.5 75h22q0 -26 22 -42.5t52 -16.5q52 0 76 52t24 126q0 75 -24 127t-76 52q-30 0 -52 -16.5t-22 -42.5h-22zM1078 785v-163q26 -17 53 -17q22 0 36.5 11t14.5 29q0 42 -28 75t-76 65zM404 291q0 -35 -23.5 -61t-63.5 -26t-63.5 26t-23.5 61q0 30 17 52.5
t43.5 33.5t50.5 16t46 5q79 0 136.5 -50t57.5 -127q0 -68 -41 -120t-103 -76.5t-132 -24.5q-108 0 -186.5 72t-78.5 176q0 122 94.5 204.5t225.5 82.5q99 0 183 -53t127 -143q0 -1 0.5 -2.5t0.5 -2.5q0 -11 -11 -11q-7 0 -10 6q-40 84 -118.5 134t-171.5 50q-120 0 -209 -71
t-89 -179q0 -77 67.5 -124.5t158.5 -47.5q270 0 271 131q-1 68 -51.5 111t-120.5 43q-19 0 -37 -3q26 -9 40 -32t14 -50zM317 356q-31 0 -48 -19.5t-17 -45.5t17 -45.5t48 -19.5t48 19.5t17 45.5t-16.5 45.5t-48.5 19.5z" />
    <glyph glyph-name="au2_sinh" unicode="&#xdd9;&#xddf;" horiz-adv-x="1292" 
d="M983 387q0 45 35.5 74.5t84.5 29.5q70 0 109.5 -66.5t39.5 -157.5t-39.5 -157.5t-109.5 -66.5q-49 0 -84.5 30t-35.5 75h23q0 -26 21.5 -42.5t51.5 -16.5q52 0 76 52t24 126q0 75 -24 127t-76 52q-27 0 -48 -14t-25 -36q3 1 10 1q27 0 46 -24.5t19 -55.5q0 -30 -21 -51
t-64 -21q-60 0 -102.5 41.5t-42.5 100.5q0 51 32 94l17 -15q-27 -35 -27 -79q0 -40 29 -68.5t69 -28.5q30 0 44.5 14.5t14.5 34.5q0 13 -6.5 23t-16.5 10q-7 0 -12 -4zM404 291q0 -35 -23.5 -61t-63.5 -26t-63.5 26t-23.5 61q0 30 17 52.5t43.5 33.5t50.5 16t46 5
q79 0 136.5 -50t57.5 -127q0 -68 -41 -120t-103 -76.5t-132 -24.5q-108 0 -186.5 72t-78.5 176q0 122 94.5 204.5t225.5 82.5q99 0 183 -53t127 -143q0 -1 0.5 -2.5t0.5 -2.5q0 -11 -11 -11q-7 0 -10 6q-40 84 -118.5 134t-171.5 50q-120 0 -209 -71t-89 -179
q0 -77 67.5 -124.5t158.5 -47.5q270 0 271 131q-1 68 -51.5 111t-120.5 43q-19 0 -37 -3q26 -9 40 -32t14 -50zM317 356q-31 0 -48 -19.5t-17 -45.5t17 -45.5t48 -19.5t48 19.5t17 45.5t-16.5 45.5t-48.5 19.5z" />
    <glyph glyph-name="yi_yi_lig_ukrainian" unicode="&#x457;&#x457;" horiz-adv-x="533" 
d="M332 682q21 0 36 -15t15 -35t-15 -34.5t-36 -14.5q-20 0 -34 14.5t-14 35.5q0 19 14.5 34t33.5 15zM176 682q21 0 36 -15t15 -35t-15 -34.5t-36 -14.5q-20 0 -34 14.5t-14 35.5q0 19 14.5 34t33.5 15zM487 682q21 0 36 -15t15 -35t-15 -34.5t-36 -14.5q-20 0 -34 14.5
t-14 35.5q0 19 14.5 34t33.5 15zM24 682q21 0 36 -15t15 -35t-15 -34.5t-36 -14.5q-20 0 -34 14.5t-14 35.5q0 19 14.5 34t33.5 15zM317 394q-12 0 -42 -4v15l155 55l4 -3v-355q0 -54 12.5 -68.5t61.5 -18.5v-15h-237v15q52 3 65.5 18t13.5 69v232q0 33 -7.5 46.5
t-25.5 13.5zM62 394q-12 0 -42 -4v15l155 55l4 -3v-355q0 -54 12.5 -68.5t61.5 -18.5v-15h-237v15q52 3 65.5 18t13.5 69v232q0 33 -7.5 46.5t-25.5 13.5z" />
    <glyph glyph-name="uni0937091F" unicode="&#x937;&#x91f;" horiz-adv-x="629" 
d="M95 282q-96 87 -96 167q0 31 3 51t6.5 28.5t3.5 10.5q0 5 -16 21q-35 35 -35 50h609q2 0 8 0.5t8 0.5q19 0 50.5 -32.5t31.5 -44.5q-1 -3 -8 -3h-4.5h-3.5h-269v-284q24 -2 70 -57t46 -104q0 -56 -57 -90t-150 -34q-66 0 -120 17t-85 41.5t-52 53.5t-28.5 51t-7.5 37
q0 46 33.5 77.5t62.5 42.5zM121 531l183 -171v171h-183zM95 480q-18 -72 -18 -100q0 -41 14.5 -62t34.5 -21q6 0 11 2q59 18 126 24zM419 164q0 29 -18 50.5t-19 31.5q-76 0 -147.5 -19.5t-113.5 -55.5q-43 -34 -43 -83q0 -9 1 -13q0 -17 49.5 -25.5t85.5 -8.5q47 0 89.5 9
t79 38.5t36.5 75.5z" />
    <glyph glyph-name="thai_yo_u" unicode="&#xe0d;&#xe38;" horiz-adv-x="717" 
d="M496 -130q0 31 17 54.5t58 23.5q39 0 60 -25t21 -70v-153h-59v110q-19 -17 -37 -17q-25 0 -42.5 22.5t-17.5 54.5zM593 -130q0 18 -10.5 36.5t-26.5 18.5q-17 0 -27.5 -18.5t-10.5 -36.5q0 -17 10.5 -35.5t27.5 -18.5q16 0 26.5 18.5t10.5 35.5zM247 527q90 0 149.5 -48
t59.5 -127v-330h76q17 0 27.5 18.5t10.5 35.5v451h83v-451q0 -31 -17.5 -53.5t-41.5 -22.5h-221v339q0 78 -40 111t-95 33q-95 0 -154 -62q39 -1 73 -16t48 -40q-2 -1 -11 -4t-11 -4t-8.5 -4t-8.5 -6t-5.5 -8t-4.5 -11.5t-1 -14.5v-185q15 17 37 17q25 0 42.5 -22.5
t17.5 -53.5q0 -32 -17.5 -55t-60.5 -23q-44 0 -71 25t-27 70v191q0 39 20 61.5t68 34.5q-24 17 -46.5 22.5t-71.5 7.5q24 54 81 89t120 35zM229 69q0 17 -10.5 35.5t-26.5 18.5t-26.5 -18.5t-10.5 -35.5q0 -19 10.5 -37.5t26.5 -18.5t26.5 18.5t10.5 37.5z" />
    <glyph glyph-name="thai_yo_uu" unicode="&#xe0d;&#xe39;" horiz-adv-x="717" 
d="M377 -124q0 31 17 54.5t58 23.5q39 0 60 -25t21 -70v-106q0 -13 8.5 -21.5t21.5 -8.5t21.5 8.5t8.5 21.5v194h59v-171q0 -30 -15 -53t-38 -23h-72q-23 0 -38 23t-15 53v40q-19 -17 -38 -17q-24 0 -41.5 23t-17.5 54zM474 -124q0 18 -10.5 36.5t-27.5 18.5
q-16 0 -26.5 -18.5t-10.5 -36.5q0 -17 10.5 -35.5t26.5 -18.5q17 0 27.5 18.5t10.5 35.5zM247 527q90 0 149.5 -48t59.5 -127v-330h76q17 0 27.5 18.5t10.5 35.5v451h83v-451q0 -31 -17.5 -53.5t-41.5 -22.5h-221v339q0 78 -40 111t-95 33q-95 0 -154 -62q39 -1 73 -16
t48 -40q-2 -1 -11 -4t-11 -4t-8.5 -4t-8.5 -6t-5.5 -8t-4.5 -11.5t-1 -14.5v-185q15 17 37 17q25 0 42.5 -22.5t17.5 -53.5q0 -32 -17.5 -55t-60.5 -23q-44 0 -71 25t-27 70v191q0 39 20 61.5t68 34.5q-24 17 -46.5 22.5t-71.5 7.5q24 54 81 89t120 35zM229 69
q0 17 -10.5 35.5t-26.5 18.5t-26.5 -18.5t-10.5 -35.5q0 -19 10.5 -37.5t26.5 -18.5t26.5 18.5t10.5 37.5z" />
    <glyph glyph-name="thai_yo_phinthu" unicode="&#xe0d;&#xe3a;" horiz-adv-x="717" 
d="M655 -117q0 -24 -17 -37t-35 -13t-34.5 13t-16.5 37q0 22 15 37.5t36 15.5t36.5 -15.5t15.5 -37.5zM247 527q90 0 149.5 -48t59.5 -127v-330h76q17 0 27.5 18.5t10.5 35.5v451h83v-451q0 -31 -17.5 -53.5t-41.5 -22.5h-221v339q0 78 -40 111t-95 33q-95 0 -154 -62
q39 -1 73 -16t48 -40q-2 -1 -11 -4t-11 -4t-8.5 -4t-8.5 -6t-5.5 -8t-4.5 -11.5t-1 -14.5v-185q15 17 37 17q25 0 42.5 -22.5t17.5 -53.5q0 -32 -17.5 -55t-60.5 -23q-44 0 -71 25t-27 70v191q0 39 20 61.5t68 34.5q-24 17 -46.5 22.5t-71.5 7.5q24 54 81 89t120 35zM229 69
q0 17 -10.5 35.5t-26.5 18.5t-26.5 -18.5t-10.5 -35.5q0 -19 10.5 -37.5t26.5 -18.5t26.5 18.5t10.5 37.5z" />
    <glyph glyph-name="thai_tho_u" unicode="&#xe10;&#xe38;" horiz-adv-x="457" 
d="M193 -130q0 31 17 54.5t58 23.5q39 0 60 -25t21 -70v-153h-59v110q-19 -17 -37 -17q-25 0 -42.5 22.5t-17.5 54.5zM290 -130q0 18 -10.5 36.5t-26.5 18.5q-17 0 -27.5 -18.5t-10.5 -36.5q0 -17 10.5 -35.5t27.5 -18.5q16 0 26.5 18.5t10.5 35.5zM192 519q30 0 79.5 -23
t63.5 -24q21 0 34 11t26 41h30q-6 -22 -10.5 -33t-16.5 -32.5t-32.5 -32t-48.5 -10.5q-24 0 -69.5 15t-70.5 15q-70 0 -93 -61q59 14 107 14q89 0 123 -37t34 -108v-254h-83q0 219 -66 268q12 -22 12 -46q0 -31 -17.5 -53.5t-42.5 -22.5q-24 0 -41.5 22.5t-17.5 53.5
q0 37 20.5 58.5t54.5 21.5q48 0 98 -44q0 50 -29.5 76.5t-100.5 26.5q-52 0 -96 -13q1 72 46 121.5t107 49.5zM188 222q0 17 -10.5 35.5t-26.5 18.5t-26.5 -18.5t-10.5 -35.5q0 -18 10.5 -37t26.5 -19t26.5 19t10.5 37z" />
    <glyph glyph-name="thai_tho_uu" unicode="&#xe10;&#xe39;" horiz-adv-x="457" 
d="M73 -124q0 31 17 54.5t58 23.5q39 0 60 -25t21 -70v-106q0 -13 8.5 -21.5t21.5 -8.5t21.5 8.5t8.5 21.5v194h59v-171q0 -30 -15 -53t-38 -23h-72q-23 0 -38 23t-15 53v40q-19 -17 -38 -17q-24 0 -41.5 23t-17.5 54zM170 -124q0 18 -10.5 36.5t-27.5 18.5
q-16 0 -26.5 -18.5t-10.5 -36.5q0 -17 10.5 -35.5t26.5 -18.5q17 0 27.5 18.5t10.5 35.5zM192 519q30 0 79.5 -23t63.5 -24q21 0 34 11t26 41h30q-6 -22 -10.5 -33t-16.5 -32.5t-32.5 -32t-48.5 -10.5q-24 0 -69.5 15t-70.5 15q-70 0 -93 -61q59 14 107 14q89 0 123 -37
t34 -108v-254h-83q0 219 -66 268q12 -22 12 -46q0 -31 -17.5 -53.5t-42.5 -22.5q-24 0 -41.5 22.5t-17.5 53.5q0 37 20.5 58.5t54.5 21.5q48 0 98 -44q0 50 -29.5 76.5t-100.5 26.5q-52 0 -96 -13q1 72 46 121.5t107 49.5zM188 222q0 17 -10.5 35.5t-26.5 18.5t-26.5 -18.5
t-10.5 -35.5q0 -18 10.5 -37t26.5 -19t26.5 19t10.5 37z" />
    <glyph glyph-name="thai_tho_phinthu" unicode="&#xe10;&#xe3a;" horiz-adv-x="457" 
d="M359 -117q0 -24 -17 -37t-35 -13t-34.5 13t-16.5 37q0 22 15 37.5t36 15.5t36.5 -15.5t15.5 -37.5zM192 519q30 0 79.5 -23t63.5 -24q21 0 34 11t26 41h30q-6 -22 -10.5 -33t-16.5 -32.5t-32.5 -32t-48.5 -10.5q-24 0 -69.5 15t-70.5 15q-70 0 -93 -61q59 14 107 14
q89 0 123 -37t34 -108v-254h-83q0 219 -66 268q12 -22 12 -46q0 -31 -17.5 -53.5t-42.5 -22.5q-24 0 -41.5 22.5t-17.5 53.5q0 37 20.5 58.5t54.5 21.5q48 0 98 -44q0 50 -29.5 76.5t-100.5 26.5q-52 0 -96 -13q1 72 46 121.5t107 49.5zM188 222q0 17 -10.5 35.5t-26.5 18.5
t-26.5 -18.5t-10.5 -35.5q0 -18 10.5 -37t26.5 -19t26.5 19t10.5 37z" />
    <glyph glyph-name="thai_ru_saraaa" unicode="&#xe24;&#xe32;" horiz-adv-x="819" 
d="M755 -224h-83v603q0 47 -17 71t-58 24q-57 0 -112 -82l-19 11q80 124 175 124q44 0 79 -33t35 -113v-605zM257 527q90 0 149.5 -48t59.5 -127v-577h-83v564q0 78 -40 111t-95 33q-95 0 -154 -62q39 -1 73 -16t48 -40q-27 -10 -38.5 -20t-11.5 -32v-185q15 17 37 17
q25 0 42.5 -22.5t17.5 -53.5q0 -32 -17.5 -55t-60.5 -23q-44 0 -71 25t-27 70v191q0 39 20 61.5t68 34.5q-24 17 -46.5 22.5t-71.5 7.5q24 54 81 89t120 35zM239 69q0 17 -10.5 35.5t-26.5 18.5t-26.5 -18.5t-10.5 -35.5q0 -19 10.5 -37.5t26.5 -18.5t26.5 18.5t10.5 37.5z
" />
    <glyph glyph-name="thai_lu_saraaa" unicode="&#xe26;&#xe32;" horiz-adv-x="857" 
d="M793 -224h-83v603q0 47 -17 71t-58 24q-57 0 -112 -82l-19 11q80 124 175 124q44 0 79 -33t35 -113v-605zM294 527q91 0 150.5 -48t59.5 -127v-578h-84v565q0 78 -40 111t-95 33q-95 0 -153 -62q88 -2 125 -61q-22 -9 -28.5 -19t-6.5 -31v-225q0 -45 -27 -70t-71 -25
q-42 0 -60 23.5t-18 54.5t17.5 53.5t42.5 22.5q22 0 37 -17v150q0 70 74 92q-19 15 -37 21.5t-30 8t-56 4.5q23 53 80 88.5t120 35.5zM143 68q0 17 -10.5 35.5t-26.5 18.5q-17 0 -27.5 -18.5t-10.5 -35.5q0 -19 10.5 -37.5t27.5 -18.5q16 0 26.5 18.5t10.5 37.5z" />
    <glyph glyph-name="hanunoo_hi" unicode="&#x1731;&#x1732;" horiz-adv-x="502" 
d="M162 657l-76 -575l380 617l36 -18l-411 -681h-68l94 657h45zM411 772l-143 -294l-36 18l143 294z" />
    <glyph glyph-name="hanunoo_ngi" unicode="&#x1725;&#x1732;" horiz-adv-x="502" 
d="M70 603h42v-521l141 247l-75 100l35 32l65 -88l188 326l36 -18l-192 -349l126 -163l-34 -34l-117 154l-168 -289h-45z" />
    <glyph glyph-name="hanunoo_pi" unicode="&#x1729;&#x1732;" horiz-adv-x="503" 
d="M175 581l-63 -499l139 242l-55 114l42 18l40 -84l188 327l36 -18l-198 -355l84 -179l-42 -19l-70 145l-159 -273h-45l59 566h-127v39h141z" />
    <glyph glyph-name="hanunoo_du" unicode="&#x1727;&#x1733;" horiz-adv-x="502" 
d="M122 551v132h40v-132h-40zM6 508h157v-426l303 617l36 -18l-175 -356l149 -273l-38 -28l-135 251l-135 -275h-45v460h-117v48z" />
    <glyph glyph-name="hanunoo_hu" unicode="&#x1731;&#x1733;" horiz-adv-x="502" 
d="M162 657l-76 -575l380 617l36 -18l-411 -681h-68l94 657h45zM444 340l-136 -207l-32 23l136 207z" />
    <glyph glyph-name="hanunoo_lu" unicode="&#x172e;&#x1733;" horiz-adv-x="500" 
d="M7 4l180 687h47l-164 -580l364 581l46 -2l-171 -628l134 59l32 -25l-49 -198h-49l46 172l-129 -66h-47l173 594l-362 -594h-51zM424 246l175 -100l-23 -32l-174 97z" />
    <glyph glyph-name="hanunoo_mu" unicode="&#x172b;&#x1733;" horiz-adv-x="502" 
d="M112 82l131 228l-85 152zM175 581l-9 -63l97 -172l203 353l36 -18l-208 -372l123 -186l-3 -3l-82 -123l-32 23l70 106l-96 145l-157 -271h-45l59 566h-127v39h141z" />
    <glyph glyph-name="hanunoo_ngu" unicode="&#x1725;&#x1733;" horiz-adv-x="502" 
d="M70 603h42v-521l354 617l36 -18l-198 -355l176 -98l-16 -36l-179 97l-36 -63l186 -94l-21 -36l-187 92l-110 -188h-45z" />
    <glyph glyph-name="hanunoo_pu" unicode="&#x1729;&#x1733;" horiz-adv-x="503" 
d="M175 581l-63 -499l354 617l36 -18l-198 -355l176 -98l-16 -36l-179 97l-36 -63l186 -94l-21 -36l-187 92l-110 -188h-45l59 566h-127v39h141z" />
    <glyph glyph-name="hanunoo_tu" unicode="&#x1726;&#x1733;" horiz-adv-x="502" 
d="M10 22l87 672h39l-66 -522l198 525l41 -1l-2 -590l195 594h41l-228 -698l-48 -1v576l-210 -555h-47zM408 130l174 -100l-23 -32l-174 97z" />
    <glyph glyph-name="hanunoo_gu" unicode="&#x1724;&#x1733;" horiz-adv-x="500" 
d="M7 4l180 687h47l-164 -580l364 581l46 -2l-186 -686h-47l173 594l-362 -594h-51zM483 376l-54 -217l-38 11l54 217z" />
    <glyph glyph-name="ff" unicode="ff" horiz-adv-x="589" 
d="M638 622q0 -18 -12.5 -30t-30.5 -12q-14 0 -26 11.5t-19.5 26t-20 26t-28.5 11.5q-60 0 -60 -89v-116h123v-32h-122v-330q0 -41 14 -56.5t55 -16.5v-15h-220v15q43 1 55 17t12 62v324h-187v-330q0 -41 14 -56.5t55 -16.5v-15h-220v15q43 1 55 17t12 62v324h-67v32h67
q5 109 59 171t160 62q87 0 115 -39q43 39 117 39q34 0 67 -15.5t33 -45.5zM274 658q-41 0 -72.5 -31t-31.5 -112v-65h188q0 80 19 129q-13 7 -26.5 28t-31 36t-45.5 15z" />
    <glyph glyph-name="fi" unicode="fi" horiz-adv-x="534" 
d="M396 574q-16 0 -29.5 13t-23 29t-27 29t-40.5 13q-34 0 -60.5 -20.5t-37.5 -52.5q-8 -27 -8 -92v-43h157q50 0 113 10l4 -3q-2 -53 -2 -98v-262q0 -48 12.5 -63t54.5 -19v-15h-220v15q46 4 57.5 17.5t11.5 64.5v264q0 40 -14.5 48t-86.5 8h-86v-329q0 -41 13.5 -55.5
t55.5 -17.5v-15h-220v15q42 1 54.5 16t12.5 63v323h-67v33h68q3 34 7.5 60.5t18.5 61t36 57t62 38.5t93 16q58 0 92.5 -19t34.5 -51q0 -17 -10 -28t-26 -11z" />
    <glyph glyph-name="fl" unicode="fl" horiz-adv-x="530" 
d="M20 15q44 3 56.5 19t12.5 71v313h-69v32h71q3 66 12.5 102t31.5 68q45 63 121 63q32 0 68 -12.5t43 -12.5q9 0 37.5 12t35.5 13l5 -2v-600q0 -39 11.5 -51t52.5 -15v-15h-215v15q39 3 53 17.5t14 51.5v334h-188v-339q0 -34 14 -46.5t57 -17.5v-15h-224v15zM345 584
q-20 0 -34 11t-20 25t-19.5 25t-33.5 11q-65 0 -65 -154v-52h188v141q-7 -7 -16 -7z" />
    <glyph glyph-name="ffi" unicode="ffi" horiz-adv-x="805" 
d="M545 658q-41 0 -72.5 -31t-31.5 -112v-65h157q60 0 113 10l4 -3q-2 -66 -2 -98v-262q0 -46 12 -62.5t55 -19.5v-15h-220v15q47 3 58 18.5t11 63.5v264q0 38 -17 48t-93 10q-14 0 -40.5 -0.5t-36.5 -0.5v-330q0 -41 14 -56.5t55 -16.5v-15h-218v15q42 1 53.5 17.5
t11.5 61.5v324h-187v-330q0 -41 14 -56.5t55 -16.5v-15h-220v15q43 1 55 17t12 62v324h-67v32h68q4 109 58 171t160 62q102 0 122 -51q54 51 149 51q48 0 87 -16t39 -56q0 -15 -10 -26t-25 -11q-17 0 -31 13t-22.5 29t-26.5 29t-43 13zM274 658q-41 0 -72.5 -31t-31.5 -112
v-65h189q3 75 27 126q-14 3 -26 17t-20 28t-25.5 25.5t-40.5 11.5z" />
    <glyph glyph-name="ffl" unicode="ffl" horiz-adv-x="799" 
d="M778 0h-215v15q37 3 52 17.5t15 51.5v334h-188v-333q0 -37 15.5 -50.5t55.5 -19.5v-15h-224v15q40 5 54.5 19.5t14.5 53.5v330h-187v-330q0 -41 14 -56.5t55 -16.5v-15h-220v15q43 1 55 17t12 62v324h-67v32h68q4 109 58 171t160 62q91 0 117 -42q42 42 105 42
q27 0 63 -12.5t46 -12.5q9 0 36 12t36 13l5 -2v-600q0 -39 12.5 -52t51.5 -14v-15zM630 450v141q-6 -7 -15 -7q-20 0 -34 11t-21 25t-20 25t-32 11q-66 0 -66 -155v-51h188zM274 658q-41 0 -72.5 -31t-31.5 -112v-65h190q0 74 21 127q-14 6 -28 27t-32 37.5t-47 16.5z" />
    <glyph glyph-name="m_n_armenian" unicode="&#x574;&#x576;" horiz-adv-x="971" 
d="M691 514q-6 48 -41.5 90t-95.5 42q-81 0 -105.5 -25.5t-25.5 -108.5h209v-388q0 -31 21 -53.5t50 -22.5q11 0 26 3.5t34.5 11.5t33 27t13.5 45v235q0 37 -13.5 49t-60.5 14v17h158v-343q0 -35 11 -46t46 -11h5v-14q-78 -21 -137 -45l-4 2v76q-28 -28 -39.5 -38.5
t-42.5 -25.5t-64 -15q-55 0 -88 35.5t-33 94.5v360h-125v-373q0 -35 11.5 -46t45.5 -11h5v-14q-78 -21 -137 -45l-4 2v76q-34 -38 -66.5 -58.5t-79.5 -20.5q-55 0 -88 35.5t-33 94.5v252q0 35 -13 48.5t-49 15.5v14h146v-326q0 -31 21 -53.5t50 -22.5q11 0 26 3.5t34.5 11.5
t33 27t13.5 45v345h-47q-32 0 -76 10t-73 21.5t-29 16.5q0 13 35.5 33.5t65.5 20.5q5 0 16 -17.5t30 -35t45 -17.5h33q4 89 56.5 126.5t173.5 37.5q169 0 190 -140z" />
    <glyph glyph-name="m_e_armenian" unicode="&#x574;&#x565;" horiz-adv-x="969" 
d="M546 631q-60 0 -91.5 -37.5t-31.5 -127.5v-359q0 -38 12.5 -47.5t49.5 -9.5v-14q-94 -26 -142 -45l-4 2v76l-17.5 -17.5t-19.5 -19t-19.5 -15.5t-24.5 -15t-26.5 -8t-33.5 -4q-55 0 -88 35.5t-33 94.5v252q0 35 -13 48.5t-49 15.5v14h146v-326q0 -31 21 -53.5t50 -22.5
q11 0 26 3.5t34.5 11.5t33 27t13.5 45v331q0 98 54 147t198 49h39v-180h260v-32h-260v-326q0 -31 21 -53.5t50 -22.5q11 0 26 3.5t34.5 11.5t33 27t13.5 45v128q0 37 -13.5 49t-60.5 14v17h158v-236q0 -38 12.5 -47.5t49.5 -9.5v-14q-94 -26 -142 -45l-4 2v76
q-4 -4 -13 -13.5t-13.5 -14t-14 -13t-16 -12.5t-17 -10t-20 -9t-22 -5t-25.5 -2q-55 0 -88 35.5t-33 94.5v511z" />
    <glyph glyph-name="m_i_armenian" unicode="&#x574;&#x56b;" horiz-adv-x="978" 
d="M633 376q35 45 69 64.5t78 19.5q123 0 123 -159v-199q0 -52 9.5 -65.5t50.5 -21.5v-15h-212v15q43 4 55.5 20t12.5 67v198q0 106 -75 106q-29 0 -54.5 -14.5t-56.5 -48.5v-441q0 -52 12 -67t56 -20v-15h-216v15q43 6 53.5 20t10.5 67v729q-126 0 -126 -165v-359
q0 -38 12.5 -47.5t49.5 -9.5v-14q-94 -26 -142 -45l-4 2v76l-17.5 -17.5t-19.5 -19t-19.5 -15.5t-24.5 -15t-26.5 -8t-33.5 -4q-55 0 -88 35.5t-33 94.5v252q0 35 -13 48.5t-49 15.5v14h146v-326q0 -31 21 -53.5t50 -22.5q11 0 26 3.5t34.5 11.5t33 27t13.5 45v331
q0 97 55 146.5t200 49.5h39v-286z" />
    <glyph glyph-name="v_n_armenian" unicode="&#x57e;&#x576;" horiz-adv-x="971" 
d="M423 662v-150h209v-388q0 -31 21 -53.5t50 -22.5q11 0 26 3.5t34.5 11.5t33 27t13.5 45v235q0 37 -13.5 49t-60.5 14v17h158v-343q0 -35 11 -46t46 -11h5v-14q-78 -21 -137 -45l-4 2v76q-28 -28 -39.5 -38.5t-42.5 -25.5t-64 -15q-55 0 -88 35.5t-33 94.5v360h-125v-648
h83v-32h-167v264q-27 -27 -38 -37t-40.5 -23.5t-62.5 -13.5q-55 0 -88 35.5t-33 94.5v252q0 35 -13 48.5t-49 15.5v14h146v-326q0 -31 21 -53.5t50 -22.5q11 0 26 3.5t34.5 11.5t33 27t13.5 45v345h-47q-32 0 -76 10t-73 21.5t-29 16.5q0 13 35.5 33.5t65.5 20.5
q5 0 16 -17.5t30 -35t45 -17.5h33v150h84z" />
    <glyph glyph-name="m_x_armenian" unicode="&#x574;&#x56d;" horiz-adv-x="1219" 
d="M647 450h233v-326q0 -31 21 -53.5t50 -22.5q11 0 26 3.5t34.5 11.5t33 27t13.5 45v235q0 37 -13.5 49t-60.5 14v17h158v-343q0 -38 12.5 -47.5t49.5 -9.5v-14q-78 -21 -137 -45l-4 2v83q-2 -2 -17 -17.5t-21 -21t-21 -17t-25.5 -16.5t-27.5 -9.5t-34 -4.5q-55 0 -88 35.5
t-33 94.5v234q0 35 -20 49.5t-69 14.5h-60v-534q0 -41 13.5 -53.5t61.5 -15.5v-15h-236v15q47 4 62 18t15 54v744q-62 0 -101 -38.5t-39 -126.5v-359q0 -38 12.5 -47.5t49.5 -9.5v-14q-94 -26 -142 -45l-4 2v76l-17.5 -17.5t-19.5 -19t-19.5 -15.5t-24.5 -15t-26.5 -8
t-33.5 -4q-55 0 -88 35.5t-33 94.5v252q0 35 -13 48.5t-49 15.5v14h146v-326q0 -31 21 -53.5t50 -22.5q11 0 26 3.5t34.5 11.5t33 27t13.5 45v331q0 95 61.5 145.5t207.5 50.5h39v-212z" />
    <glyph glyph-name="yodyodpatahhebrew" unicode="&#x5f2;&#x5b7;" horiz-adv-x="537" 
d="M209 166v52h200v-52h-200zM349 478q-26 0 -41.5 18t-15.5 46q0 23 9.5 50t20.5 39q0 -8 14.5 -20.5t35.5 -12.5q8 0 25 1t26 1q34 0 48.5 -20.5t14.5 -46.5q0 -34 -18 -123t-28 -89l4 24q3 24 3 44q0 50 -20.5 70t-47.5 20q-5 0 -15 -0.5t-15 -0.5zM88 478
q-26 0 -41.5 18t-15.5 46q0 23 9 50t20 39q0 -3 5.5 -10.5t18.5 -15t28 -7.5q7 0 24 1t26 1q34 0 48.5 -21t14.5 -46q0 -36 -17.5 -124t-28.5 -88q0 2 3 25.5t3 41.5q0 50 -20 70.5t-47 20.5q-5 0 -15 -0.5t-15 -0.5z" />
    <glyph glyph-name="uniFDF2" unicode="&#x627;&#xfee0;&#xfee0;&#xfeea;" horiz-adv-x="640" arabic-form="isolated" 
d="M534 61q16 0 25.5 7.5t13.5 25t5 33.5t1 45q0 28 -1 47t-1.5 32t-4.5 35.5t-6 33t-11.5 51t-14.5 64.5l55 29l19 -162q6 -65 8 -148v-20q0 -98 -13 -131t-59 -33q-109 2 -119 75q-12 -75 -111 -75q-60 0 -103 114l-34 -30q-54 1 -87 21t-33 50q0 23 9.5 42t30.5 34.5
t33.5 23t40 20t28.5 12.5v45l31 34q3 -77 6.5 -122.5t10 -80.5t19 -50.5t29.5 -22.5t44 -7q41 0 50.5 13.5t9.5 56.5q0 144 -24 271l55 41q3 -235 28 -342q8 -33 53 -33q2 0 6 0.5t7 0.5h4zM99 141q14 -23 31.5 -31t54.5 -8q16 0 23 1v107q-91 -34 -109 -69zM402 582
q2 0 11 -15t22 -15q14 9 14 24q0 8 -3 15q3 6 6 6q2 0 4.5 -3.5t4.5 -15t2 -28.5q0 -16 -5.5 -22t-20.5 -6q-11 0 -29 5q-17 -21 -31 -21q-34 0 -34 41q0 18 2 30h2.5h0.5q3 0 7.5 -16t13.5 -16q7 0 19 6.5t12 18.5q0 5 -1 8q1 2 3 4zM406 653q-4 30 -28 67l28 30
q5 -28 5 -57q0 -27 -5 -40z" />
    <glyph glyph-name="uniFEF5" unicode="&#xfedf;&#xfe82;" horiz-adv-x="676" arabic-form="isolated" 
d="M440 238q42 92 76 192.5t37 148.5l-20 55q0 2 -0.5 7t-0.5 8q0 40 21 67v-14q1 -27 61 -48l-10 -52l-18 -19q-8 -21 -13.5 -58.5t-29 -111t-77.5 -198.5q59 -105 59 -159q0 -43 -52 -54.5t-229 -14.5l6 91q122 49 169 129l-141 212q-52 77 -57 79q-4 0 -14 -5.5t-15 -5.5
q-6 0 -17 6t-23 17.5t-21 33.5t-9 50q0 46 18 46q9 0 26.5 -16t43 -48t47.5 -62t54 -78.5t49 -74.5t46.5 -72t33.5 -51zM336 73q74 2 101 9t27 28q0 14 -24 64q-45 -62 -104 -101zM155 795q15 0 40.5 -1.5t38.5 -1.5q36 0 56.5 8.5t66.5 44.5l-17 -55q-18 -29 -45 -40
t-84 -11q-5 0 -31 1t-47 1q-20 0 -32.5 -2t-37 -15t-51.5 -38q34 68 58 88.5t85 20.5z" />
    <glyph glyph-name="uniFEF6" unicode="&#xfee0;&#xfe82;" horiz-adv-x="724" arabic-form="final" 
d="M739 -3h-48q-105 0 -105 164l-11 98q-45 -175 -137 -237q-70 -26 -231 -26q-54 0 -84 1q166 53 287 111q148 85 148 354q0 93 -14 252l120 -119q-42 -30 -42 -169q0 -112 27 -293q21 -53 46 -53h37zM438 245q-104 216 -223 216h-8l-3 144q100 -6 152 -107t82 -253z
M155 793q15 0 40.5 -1.5t38.5 -1.5q36 0 56.5 8.5t66.5 44.5l-17 -55q-18 -29 -45 -40t-84 -11q-5 0 -31 1t-47 1q-22 0 -35.5 -2t-36 -15t-49.5 -38q34 68 58 88.5t85 20.5z" />
    <glyph glyph-name="uniFEF7" unicode="&#xfedf;&#xfe83;" horiz-adv-x="676" arabic-form="isolated" 
d="M278 761q0 22 23 60t59 38h5q41 -2 43 -44q-18 12 -33 12q-18 0 -36 -16t-18 -28q0 -9 14.5 -26.5t33.5 -17.5q20 0 57 10q-59 -51 -157 -85q17 33 52 49q-43 21 -43 48zM440 238q42 92 76 192.5t37 148.5l-20 55q0 2 -0.5 7t-0.5 8q0 40 21 67v-14q1 -27 61 -48l-10 -52
l-18 -19q-8 -21 -13.5 -58.5t-29 -111t-77.5 -198.5q59 -105 59 -159q0 -43 -52 -54.5t-229 -14.5l6 91q122 49 169 129l-141 212q-52 77 -57 79q-4 0 -14 -5.5t-15 -5.5q-6 0 -17 6t-23 17.5t-21 33.5t-9 50q0 46 18 46q9 0 26.5 -16t43 -48t47.5 -62t54 -78.5t49 -74.5
t46.5 -72t33.5 -51zM336 73q74 2 101 9t27 28q0 14 -24 64q-45 -62 -104 -101z" />
    <glyph glyph-name="uniFEF8" unicode="&#xfee0;&#xfe83;" horiz-adv-x="724" arabic-form="final" 
d="M297 761q0 22 23 60t59 38h5q41 -2 43 -44q-18 12 -33 12q-18 0 -36 -16t-18 -28q0 -9 14.5 -26.5t33.5 -17.5q20 0 57 10q-59 -51 -157 -85q17 33 52 49q-43 21 -43 48zM739 -3h-48q-105 0 -105 164l-11 98q-45 -175 -137 -237q-70 -26 -231 -26q-54 0 -84 1
q166 53 287 111q148 85 148 354q0 93 -14 252l120 -119q-42 -30 -42 -169q0 -112 27 -293q21 -53 46 -53h37zM438 245q-104 216 -223 216h-8l-3 144q100 -6 152 -107t82 -253z" />
    <glyph glyph-name="uniFEFB" unicode="&#xfedf;&#xfe8e;" horiz-adv-x="676" arabic-form="isolated" 
d="M440 238q42 92 76 192.5t37 148.5l-20 55q0 2 -0.5 7t-0.5 8q0 40 21 67v-14q1 -27 61 -48l-10 -52l-18 -19q-8 -21 -13.5 -58.5t-29 -111t-77.5 -198.5q59 -105 59 -159q0 -43 -52 -54.5t-229 -14.5l6 91q122 49 169 129l-141 212q-52 77 -57 79q-4 0 -14 -5.5t-15 -5.5
q-6 0 -17 6t-23 17.5t-21 33.5t-9 50q0 46 18 46q9 0 26.5 -16t43 -48t47.5 -62t54 -78.5t49 -74.5t46.5 -72t33.5 -51zM336 73q74 2 101 9t27 28q0 14 -24 64q-45 -62 -104 -101z" />
    <glyph glyph-name="uniFEFC" unicode="&#xfee0;&#xfe8e;" horiz-adv-x="724" arabic-form="final" 
d="M739 -3h-48q-105 0 -105 164l-11 98q-45 -175 -137 -237q-70 -26 -231 -26q-54 0 -84 1q166 53 287 111q148 85 148 354q0 93 -14 252l120 -119q-42 -30 -42 -169q0 -112 27 -293q21 -53 46 -53h37zM438 245q-104 216 -223 216h-8l-3 144q100 -6 152 -107t82 -253z" />
    <glyph glyph-name="uniFB56" unicode="&#x67e;" horiz-adv-x="926" arabic-form="isolated" 
d="M508 -174l-52 -55l-53 55l53 52zM921 77q0 51 -4 84.5t-14.5 53t-15 25t-19.5 18.5l18 64q66 -40 66 -125q0 -5 -1 -13t-1 -13v-176h-724q-55 0 -83.5 21.5t-28.5 76.5q0 79 71 204l10 -8q-52 -101 -52 -143q0 -38 42 -69h736zM600 -283l-52 -55l-53 55l53 52zM693 -174
l-53 -55l-53 55l53 52z" />
    <glyph glyph-name="uniFB57" unicode="&#x67e;" horiz-adv-x="926" arabic-form="final" 
d="M508 -174l-52 -55l-53 55l53 52zM921 77q0 51 -4 84.5t-14.5 53t-15 25t-19.5 18.5l18 64q66 -40 66 -125q0 -5 -1 -13t-1 -13v-176h-724q-55 0 -83.5 21.5t-28.5 76.5q0 79 71 204l10 -8q-52 -101 -52 -143q0 -38 42 -69h736zM600 -283l-52 -55l-53 55l53 52zM693 -174
l-53 -55l-53 55l53 52z" />
    <glyph glyph-name="uniFB58" unicode="&#x67e;" horiz-adv-x="308" arabic-form="initial" 
d="M148 -142l-57 -58l-58 58l58 58zM207 -273l-57 -59l-57 59l57 58zM268 -142l-57 -58l-58 58l58 58zM256 334q45 -65 45 -149v-74q0 -110 -52 -111h-252l-9 83h280v11q0 102 -56 158z" />
    <glyph glyph-name="uniFB59" unicode="&#x67e;" horiz-adv-x="308" arabic-form="medial" 
d="M148 -142l-57 -58l-58 58l58 58zM207 -273l-57 -59l-57 59l57 58zM268 -142l-57 -58l-58 58l58 58zM256 334q45 -65 45 -149v-74q0 -110 -52 -111h-252l-9 83h280v11q0 102 -56 158z" />
    <glyph glyph-name="uniFB7A" unicode="&#x686;" horiz-adv-x="750" arabic-form="isolated" 
d="M673 -88l-62 -63l-63 63l63 61zM473 -88l-62 -63l-63 63l63 61zM580 -213l-62 -61l-63 61l63 62zM334 306q14 0 111.5 -16.5t211.5 -16.5l90 2l-20 -63h-7q-346 0 -496 -209q-54 -77 -54 -156q0 -35 8.5 -67.5t28 -64.5t59 -51t94.5 -19q114 0 313 45l37 -47
q-162 -50 -325 -54h-27q-134 13 -182 77q-45 61 -45 83q-8 22 -8 53q0 67 32.5 127.5t95.5 133.5q145 118 242 144q-19 4 -56.5 14t-55 13.5t-47.5 7.5t-60 4q-51 0 -65 -17l-27 -10q34 34 51 48.5t43.5 26.5t57.5 12z" />
    <glyph glyph-name="uniFB7B" unicode="&#x686;" horiz-adv-x="750" arabic-form="final" 
d="M490 -168l-52 -52l-51 52l51 51zM628 201q9 -82 22 -104t56 -22h50l-3 -81h-40q-31 3 -51 20.5t-28.5 49t-11 55.5t-2.5 61zM333 301q17 0 116 -16.5t204 -16.5l89 2l-20 -62h-7q-343 0 -491 -207q-53 -76 -53 -155q0 -26 4 -50.5t16.5 -52.5t33 -48.5t56.5 -34t84 -13.5
q110 0 273 34l67 -36q-161 -48 -321 -54h-27q-135 14 -180 77q-45 61 -45 82q-7 20 -7 52q0 67 32 127t94 132q143 116 239 142q-11 3 -53 13.5t-57.5 13.5t-46.5 7t-60 4q-51 0 -63 -16l-27 -10q48 48 77.5 67t72.5 19zM575 -69l-52 -52l-51 52l51 51zM419 -69l-52 -52
l-51 52l51 51z" />
    <glyph glyph-name="uniFB7C" unicode="&#x686;" horiz-adv-x="580" arabic-form="initial" 
d="M271 -141l-50 -51l-52 51l52 51zM445 -141l-52 -51l-50 51l50 51zM358 -238l-51 -52l-51 52l51 51zM149 154q4 5 14.5 18.5t14.5 18.5t13 16t13.5 15.5t13 12.5t14.5 11.5t14 7.5t15.5 5.5t16.5 1.5q28 0 83.5 -38.5t117.5 -95.5q30 -35 129 -51l2 -76h-590q-23 0 -23 75
l462 1l-127 90q-23 16 -50 16q-33 0 -117 -31z" />
    <glyph glyph-name="uniFB7D" unicode="&#x686;" horiz-adv-x="580" arabic-form="medial" 
d="M271 -141l-50 -51l-52 51l52 51zM445 -141l-52 -51l-50 51l50 51zM358 -238l-51 -52l-51 52l51 51zM149 154q4 5 14.5 18.5t14.5 18.5t13 16t13.5 15.5t13 12.5t14.5 11.5t14 7.5t15.5 5.5t16.5 1.5q28 0 83.5 -38.5t117.5 -95.5q30 -35 129 -51l2 -76h-590q-23 0 -23 75
l462 1l-127 90q-23 16 -50 16q-33 0 -117 -31z" />
    <glyph glyph-name="uniFB8A" unicode="&#x698;" horiz-adv-x="338" arabic-form="isolated" 
d="M363 387l-52 -50l-53 50l53 49zM285 507l-52 -50l-54 50l54 48zM216 387l-52 -50l-53 50l53 49zM325 247q20 -69 20 -148q0 -17 -1 -25l-10 -79l-128 -241q-49 -72 -103 -84l-104 -23l5 21q3 2 17.5 12t18.5 13.5t18.5 14.5t21 18t21 21.5t25 27.5t26 33t30 42t33 50.5
t37.5 60.5q33 54 33 107q0 45 -18 132z" />
    <glyph glyph-name="uniFB8B" unicode="&#x698;" horiz-adv-x="338" arabic-form="final" 
d="M363 387l-52 -50l-53 50l53 49zM285 507l-52 -50l-54 50l54 48zM216 387l-52 -50l-53 50l53 49zM325 247q20 -69 20 -148q0 -17 -1 -25l-10 -79l-128 -241q-49 -72 -103 -84l-104 -23l5 21q3 2 17.5 12t18.5 13.5t18.5 14.5t21 18t21 21.5t25 27.5t26 33t30 42t33 50.5
t37.5 60.5q33 54 33 107q0 45 -18 132z" />
    <glyph glyph-name="uniFB92" unicode="&#x6af;" horiz-adv-x="874" arabic-form="isolated" 
d="M142 226q0 -75 36.5 -111.5t142.5 -36.5h9h529q2 24 2 35q0 121 -125 286l-61 65l-11 -14q-30 20 -59 49l-27 26q-4 26 -4 38q0 60 45.5 102t171.5 94l163 66l-6 -63l-199 -87q-4 -2 -22.5 -10t-34 -15.5t-33 -16t-28 -15t-10.5 -9.5q0 -10 107 -126q76 -96 94 -128
q30 -53 68 -176q4 -39 4 -75q0 -101 -42 -101h-588q-77 0 -128 89q-15 26 -15 89q0 67 20 131l8 -5q-7 -53 -7 -81zM870 915v-52l-304 -135q21 45 304 187z" />
    <glyph glyph-name="uniFB93" unicode="&#x6af;" horiz-adv-x="874" arabic-form="final" 
d="M142 226q0 -75 36.5 -111.5t142.5 -36.5h9h529q2 24 2 35q0 121 -125 286l-61 65l-11 -14q-30 20 -59 49l-27 26q-4 26 -4 38q0 60 45.5 102t171.5 94l163 66l-6 -63l-199 -87q-4 -2 -22.5 -10t-34 -15.5t-33 -16t-28 -15t-10.5 -9.5q0 -10 107 -126q76 -96 94 -128
q30 -53 68 -176q4 -39 4 -75q0 -101 -42 -101h-588q-77 0 -128 89q-15 26 -15 89q0 67 20 131l8 -5q-7 -53 -7 -81zM870 915v-52l-304 -135q21 45 304 187z" />
    <glyph glyph-name="uniFB94" unicode="&#x6af;" horiz-adv-x="329" arabic-form="initial" 
d="M398 712l-199 -82q-128 -54 -128 -62t107 -118q75 -89 93 -119q31 -50 69 -167q4 -36 4 -71q0 -93 -42 -93h-307l6 79h308q2 20 2 29q0 109 -125 263l-61 61l-11 -13q-25 15 -59 46l-27 24q-4 26 -4 36q0 58 47.5 97.5t169.5 86.5l163 62zM354 877v-50l-304 -130
q21 44 304 180z" />
    <glyph glyph-name="uniFB95" unicode="&#x6af;" horiz-adv-x="329" arabic-form="medial" 
d="M398 712l-199 -82q-128 -54 -128 -62t107 -118q75 -89 93 -119q31 -50 69 -167q4 -36 4 -71q0 -93 -42 -93h-307l6 79h308q2 20 2 29q0 109 -125 263l-61 61l-11 -13q-25 15 -59 46l-27 24q-4 26 -4 36q0 58 47.5 97.5t169.5 86.5l163 62zM354 877v-50l-304 -130
q21 44 304 180z" />
    <glyph glyph-name="uniFBFC" unicode="&#x6cc;" horiz-adv-x="776" arabic-form="isolated" 
d="M714 265q27 0 35.5 -15t8.5 -43q0 -3 -0.5 -8t-0.5 -7l-1 -12q-33 26 -66 26q-34 0 -80.5 -43t-46.5 -63q0 -29 80 -29q3 0 19 2t30 2q63 0 63 -37v-4q0 -118 -132 -197q-89 -53 -206 -53q-82 0 -141 17.5t-89 47t-43 60.5t-13 65q0 107 83 222l11 -4q-52 -98 -52 -163
t52 -106.5t146 -48.5q302 16 348 109q-2 20 -101 20h-6q-95 0 -95 56q0 65 67 135.5t130 70.5z" />
    <glyph glyph-name="uniFBFD" unicode="&#x6cc;" horiz-adv-x="700" arabic-form="final" 
d="M370 -214q70 0 131 12t93 29t32 32v2q0 15 -27 15q-2 0 -7.5 -0.5t-8.5 -0.5h-110q-42 6 -42 49q0 3 1 9.5t1 10.5q0 58 84 108q45 27 154 27h50l-1 -77q-13 0 -36 0.5t-33 0.5q-111 0 -149 -11.5t-38 -46.5q0 -14 19 -14h111q77 0 77 -49q0 -64 -57 -106t-159 -56
q-17 -2 -46 -2h-26h-27q-132 12 -177.5 44.5t-46.5 104.5v13q0 99 55 208l7 -4q-42 -86 -42 -141q0 -71 32 -110q67 -47 186 -47z" />
    <glyph glyph-name="uniFBFE" unicode="&#x6cc;" horiz-adv-x="304" arabic-form="initial" 
d="M173 -145l-59 -57l-61 57l61 57zM300 -145l-59 -57l-61 57l61 57zM286 314q45 -62 45 -140v-69q0 -104 -52 -105h-252q-49 0 -49 78h320v10q0 96 -56 149z" />
    <glyph glyph-name="uniFBFF" unicode="&#x6cc;" horiz-adv-x="304" arabic-form="medial" 
d="M173 -145l-59 -57l-61 57l61 57zM300 -145l-59 -57l-61 57l61 57zM286 314q45 -62 45 -140v-69q0 -104 -52 -105h-252q-49 0 -49 78h320v10q0 96 -56 149z" />
    <glyph glyph-name="uniFDFC" unicode="&#xfdfc;" horiz-adv-x="837" arabic-form="isolated" 
d="M600 92q24 -30 32 -55t8 -80v-84h-162q-37 0 -51.5 48.5t-17.5 139t-8 118.5q-8 41 -30 62l42 67q19 -57 23 -158l6 -154q8 -63 36 -63h137q0 35 -7.5 54t-34.5 50zM812 -191q0 -50 -59.5 -106.5t-108.5 -56.5q-40 0 -76 14l-73 28l5 13q68 -13 92 -13q66 0 131 57
q64 55 64 105q0 51 -52 106l20 54q57 -52 57 -117v-84zM638 -195l-27 -49l-55 30l26 48zM560 -225l-27 -50l-55 29l25 49zM322 215q34 -213 34 -293q0 -78 -48 -108t-140 -30q-142 0 -142 104q0 69 59 176l11 -6q-44 -80 -44 -130q0 -85 115 -85q55 0 108 20t53 52
q0 65 -42 315l-15 8v8q0 39 18 75h6q1 -22 16 -28l40 -18q0 -30 -9 -66z" />
    <glyph glyph-name="uniFE70" unicode="&#xfe70;" horiz-adv-x="300" arabic-form="isolated" 
d="M190 806l59 29q-3 -23 -12 -35t-32 -22l-151 -74q2 10 4.5 17.5t9 15t11.5 12t18.5 12t22.5 12t31.5 15t38.5 18.5zM190 716l59 29q-3 -23 -12 -35t-32 -22l-151 -74q2 10 4.5 17.5t9 15t11.5 12t18.5 12t22.5 12t31.5 15t38.5 18.5z" />
    <glyph glyph-name="uniFE74" unicode="&#xfe74;" horiz-adv-x="300" arabic-form="isolated" 
d="M180 -353l59 28q-3 -23 -12 -35t-32 -22l-151 -74q2 9 5 16.5t6 13t10.5 12t13 10.5t18.5 10.5l22 11t28.5 14t32.5 15.5zM180 -263l59 28q-3 -23 -12 -35t-32 -22l-151 -74q2 9 5 16.5t6 13t10.5 12t13 10.5t18.5 10.5l22 11t28.5 14t32.5 15.5z" />
    <glyph glyph-name="uniFE76" unicode="&#xfe76;" horiz-adv-x="300" arabic-form="isolated" 
d="M190 806l59 29q-3 -23 -12 -35t-32 -22l-151 -74q2 10 4.5 17.5t9 15t11.5 12t18.5 12t22.5 12t31.5 15t38.5 18.5z" />
    <glyph glyph-name="uniFE78" unicode="&#xfe78;" horiz-adv-x="300" arabic-form="isolated" 
d="M219 810q24 -11 30 -17t6 -16q0 -11 -6 -25l-50 23q-34 -64 -127 -100h-21q71 39 124 112l-34 28q-14 13 -14 35q0 35 26 59.5t51 24.5q31 0 31 -42q0 -29 -16 -82zM201 852q0 18 -5 25t-21 7q-14 0 -14 -16q0 -13 39 -42q1 10 1 26z" />
    <glyph glyph-name="uniFE7A" unicode="&#xfe7a;" horiz-adv-x="300" arabic-form="isolated" 
d="M180 -353l59 28q-3 -23 -12 -35t-32 -22l-151 -74q2 9 5 16.5t6 13t10.5 12t13 10.5t18.5 10.5l22 11t28.5 14t32.5 15.5z" />
    <glyph glyph-name="uniFE7C" unicode="&#xfe7c;" horiz-adv-x="300" arabic-form="isolated" 
d="M250 811q-1 -12 -15.5 -30.5t-34.5 -18.5q-5 0 -17 4q-18 -45 -51 -45q-19 0 -31.5 15.5t-12.5 39.5q0 14 5 37h7q-5 -18 -5 -28q0 -15 8 -24t21 -9q7 0 11.5 2t14.5 14t24 37q11 -14 22 -14t23 13t12 25q0 21 -23 35l6 12q36 -50 36 -65z" />
    <glyph glyph-name="uniFE80" unicode="&#x621;" horiz-adv-x="724" arabic-form="isolated" 
d="M26 179q0 22 23 60t59 38h5q41 -2 43 -44q-18 12 -33 12q-18 0 -36 -16t-18 -28q0 -9 14.5 -26.5t33.5 -17.5q20 0 57 10q-59 -51 -157 -85q17 33 52 49q-43 21 -43 48z" />
    <glyph glyph-name="uniFE81" unicode="&#x622;" horiz-adv-x="321" arabic-form="isolated" 
d="M149 -46q27 369 27 391q0 85 -9 266l42 89q14 -255 14 -419q0 -171 -74 -327zM154 850q16 0 43 -2t39 -2q34 0 54 9t67 45l-17 -55q-17 -29 -44.5 -40t-85.5 -11q-11 0 -35.5 1t-41.5 1q-64 0 -121 -55q35 69 59 89t83 20z" />
    <glyph glyph-name="uniFE82" unicode="&#x622;" horiz-adv-x="275" arabic-form="final" 
d="M155 854q15 0 40.5 -1.5t38.5 -1.5q36 0 56.5 8.5t66.5 44.5l-17 -55q-18 -29 -45 -40t-84 -11q-5 0 -33 1t-49 1q-34 0 -53 -8.5t-64 -46.5q34 68 58 88.5t85 20.5zM215 499q0 -75 -9 -151.5t-9 -120.5q0 -46 12 -100q11 -46 88 -46h5v-81q-87 0 -122 49t-40 148
q16 127 16 260q0 86 -5 147l47 97q17 -102 17 -202z" />
    <glyph glyph-name="uniFE83" unicode="&#x623;" horiz-adv-x="249" arabic-form="isolated" 
d="M209 824q-4 0 -12 18t-18 18q-13 0 -25.5 -22.5t-12.5 -38.5q0 -11 6 -28t15 -17q5 0 9.5 2t10 6t22 12t38.5 17l-8 -33q-49 -15 -150 -91q26 36 63 70q-26 7 -36 18.5t-10 34.5q0 35 22 64t53 46q41 0 41 -39q0 -37 -8 -37zM149 -46q27 369 27 391q0 85 -9 266l42 89
q14 -255 14 -419q0 -171 -74 -327z" />
    <glyph glyph-name="uniFE84" unicode="&#x623;" horiz-adv-x="275" arabic-form="final" 
d="M116 802q0 22 23 60t59 38h5q41 -2 43 -44q-18 12 -33 12q-18 0 -36 -16t-18 -28q0 -9 14.5 -26.5t33.5 -17.5q20 0 57 10q-59 -51 -157 -85q17 33 52 49q-43 21 -43 48zM215 499q0 -75 -9 -151.5t-9 -120.5q0 -46 12 -100q11 -46 88 -46h5v-81q-87 0 -122 49t-40 148
q16 127 16 260q0 86 -5 147l47 97q17 -102 17 -202z" />
    <glyph glyph-name="uniFE85" unicode="&#x624;" horiz-adv-x="399" arabic-form="isolated" 
d="M342 452q-4 0 -12 18t-18 18q-13 0 -25.5 -22.5t-12.5 -38.5q0 -11 6 -28t15 -17q5 0 9.5 2t10 6t22 12t38.5 17l-8 -33q-49 -15 -150 -91q26 36 63 70q-26 7 -36 18.5t-10 34.5q0 35 22 64t53 46q41 0 41 -39q0 -37 -8 -37zM189 103q0 66 32 108.5t85 42.5q75 0 93 -172
v-85q0 -97 -106 -232q-51 -65 -167 -65h-53v10q33 19 77.5 44t55.5 31.5t32 23.5t31 32.5t29 45.5q34 55 34 91q0 14 -2 21h-99q-42 18 -42 104zM341 88q-2 52 -10 77t-32 25q-45 0 -45 -102h87z" />
    <glyph glyph-name="wawhamzaabovefinalarabic" unicode="&#x624;" horiz-adv-x="399" arabic-form="final" 
d="M342 452q-4 0 -12 18t-18 18q-13 0 -25.5 -22.5t-12.5 -38.5q0 -11 6 -28t15 -17q5 0 9.5 2t10 6t22 12t38.5 17l-8 -33q-49 -15 -150 -91q26 36 63 70q-26 7 -36 18.5t-10 34.5q0 35 22 64t53 46q41 0 41 -39q0 -37 -8 -37zM189 103q0 66 32 108.5t85 42.5q75 0 93 -172
v-85q0 -97 -106 -232q-51 -65 -167 -65h-53v10q33 19 77.5 44t55.5 31.5t32 23.5t31 32.5t29 45.5q34 55 34 91q0 14 -2 21h-99q-42 18 -42 104zM341 88q-2 52 -10 77t-32 25q-45 0 -45 -102h87z" />
    <glyph glyph-name="uniFE87" unicode="&#x625;" horiz-adv-x="249" arabic-form="isolated" 
d="M212 -143q-4 0 -12 18t-18 18q-13 0 -25.5 -22.5t-12.5 -38.5q0 -11 6 -28t15 -17q5 0 9.5 2t10 6t22 12t38.5 17l-8 -33q-49 -15 -150 -91q26 36 63 70q-26 7 -36 18.5t-10 34.5q0 35 22 64t53 46q41 0 41 -39q0 -37 -8 -37zM149 -46q27 369 27 391q0 85 -9 266l42 89
q14 -255 14 -419q0 -171 -74 -327z" />
    <glyph glyph-name="alefhamzabelowfinalarabic" unicode="&#x625;" horiz-adv-x="275" arabic-form="final" 
d="M89 -184q0 22 23 60t59 38h5q41 -2 43 -44q-18 12 -33 12q-18 0 -36 -16t-18 -28q0 -9 14.5 -26.5t33.5 -17.5q20 0 57 10q-59 -51 -157 -85q17 33 52 49q-43 21 -43 48zM215 499q0 -75 -9 -151.5t-9 -120.5q0 -46 12 -100q11 -46 88 -46h5v-81q-87 0 -122 49t-40 148
q16 127 16 260q0 86 -5 147l47 97q17 -102 17 -202z" />
    <glyph glyph-name="uniFE89" unicode="&#x626;" horiz-adv-x="776" arabic-form="isolated" 
d="M447 406q-4 0 -12 18t-18 18q-13 0 -25.5 -22.5t-12.5 -38.5q0 -11 6 -28t15 -17q5 0 9.5 2t10 6t22 12t38.5 17l-8 -33q-49 -15 -150 -91q26 36 63 70q-26 7 -36 18.5t-10 34.5q0 35 22 64t53 46q41 0 41 -39q0 -37 -8 -37zM714 265q27 0 35.5 -15t8.5 -43q0 -9 -2 -27
q-33 26 -66 26q-34 0 -80.5 -43t-46.5 -63q0 -29 80 -29q3 0 19 2t30 2q63 0 63 -41q0 -103 -99.5 -176.5t-238.5 -73.5q-82 0 -141 17.5t-89 47t-43 60.5t-13 65q0 107 83 222l11 -4q-52 -98 -52 -163t52 -106.5t146 -48.5q302 16 348 109q-2 20 -101 20q-101 0 -101 56
q0 65 67 135.5t130 70.5z" />
    <glyph glyph-name="uniFE8A" unicode="&#x626;" horiz-adv-x="776" arabic-form="final" 
d="M447 406q-4 0 -12 18t-18 18q-13 0 -25.5 -22.5t-12.5 -38.5q0 -11 6 -28t15 -17q5 0 9.5 2t10 6t22 12t38.5 17l-8 -33q-49 -15 -150 -91q26 36 63 70q-26 7 -36 18.5t-10 34.5q0 35 22 64t53 46q41 0 41 -39q0 -37 -8 -37zM695 88q22 0 46.5 -5.5t34.5 -5.5v-77
q-16 0 -52 9t-86 9q-48 0 -48 -18q0 -11 11.5 -16t41.5 -7q129 -10 129 -72q0 -20 -14 -36t-29.5 -25t-48.5 -24q-78 -36 -263 -36q-82 0 -141 17.5t-89 47t-43 60.5t-13 65q0 107 83 222l11 -4q-52 -98 -52 -163q0 -66 51.5 -110.5t140.5 -44.5q212 0 275.5 4.5t63.5 20.5
q0 15 -92 21q-44 3 -69.5 28t-25.5 55q0 39 46 62t132 23z" />
    <glyph glyph-name="yehhamzaaboveinitialarabic" unicode="&#x626;" horiz-adv-x="301" arabic-form="initial" 
d="M175 453q0 22 23 60t59 38h5q41 -2 43 -44q-18 12 -33 12q-18 0 -36 -16t-18 -28q0 -9 14.5 -26.5t33.5 -17.5q20 0 57 10q-59 -51 -157 -85q17 33 52 49q-43 21 -43 48zM271 309q43 -64 43 -141v-70q0 -106 -50 -106h-240q-46 0 -46 79h304v11q0 97 -52 150z" />
    <glyph glyph-name="yehhamzaabovemedialarabic" unicode="&#x626;" horiz-adv-x="264" arabic-form="medial" 
d="M97 453q0 22 23 60t59 38h5q41 -2 43 -44q-18 12 -33 12q-18 0 -36 -16t-18 -28q0 -9 14.5 -26.5t33.5 -17.5q20 0 57 10q-59 -51 -157 -85q17 33 52 49q-43 21 -43 48zM39 78q51 0 79.5 20.5t46.5 62.5q18 -43 44.5 -63t76.5 -20q4 -53 7 -78h-55q-24 0 -47 26
q-11 12 -27 52q-22 -44 -32 -52q-15 -12 -22 -16t-23.5 -7t-48.5 -3h-38q-4 33 -7 78h46z" />
    <glyph glyph-name="uniFE8D" unicode="&#x627;" horiz-adv-x="249" arabic-form="isolated" 
d="M149 -46q7 98 13.5 182t9 111.5t3.5 52t1 52.5q0 85 -9 259l42 89q14 -255 14 -419q0 -171 -74 -327z" />
    <glyph glyph-name="uniFE8E" unicode="&#x627;" horiz-adv-x="275" arabic-form="final" 
d="M215 499q0 -75 -9 -151.5t-9 -120.5q0 -46 12 -100q11 -46 88 -46h5v-81q-87 0 -122 49t-40 148q16 127 16 260q0 86 -5 147l47 97q17 -102 17 -202z" />
    <glyph glyph-name="uniFE8F" unicode="&#x628;" horiz-adv-x="950" arabic-form="isolated" 
d="M644 -198l-52 -54l-52 54l52 53zM926 78q0 65 -9 104t-16.5 49t-26.5 26l18 64q65 -41 65 -124q0 -5 -1 -13t-1 -13v-174h-718q-56 0 -83.5 21t-27.5 76q0 78 70 203l10 -9q-52 -104 -52 -141q0 -36 42 -69h730z" />
    <glyph glyph-name="uniFE90" unicode="&#x628;" horiz-adv-x="950" arabic-form="final" 
d="M644 -198l-52 -54l-52 54l52 53zM926 78q0 65 -9 104t-16.5 49t-26.5 26l18 64q65 -41 65 -124q0 -5 -1 -13t-1 -13v-174h-718q-56 0 -83.5 21t-27.5 76q0 78 70 203l10 -9q-52 -104 -52 -141q0 -36 42 -69h730z" />
    <glyph glyph-name="uniFE91" unicode="&#x628;" horiz-adv-x="293" arabic-form="initial" 
d="M251 -171l-67 -69l-68 69l68 68zM274 325q45 -65 45 -148v-73q0 -111 -52 -111h-271l2 83h288v11q0 102 -55 157z" />
    <glyph glyph-name="uniFE92" unicode="&#x628;" horiz-adv-x="293" arabic-form="medial" 
d="M251 -171l-67 -69l-68 69l68 68zM274 325q45 -65 45 -148v-73q0 -111 -52 -111h-271l2 83h288v11q0 102 -55 157z" />
    <glyph glyph-name="uniFE93" unicode="&#x629;" horiz-adv-x="424" arabic-form="isolated" 
d="M251 364q72 -80 107.5 -145t35.5 -104q0 -36 -15 -60.5t-37.5 -35t-38 -14t-26.5 -3.5q-22 0 -35.5 0.5t-38 5.5t-39 14.5t-26 28.5t-11.5 46q0 22 9.5 49.5t19.5 46.5t28 49t23 40l-8 10zM235 254q-69 -80 -69 -126q0 -32 32.5 -45t74.5 -13q52 0 69.5 8.5t17.5 26.5
q0 28 -31.5 78t-93.5 71zM392 470l-55 -55l-55 55l55 55zM235 470l-56 -55l-55 55l55 55z" />
    <glyph glyph-name="tehmarbutafinalarabic" unicode="&#x629;" horiz-adv-x="622" arabic-form="final" 
d="M372 572l-55 -55l-55 55l55 55zM215 572l-56 -55l-55 55l55 55zM615 1q-103 0 -147.5 42.5t-67.5 172.5q-32 -77 -107 -77q-163 3 -163 74q0 85 223 179q-4 13 -4 30q0 38 24 76l74 -337q44 -86 106 -86h94l-5 -72q-2 -2 -27 -2zM199 240q0 -23 34 -33.5t62 -10.5
q53 0 69 11t23 45q-3 12 -7.5 34.5t-9 40.5t-10.5 32q-161 -67 -161 -119z" />
    <glyph glyph-name="uniFE95" unicode="&#x62a;" horiz-adv-x="925" arabic-form="isolated" 
d="M530 374l-65 -66l-67 66l67 67zM740 374l-65 -66l-67 66l67 67zM895 77q0 79 -9 113t-41 61l17 61q63 -39 63 -119q0 -5 -1 -13t-1 -12v-169h-693q-52 0 -79.5 20.5t-27.5 73.5q0 75 68 196l9 -8q-50 -100 -50 -137q0 -35 41 -67h704z" />
    <glyph glyph-name="uniFE96" unicode="&#x62a;" horiz-adv-x="925" arabic-form="final" 
d="M530 374l-65 -66l-67 66l67 67zM740 374l-65 -66l-67 66l67 67zM895 77q0 79 -9 113t-41 61l17 61q63 -39 63 -119q0 -5 -1 -13t-1 -12v-169h-693q-52 0 -79.5 20.5t-27.5 73.5q0 75 68 196l9 -8q-50 -100 -50 -137q0 -35 41 -67h704z" />
    <glyph glyph-name="uniFE97" unicode="&#x62a;" horiz-adv-x="308" arabic-form="initial" 
d="M150 489l-57 -58l-59 58l59 59zM295 488l-57 -59l-59 59l59 58zM254 333q44 -66 44 -148v-74q0 -111 -51 -111h-251l-8 83h277v15q0 98 -55 153z" />
    <glyph glyph-name="uniFE98" unicode="&#x62a;" horiz-adv-x="308" arabic-form="medial" 
d="M150 489l-57 -58l-59 58l59 59zM295 488l-57 -59l-59 59l59 58zM254 333q44 -66 44 -148v-74q0 -111 -51 -111h-251l-8 83h277v15q0 98 -55 153z" />
    <glyph glyph-name="uniFE99" unicode="&#x62b;" horiz-adv-x="924" arabic-form="isolated" 
d="M756 343l-64 -66l-67 66l67 67zM531 343l-64 -66l-67 66l67 67zM643 465l-65 -67l-66 67l66 66zM921 75q0 81 -9 116t-42 62l17 63q65 -41 65 -123q0 -5 -1 -13t-1 -13v-173h-713q-55 0 -82.5 21t-27.5 76q0 78 70 201l9 -8q-51 -102 -51 -140q0 -36 42 -69h724z" />
    <glyph glyph-name="uniFE9A" unicode="&#x62b;" horiz-adv-x="924" arabic-form="final" 
d="M756 343l-64 -66l-67 66l67 67zM531 343l-64 -66l-67 66l67 67zM643 465l-65 -67l-66 67l66 66zM921 75q0 81 -9 116t-42 62l17 63q65 -41 65 -123q0 -5 -1 -13t-1 -13v-173h-713q-55 0 -82.5 21t-27.5 76q0 78 70 201l9 -8q-51 -102 -51 -140q0 -36 42 -69h724z" />
    <glyph glyph-name="uniFE9B" unicode="&#x62b;" horiz-adv-x="298" arabic-form="initial" 
d="M163 475l-61 -61l-61 61l61 62zM293 473l-60 -61l-62 61l62 62zM230 594l-61 -62l-61 62l61 61zM264 332q45 -65 45 -148v-73q0 -111 -52 -111h-251l-8 83h278v11q0 102 -55 157z" />
    <glyph glyph-name="uniFE9C" unicode="&#x62b;" horiz-adv-x="298" arabic-form="medial" 
d="M163 475l-61 -61l-61 61l61 62zM293 473l-60 -61l-62 61l62 62zM230 594l-61 -62l-61 62l61 61zM264 332q45 -65 45 -148v-73q0 -111 -52 -111h-251l-8 83h278v11q0 102 -55 157z" />
    <glyph glyph-name="uniFE9D" unicode="&#x62c;" horiz-adv-x="738" arabic-form="isolated" 
d="M330 305q12 0 109.5 -16t209.5 -16l89 1l-20 -62h-7q-124 0 -222.5 -27.5t-156.5 -67.5t-97 -91.5t-53 -94.5t-14 -80q0 -36 8.5 -68.5t28.5 -63t59 -49t93 -18.5q110 0 307 44l37 -46q-174 -53 -309 -53q-134 0 -202 57t-68 153q0 72 40.5 144t99.5 123t119 86t106 48
q-17 4 -54.5 13t-56 13t-48.5 7.5t-59 3.5q-50 0 -62 -16l-27 -10q33 33 50 47.5t43.5 26.5t56.5 12zM497 -96l-53 -53l-52 53l52 51z" />
    <glyph glyph-name="uniFE9E" unicode="&#x62c;" horiz-adv-x="738" arabic-form="final" 
d="M330 305q12 0 109.5 -16t209.5 -16l89 1l-20 -62h-7q-175 0 -294.5 -50t-194.5 -156q-54 -75 -54 -155q0 -36 8.5 -68.5t28.5 -63t59 -49t93 -18.5q110 0 307 44l37 -46q-159 -48 -320 -54h-27q-133 14 -180 77q-45 59 -45 82q-7 20 -7 52q0 67 32 126.5t94 131.5
q145 118 239 143q-17 4 -54.5 13t-56 13t-48.5 7.5t-59 3.5q-50 0 -62 -16l-27 -10q33 33 50 47.5t43.5 26.5t56.5 12zM497 -96l-53 -53l-52 53l52 51zM778 -8h-45q-65 6 -83.5 50.5t-19.5 146.5l8 -10q6 -35 9.5 -49.5t12.5 -31t24 -21.5t41 -5h56z" />
    <glyph glyph-name="uniFE9F" unicode="&#x62c;" horiz-adv-x="574" arabic-form="initial" 
d="M128 183q103 76 147 76q19 0 62.5 -26.5t77.5 -56.5q91 -96 188 -100l2 -76h-585q-23 0 -23 74l458 2l-126 88q-20 13 -53 28.5t-53 15.5q-15 0 -95 -25zM357 -156l-53 -53l-52 53l52 52z" />
    <glyph glyph-name="uniFEA0" unicode="&#x62c;" horiz-adv-x="574" arabic-form="medial" 
d="M128 183q103 76 147 76q19 0 62.5 -26.5t77.5 -56.5q91 -96 188 -100l2 -76h-585q-23 0 -23 74l458 2l-126 88q-20 13 -53 28.5t-53 15.5q-15 0 -95 -25zM357 -156l-53 -53l-52 53l52 52z" />
    <glyph glyph-name="uniFEA1" unicode="&#x62d;" horiz-adv-x="748" arabic-form="isolated" 
d="M330 305q12 0 109.5 -16t209.5 -16l89 1l-20 -62q-126 0 -227 -27t-159.5 -67.5t-97 -91.5t-52.5 -94t-14 -81q0 -36 8.5 -68.5t28.5 -63t59 -49t93 -18.5q110 0 307 44l37 -46q-179 -54 -347 -54q-110 0 -171 64.5t-61 146.5q0 72 40.5 144t99.5 123t119 86t106 48
q-17 4 -54.5 13t-56 13t-48.5 7.5t-59 3.5q-50 0 -62 -16l-27 -10q33 33 50 47.5t43.5 26.5t56.5 12z" />
    <glyph glyph-name="uniFEA2" unicode="&#x62d;" horiz-adv-x="750" arabic-form="final" 
d="M330 293q12 0 109.5 -16t209.5 -16l89 1l-20 -62h-7q-175 0 -294.5 -50t-194.5 -156q-54 -75 -54 -155q0 -36 8.5 -68.5t28.5 -63t59 -49t93 -18.5q110 0 307 44l37 -46q-159 -48 -320 -54h-27q-133 14 -180 77q-45 59 -45 82q-7 20 -7 52q0 67 32 126.5t94 131.5
q145 118 239 143q-17 4 -54.5 13t-56 13t-48.5 7.5t-59 3.5q-50 0 -62 -16l-27 -10q33 33 50 47.5t43.5 26.5t56.5 12zM630 189q7 -28 10.5 -40.5t10.5 -28.5t16 -22t23 -11t35 -5h56l-3 -80h-45q-27 3 -47 15.5t-30.5 29t-16.5 42.5t-7.5 47.5t-1.5 52.5z" />
    <glyph glyph-name="uniFEA3" unicode="&#x62d;" horiz-adv-x="600" arabic-form="initial" 
d="M148 153q28 38 42 55t38 34t48 17q29 0 85 -38.5t115 -94.5q30 -35 128 -50l2 -76h-586q-23 0 -23 74l459 2l-126 88q-23 16 -50 16q-28 0 -116 -30z" />
    <glyph glyph-name="uniFEA4" unicode="&#x62d;" horiz-adv-x="600" arabic-form="medial" 
d="M148 153q28 38 42 55t38 34t48 17q29 0 85 -38.5t115 -94.5q30 -35 128 -50l2 -76h-586q-23 0 -23 74l459 2l-126 88q-23 16 -50 16q-32 0 -116 -30z" />
    <glyph glyph-name="uniFEA5" unicode="&#x62e;" horiz-adv-x="701" arabic-form="isolated" 
d="M308 303q17 0 106 -15.5t195 -15.5l84 2l-19 -59h-5q-325 0 -463 -195q-51 -71 -51 -145q0 -32 8 -62t25.5 -60t53 -48.5t84.5 -18.5q105 0 303 59l29 -60q-150 -45 -302 -51h-25q-127 13 -170 72q-42 57 -42 78q-7 18 -7 49q0 66 30.5 122t88.5 122q137 110 225 134
q-15 3 -51.5 12t-53 12.5t-45.5 7t-56 3.5q-46 0 -58 -15l-25 -9q45 45 73 63t68 18zM379 480l-44 -44l-43 44l43 43z" />
    <glyph glyph-name="uniFEA6" unicode="&#x62e;" horiz-adv-x="775" arabic-form="final" 
d="M474 496l-54 -54l-53 54l53 53zM790 1h-45q-61 6 -83 44t-23 147l9 -11q10 -66 24.5 -87t63.5 -21h57zM341 299q16 0 116 -17t216 -17l92 2l-20 -65h-5q-182 0 -307.5 -52.5t-204.5 -161.5q-55 -79 -55 -162q0 -26 4 -51t17 -54.5t34 -51t57.5 -36t84.5 -14.5
q118 0 321 49l36 -51q-168 -50 -333 -56h-28q-137 14 -187 80q-47 63 -47 85q-7 21 -7 55q0 70 33 132t98 136q149 122 248 149q-24 5 -69.5 16.5t-79.5 17t-76 5.5q-53 0 -66 -17l-28 -11q35 35 52.5 50t45 27.5t58.5 12.5z" />
    <glyph glyph-name="uniFEA7" unicode="&#x62e;" horiz-adv-x="596" arabic-form="initial" 
d="M320 418l-50 -49l-48 49l48 48zM147 151q4 5 15 19.5t15 20t13.5 17t15 16.5t15 12.5t16.5 11t16.5 6t19.5 2.5q57 0 198 -132q29 -34 128 -49l1 -75h-580q-23 0 -23 73l455 2q-120 85 -138 94t-37 9q-36 0 -115 -30z" />
    <glyph glyph-name="uniFEA8" unicode="&#x62e;" horiz-adv-x="596" arabic-form="medial" 
d="M320 418l-50 -49l-48 49l48 48zM147 151q4 5 15 19.5t15 20t13.5 17t15 16.5t15 12.5t16.5 11t16.5 6t19.5 2.5q57 0 198 -132q29 -34 128 -49l1 -75h-580q-23 0 -23 73l455 2q-120 85 -138 94t-37 9q-43 0 -115 -30z" />
    <glyph glyph-name="uniFEA9" unicode="&#x62f;" horiz-adv-x="397" arabic-form="isolated" 
d="M382 78q-16 96 -27 119q-16 32 -69 68q-13 8 -32 20l2 79q22 -7 36 -13t40 -26t43 -48t32.5 -80t19.5 -119q0 -78 -56 -78h-202q-55 0 -55 96v21l12 1q4 -38 28 -40h228z" />
    <glyph glyph-name="uniFEAA" unicode="&#x62f;" horiz-adv-x="397" arabic-form="final" 
d="M382 78q-16 96 -27 119q-16 32 -69 68q-13 8 -32 20l2 79q22 -7 36 -13t40 -26t43 -48t32.5 -80t19.5 -119q0 -78 -56 -78h-202q-55 0 -55 96v21l12 1q4 -38 28 -40h228z" />
    <glyph glyph-name="uniFEAB" unicode="&#x630;" horiz-adv-x="399" arabic-form="isolated" 
d="M303 525l-57 -57l-55 57l55 55zM378 77q-18 99 -25 116q-13 32 -58 62q-15 10 -43 27l2 78q21 -7 35 -13t40 -26t42.5 -47.5t32 -79t19.5 -117.5q0 -77 -55 -77h-200q-54 0 -54 95v20l12 2q4 -38 28 -40h224z" />
    <glyph glyph-name="uniFEAC" unicode="&#x630;" horiz-adv-x="399" arabic-form="final" 
d="M303 525l-57 -57l-55 57l55 55zM378 77q-18 99 -25 116q-13 32 -58 62q-15 10 -43 27l2 78q21 -7 35 -13t40 -26t42.5 -47.5t32 -79t19.5 -117.5q0 -77 -55 -77h-200q-54 0 -54 95v20l12 2q4 -38 28 -40h224z" />
    <glyph glyph-name="uniFEAD" unicode="&#x631;" horiz-adv-x="328" arabic-form="isolated" 
d="M325 247q20 -69 20 -148q0 -22 -5 -58t-6 -46l-128 -241q-48 -72 -103 -84l-104 -23l5 21q83 49 106 81l69 100q69 100 87.5 140.5t18.5 78.5q0 45 -18 132z" />
    <glyph glyph-name="uniFEAE" unicode="&#x631;" horiz-adv-x="328" arabic-form="final" 
d="M325 247q20 -69 20 -148q0 -22 -5 -58t-6 -46l-128 -241q-48 -72 -103 -84l-104 -23l5 21q83 49 106 81l69 100q69 100 87.5 140.5t18.5 78.5q0 45 -18 132z" />
    <glyph glyph-name="uniFEAF" unicode="&#x632;" horiz-adv-x="331" arabic-form="isolated" 
d="M326 401l-56 -56l-59 56l59 53zM325 247q20 -69 20 -148q0 -22 -5 -58t-6 -46l-128 -241q-43 -53 -103 -84l-104 -23l5 21q81 58 106 86q73 87 124 175.5t51 138.5q0 45 -18 132z" />
    <glyph glyph-name="uniFEB0" unicode="&#x632;" horiz-adv-x="331" arabic-form="final" 
d="M326 448l-63 -63l-67 63l67 60zM325 247q20 -69 20 -148q0 -22 -5 -58t-6 -46l-128 -241q-43 -53 -103 -84l-104 -23l5 21q81 58 106 86q73 87 124 175.5t51 138.5q0 45 -18 132z" />
    <glyph glyph-name="uniFEB1" unicode="&#x633;" horiz-adv-x="951" arabic-form="isolated" 
d="M882 74q53 0 53 19q0 26 -40 116l23 36q45 -101 45 -153q0 -55 -20.5 -71.5t-61.5 -16.5h-19q-32 2 -65 32q-25 -34 -61 -34q-58 0 -107 -1q0 -45 -8 -79.5t-18.5 -54t-32 -35.5t-35.5 -22.5t-43 -17.5q-63 -25 -152 -25h-33q-34 2 -60.5 8t-57.5 21t-48 47.5t-17 79.5
q0 64 82 224l13 -23q-67 -104 -67 -158q0 -72 29 -98.5t99 -37.5q26 -5 64 -5q63 0 132.5 20.5t84.5 40.5q30 48 30 119t-42 119l33 72q32 -56 39 -120h107q40 0 40 69v15l13 7q13 -55 31 -74t70 -19z" />
    <glyph glyph-name="uniFEB2" unicode="&#x633;" horiz-adv-x="951" arabic-form="final" 
d="M882 74q53 0 53 19q0 26 -40 116l23 36q45 -101 45 -153q0 -55 -20.5 -71.5t-61.5 -16.5h-19q-32 2 -65 32q-25 -34 -61 -34q-58 0 -107 -1q0 -45 -8 -79.5t-18.5 -54t-32 -35.5t-35.5 -22.5t-43 -17.5q-63 -25 -152 -25h-33q-34 2 -60.5 8t-57.5 21t-48 47.5t-17 79.5
q0 64 82 224l13 -23q-67 -104 -67 -158q0 -72 29 -98.5t99 -37.5q26 -5 64 -5q63 0 132.5 20.5t84.5 40.5q30 48 30 119t-42 119l33 72q32 -56 39 -120h107q40 0 40 69v15l13 7q13 -55 31 -74t70 -19z" />
    <glyph glyph-name="uniFEB3" unicode="&#x633;" horiz-adv-x="600" arabic-form="initial" 
d="M523 72q34 0 45.5 6t11.5 25q0 26 -52 107l23 54q57 -81 57 -125v-83q0 -36 -12 -46t-55 -10q-45 0 -75 38q-33 -38 -58 -38h-83q-29 0 -56 38q-27 -38 -57 -38h-197q-15 0 -21 75q222 0 242 3q22 4 22 34q0 21 -16 74l14 19q3 -11 7 -32t6 -27.5t5 -20.5t5.5 -18
t6.5 -12.5t9 -10t11 -5.5t14 -4.5t18 -1.5t23 -1q76 0 76 43q0 25 -18 72l9 18q21 -64 34.5 -91.5t25.5 -34.5t35 -7z" />
    <glyph glyph-name="uniFEB4" unicode="&#x633;" horiz-adv-x="600" arabic-form="medial" 
d="M523 72q34 0 45.5 6t11.5 25q0 26 -52 107l23 54q57 -81 57 -125v-83q0 -36 -12 -46t-55 -10q-45 0 -75 38q-33 -38 -58 -38h-83q-29 0 -56 38q-27 -38 -57 -38h-197q-15 0 -21 75q222 0 242 3q22 4 22 34q0 21 -16 74l14 19q3 -11 7 -32t6 -27.5t5 -20.5t5.5 -18
t6.5 -12.5t9 -10t11 -5.5t14 -4.5t18 -1.5t23 -1q76 0 76 43q0 25 -18 72l9 18q21 -64 34.5 -91.5t25.5 -34.5t35 -7z" />
    <glyph glyph-name="uniFEB5" unicode="&#x634;" horiz-adv-x="949" arabic-form="isolated" 
d="M883 74q52 0 52 19q0 26 -40 116l23 36q45 -101 45 -153t-19 -70t-56 -18q-32 0 -49.5 5.5t-41.5 26.5q-25 -34 -61 -34q-58 0 -107 -1q0 -45 -8.5 -79.5t-18 -53.5t-32 -35.5t-35.5 -22.5t-43 -18q-63 -25 -152 -25h-33q-34 2 -60.5 8t-57.5 21t-48 47.5t-17 79.5
q0 64 82 224l13 -23q-67 -101 -67 -158q0 -70 41 -106t150 -36q63 0 134 21t84 41q30 45 30 122q0 67 -42 116l33 72q32 -56 39 -120h107q40 0 40 68v16l13 7q13 -56 31 -74.5t71 -18.5zM855 353l-47 -45l-49 45l49 45zM774 456l-47 -46l-49 46l49 44zM691 353l-47 -45
l-49 45l49 45z" />
    <glyph glyph-name="uniFEB6" unicode="&#x634;" horiz-adv-x="949" arabic-form="final" 
d="M883 74q52 0 52 19q0 26 -40 116l23 36q45 -101 45 -153t-19 -70t-56 -18q-32 0 -49.5 5.5t-41.5 26.5q-25 -34 -61 -34q-58 0 -107 -1q0 -45 -8.5 -79.5t-18 -53.5t-32 -35.5t-35.5 -22.5t-43 -18q-63 -25 -152 -25h-33q-34 2 -60.5 8t-57.5 21t-48 47.5t-17 79.5
q0 64 82 224l13 -23q-67 -101 -67 -158q0 -70 41 -106t150 -36q63 0 134 21t84 41q30 45 30 122q0 67 -42 116l33 72q32 -56 39 -120h107q40 0 40 68v16l13 7q13 -56 31 -74.5t71 -18.5zM855 353l-47 -45l-49 45l49 45zM774 456l-47 -46l-49 46l49 44zM691 353l-47 -45
l-49 45l49 45z" />
    <glyph glyph-name="uniFEB7" unicode="&#x634;" horiz-adv-x="649" arabic-form="initial" 
d="M570 80q32 0 48 6t16 26q0 30 -57 118l24 60q63 -88 63 -137v-91q0 -39 -12.5 -50t-60.5 -11q-49 0 -82 41q-36 -41 -63 -41h-91q-31 0 -61 41q-29 -41 -62 -41h-215q-16 0 -23 82q243 0 264 3q24 4 24 38q0 29 -17 80l14 21q22 -98 29 -113q13 -26 50 -31q14 -1 37 -1
q83 0 83 48q0 26 -20 78l10 19q30 -94 46 -119.5t56 -25.5zM585 448l-55 -53l-56 53l56 51zM491 567l-55 -53l-56 53l56 51zM395 448l-54 -53l-57 53l57 51z" />
    <glyph glyph-name="uniFEB8" unicode="&#x634;" horiz-adv-x="649" arabic-form="medial" 
d="M570 80q32 0 48 6t16 26q0 30 -57 118l24 60q63 -88 63 -137v-91q0 -39 -12.5 -50t-60.5 -11q-49 0 -82 41q-36 -41 -63 -41h-91q-31 0 -61 41q-29 -41 -62 -41h-215q-16 0 -23 82q243 0 264 3q24 4 24 38q0 29 -17 80l14 21q22 -98 29 -113q13 -26 50 -31q14 -1 37 -1
q83 0 83 48q0 26 -20 78l10 19q30 -94 46 -119.5t56 -25.5zM585 448l-55 -53l-56 53l56 51zM491 567l-55 -53l-56 53l56 51zM395 448l-54 -53l-57 53l57 51z" />
    <glyph glyph-name="uniFEB9" unicode="&#x635;" horiz-adv-x="949" arabic-form="isolated" 
d="M832 266q20 0 38 -5t37 -18t30 -41t11 -67q0 -56 -15 -82.5t-58.5 -38.5t-135.5 -12l-150 -1q-1 -66 -19.5 -111.5t-53.5 -69.5t-76.5 -33.5t-97.5 -9.5q-212 0 -212 177q4 111 35 197l18 -6q-28 -78 -28 -150q0 -78 40.5 -120t147.5 -44q65 2 111 18.5t68.5 42.5
t32 52.5t9.5 56.5q0 71 -63 144l34 72q44 -105 59 -131l120 120q60 60 118 60zM895 123q0 82 -84 82q-80 0 -183 -131q3 0 48.5 -1t74.5 -1q144 0 144 51z" />
    <glyph glyph-name="uniFEBA" unicode="&#x635;" horiz-adv-x="949" arabic-form="final" 
d="M832 266q20 0 38 -5t37 -18t30 -41t11 -67q0 -56 -15 -82.5t-58.5 -38.5t-135.5 -12l-150 -1q-1 -66 -19.5 -111.5t-53.5 -69.5t-76.5 -33.5t-97.5 -9.5q-212 0 -212 177q4 111 35 197l18 -6q-28 -78 -28 -150q0 -78 40.5 -120t147.5 -44q65 2 111 18.5t68.5 42.5
t32 52.5t9.5 56.5q0 71 -63 144l34 72q44 -105 59 -131l120 120q60 60 118 60zM895 123q0 82 -84 82q-80 0 -183 -131q3 0 48.5 -1t74.5 -1q144 0 144 51z" />
    <glyph glyph-name="uniFEBB" unicode="&#x635;" horiz-adv-x="823" arabic-form="initial" 
d="M724 292q111 -3 121 -188q0 -104 -43 -104h-416q-48 0 -99 48q-47 -48 -94 -48h-169q-24 2 -24 72h193q23 15 36.5 28.5t19.5 33t7 30.5t2 41l22 22q45 -155 146 -155h6q83 125 145.5 170.5t146.5 49.5zM777 140q0 68 -82 80q-45 -4 -82.5 -20t-65 -43t-40.5 -43.5
t-29 -41.5h263q36 18 36 68z" />
    <glyph glyph-name="uniFEBC" unicode="&#x635;" horiz-adv-x="823" arabic-form="medial" 
d="M724 292q111 -3 121 -188q0 -104 -43 -104h-416q-48 0 -99 48q-47 -48 -94 -48h-169q-24 2 -24 72h193q23 15 36.5 28.5t19.5 33t7 30.5t2 41l22 22q45 -155 146 -155h6q83 125 145.5 170.5t146.5 49.5zM777 140q0 68 -82 80q-45 -4 -82.5 -20t-65 -43t-40.5 -43.5
t-29 -41.5h263q36 18 36 68z" />
    <glyph glyph-name="uniFEBD" unicode="&#x636;" horiz-adv-x="949" arabic-form="isolated" 
d="M832 266q20 0 38 -5t37 -18t30 -41t11 -67q0 -32 -3 -52.5t-13 -36t-23 -24t-39.5 -13.5t-54.5 -6.5t-76 -1.5h-150q-1 -66 -19.5 -111.5t-53.5 -69.5t-76.5 -33.5t-97.5 -9.5q-212 0 -212 177q4 111 35 197l18 -6q-28 -78 -28 -150q0 -78 40.5 -120t147.5 -44
q65 2 111 18.5t68.5 42.5t32 52.5t9.5 56.5q0 71 -63 144l34 72q44 -105 59 -131l120 120q58 55 107 60h11zM895 123q0 82 -84 82q-80 0 -183 -131q7 0 20.5 -0.5t20.5 -0.5q27 0 162 5q64 16 64 45zM747 433l-49 -48l-48 48l48 48z" />
    <glyph glyph-name="uniFEBE" unicode="&#x636;" horiz-adv-x="949" arabic-form="final" 
d="M832 266q20 0 38 -5t37 -18t30 -41t11 -67q0 -33 -7 -67q-3 -6 -7 -17.5t-6 -15t-8 -11t-13.5 -9.5t-21.5 -6t-33.5 -5t-47 -2t-65.5 -1h-150q-1 -66 -19.5 -111.5t-53.5 -69.5t-76.5 -33.5t-97.5 -9.5q-212 0 -212 177q4 111 35 197l18 -6q-28 -78 -28 -150
q0 -78 40.5 -120t147.5 -44q65 2 111 18.5t68.5 42.5t32 52.5t9.5 56.5q0 71 -63 144l34 72q44 -105 59 -131l120 120q58 55 107 60h11zM895 123q0 82 -84 82q-80 0 -183 -131q7 0 20.5 -0.5t20.5 -0.5q27 0 162 5q64 16 64 45zM747 433l-49 -48l-48 48l48 48z" />
    <glyph glyph-name="uniFEBF" unicode="&#x636;" horiz-adv-x="805" arabic-form="initial" 
d="M608 504l-49 -48l-48 48l48 48zM791 243q34 -72 34 -139q0 -104 -43 -104h-416q-48 0 -99 48q-47 -48 -94 -48h-169q-24 2 -24 82h193q35 12 49 35t16 88l22 22q42 -146 134 -146q12 0 18 1q87 118 147.5 162t144.5 48q51 -3 87 -49zM757 141q0 67 -82 78
q-124 -9 -217 -137h263q36 9 36 59z" />
    <glyph glyph-name="uniFEC0" unicode="&#x636;" horiz-adv-x="805" arabic-form="medial" 
d="M608 504l-49 -48l-48 48l48 48zM791 243q34 -72 34 -139q0 -104 -43 -104h-416q-48 0 -99 48q-47 -48 -94 -48h-169q-24 2 -24 82h193q35 12 49 35t16 88l22 22q42 -146 134 -146q12 0 18 1q87 118 147.5 162t144.5 48q51 -3 87 -49zM757 141q0 67 -82 78
q-124 -9 -217 -137h263q36 9 36 59z" />
    <glyph glyph-name="uniFEC1" unicode="&#x637;" horiz-adv-x="557" arabic-form="isolated" 
d="M165 77q21 17 21 37q0 131 -86 386l63 83q2 -11 14.5 -78.5t18.5 -103.5t15 -94.5t13 -102t4 -75.5q0 -4 -0.5 -11.5t-0.5 -10.5q116 131 218 131q50 0 86.5 -33t36.5 -119v-4q0 -81 -61 -81h-513l-1 79zM537 104q0 45 -29 64.5t-65 19.5q-41 0 -90 -29.5t-77 -54.5
l-20 -20h279q2 14 2 20z" />
    <glyph glyph-name="tahfinalarabic" unicode="&#x637;" horiz-adv-x="557" arabic-form="final" 
d="M165 77q21 15 21 39q0 126 -86 384l63 83q1 -7 14 -78.5t18.5 -105t15 -93.5t13.5 -103t4 -75q0 -4 -0.5 -11t-0.5 -10q115 131 218 131q22 0 41 -6t39 -21t31.5 -47t11.5 -78v-4q0 -14 -5.5 -44.5t-5.5 -36.5h-50h-513l-1 79zM536 104q0 45 -28.5 64.5t-65.5 19.5
q-38 0 -86.5 -28t-79.5 -56l-20 -20h279q1 7 1 20z" />
    <glyph glyph-name="tahinitialarabic" unicode="&#x637;" horiz-adv-x="460" arabic-form="initial" 
d="M68 77q21 15 21 39q0 126 -86 384l63 83q1 -7 14 -78.5t18.5 -105t15 -93.5t13.5 -103t4 -75q0 -4 -0.5 -11t-0.5 -10q115 131 218 131q22 0 41 -6t39 -21t31.5 -47t11.5 -78v-4q0 -81 -61 -81h-410l-1 79zM439 104q0 45 -28.5 64.5t-65.5 19.5q-38 0 -86.5 -28
t-79.5 -56l-20 -20h279q1 7 1 20z" />
    <glyph glyph-name="uniFEC4" unicode="&#x637;" horiz-adv-x="460" arabic-form="medial" 
d="M68 77q21 15 21 39q0 126 -86 384l63 83q1 -7 14 -78.5t18.5 -105t15 -93.5t13.5 -103t4 -75q0 -4 -0.5 -11t-0.5 -10q115 131 218 131q22 0 41 -6t39 -21t31.5 -47t11.5 -78v-4q0 -16 -5.5 -45.5t-5.5 -35.5h-50h-410l-1 79zM439 104q0 45 -28.5 64.5t-65.5 19.5
q-38 0 -86.5 -28t-79.5 -56l-20 -20h279q1 7 1 20z" />
    <glyph glyph-name="uniFEC5" unicode="&#x638;" horiz-adv-x="550" arabic-form="isolated" 
d="M443 412l-46 -46l-47 46l47 47zM165 77q21 17 21 37q0 131 -86 386l63 83q2 -11 14.5 -78.5t18.5 -103.5t15 -94.5t13 -102t4 -75.5q0 -4 -0.5 -11.5t-0.5 -10.5q116 131 218 131q50 0 86.5 -33t36.5 -119v-4q0 -81 -61 -81h-513l-1 79zM537 104q0 45 -29 64.5t-65 19.5
q-41 0 -90 -29.5t-77 -54.5l-20 -20h279q2 14 2 20z" />
    <glyph glyph-name="zahfinalarabic" unicode="&#x638;" horiz-adv-x="550" arabic-form="final" 
d="M443 412l-46 -46l-47 46l47 47zM165 77q21 15 21 39q0 126 -86 384l63 83q1 -7 14 -78.5t18.5 -105t15 -93.5t13.5 -103t4 -75q0 -4 -0.5 -11t-0.5 -10q115 131 218 131q22 0 41 -6t39 -21t31.5 -47t11.5 -78v-4q0 -18 -9 -47.5t-9 -33.5h-43h-513l-1 79zM536 104
q0 45 -28.5 64.5t-65.5 19.5q-38 0 -86.5 -28t-79.5 -56l-20 -20h279q1 7 1 20z" />
    <glyph glyph-name="zahinitialarabic" unicode="&#x638;" horiz-adv-x="455" arabic-form="initial" 
d="M348 412l-46 -46l-47 46l47 47zM70 77q21 15 21 39q0 126 -86 384l63 83q1 -7 14 -78.5t18.5 -105t15 -93.5t13.5 -103t4 -75q0 -4 -0.5 -11t-0.5 -10q115 131 218 131q22 0 41 -6t39 -21t31.5 -47t11.5 -78v-4q0 -81 -61 -81h-414l-1 79zM441 104q0 45 -28.5 64.5
t-65.5 19.5q-38 0 -86.5 -28t-79.5 -56l-20 -20h279q1 7 1 20z" />
    <glyph glyph-name="zahmedialarabic" unicode="&#x638;" horiz-adv-x="550" arabic-form="medial" 
d="M353 412l-46 -46l-47 46l47 47zM75 77q21 15 21 39q0 126 -86 384l63 83q1 -7 14 -78.5t18.5 -105t15 -93.5t13.5 -103t4 -75q0 -4 -0.5 -11t-0.5 -10q115 131 218 131q22 0 41 -6t39 -21t31.5 -47t11.5 -78v-4q0 -15 -9 -45.5t-9 -36.5q-11 1 -43 1h-417l-1 79zM446 104
q0 45 -28.5 64.5t-65.5 19.5q-38 0 -86.5 -28t-79.5 -56l-20 -20h279q1 7 1 20z" />
    <glyph glyph-name="uniFEC9" unicode="&#x639;" horiz-adv-x="625" arabic-form="isolated" 
d="M130 -267q0 52 31 126.5t93 126.5q-87 75 -122 117v32q0 61 65 118q56 49 126 49h5q53 -8 121 -50q-13 1 -37 1q-77 0 -154 -28t-85 -54q2 -36 51 -77t95 -41h6q120 58 234 67l-35 -67q-142 -15 -219 -90q-131 -125 -131 -195q0 -76 361 -122h111l-104 -65
q-224 11 -337 44q-75 21 -75 108z" />
    <glyph glyph-name="uniFECA" unicode="&#x639;" horiz-adv-x="575" arabic-form="final" 
d="M359 336q12 -1 25 -4t30 -10t28 -21t11 -33q0 -32 -38 -71q-25 -12 -63 -45q16 -76 116 -76h131l5 -76h-134q-102 17 -154 106q-74 -54 -113 -111t-39 -128q0 -42 26.5 -74t65.5 -47t71.5 -22t55.5 -7q51 0 125 42l43 -51q-104 -56 -184 -56q-104 0 -173.5 60.5
t-69.5 158.5q0 64 27.5 123.5t62.5 99t97 96.5q-10 32 -19 37q-4 2 -10 2q-1 0 -3 -0.5t-3 -0.5l-61 -11q3 119 144 119z" />
    <glyph glyph-name="uniFECB" unicode="&#x639;" horiz-adv-x="674" arabic-form="initial" 
d="M257 229q0 -36 43 -82t101 -46q101 0 272 26l-50 -77q-174 -49 -354 -49h-252q-24 0 -24 76l276 -1q-64 95 -64 153q12 53 59.5 89.5t105.5 36.5l56 -5q87 -39 121 -73q-96 16 -150 16q-51 0 -95.5 -18.5t-44.5 -45.5z" />
    <glyph glyph-name="uniFECC" unicode="&#x639;" horiz-adv-x="550" arabic-form="medial" 
d="M346 328q56 0 94 -20t38 -52q0 -38 -72 -117q36 -62 86 -62h2h74v-77h-76q-72 0 -133 93q-81 -93 -176 -93h-2l-167 -1q-22 1 -24 78l144 1q5 0 15 -0.5t14 -0.5q152 0 152 89q0 6 -4 15.5t-18 20t-35 10.5q-11 0 -21.5 -9t-13.5 -26h-9v22q3 62 36 95.5t96 33.5z" />
    <glyph glyph-name="uniFECD" unicode="&#x63a;" horiz-adv-x="602" arabic-form="isolated" 
d="M130 -262q0 60 32.5 131.5t90.5 119.5q-87 74 -121 116v29v3q0 61 65 118q55 48 124 48h4q52 -8 121 -49q-11 1 -32 1q-77 0 -155.5 -28.5t-86.5 -53.5q4 -36 51.5 -76.5t93.5 -40.5h6q119 58 231 66l-35 -66q-143 -15 -216 -89q-129 -121 -129 -193q0 -76 356 -121h110
l-103 -65q-219 11 -333 44q-74 22 -74 106zM323 520l-48 -48l-49 48l49 48z" />
    <glyph glyph-name="uniFECE" unicode="&#x63a;" horiz-adv-x="577" arabic-form="final" 
d="M394 474l-49 -50l-50 50l50 49zM359 336q12 -1 25 -4t30 -10t28 -21t11 -33q0 -32 -38 -71q-25 -12 -63 -45q16 -76 116 -76h131l5 -76h-134q-102 17 -154 106q-74 -54 -113 -111t-39 -128q0 -42 26.5 -74t65.5 -47t71.5 -22t55.5 -7q51 0 125 42l43 -51
q-104 -56 -184 -56q-104 0 -173.5 60.5t-69.5 158.5q0 64 27.5 123.5t62.5 99t97 96.5q-10 32 -19 37q-4 2 -10 2q-1 0 -3 -0.5t-3 -0.5l-61 -11q3 119 144 119z" />
    <glyph glyph-name="uniFECF" unicode="&#x63a;" horiz-adv-x="578" arabic-form="initial" 
d="M222 220q0 -30 37 -76.5t94 -46.5q93 0 247 26l-46 -74q-159 -48 -320 -48h-229q-22 0 -22 73l251 -1q-59 94 -59 148q12 51 55 86t95 35l51 -5q77 -36 109 -70q-79 15 -135 15q-45 0 -86.5 -17.5t-41.5 -44.5zM368 553l-46 -48l-46 48l46 49z" />
    <glyph glyph-name="uniFED0" unicode="&#x63a;" horiz-adv-x="577" arabic-form="medial" 
d="M355 322q59 0 97 -20t38 -51v-3q0 -36 -74 -112q38 -60 88 -60h2h97v-76h-98q-74 0 -137 90q-82 -90 -180 -90h-2l-171 -1q-24 2 -25 77l147 1q12 -1 34 -1q152 0 152 87q0 12 -15 29t-44 17q-11 0 -21.5 -9.5t-13.5 -26.5h-9v23q3 61 37 93.5t98 32.5zM397 503l-49 -50
l-49 50l49 50z" />
    <glyph glyph-name="uniFED1" unicode="&#x641;" horiz-adv-x="801" arabic-form="isolated" 
d="M789 321q22 -96 22 -158v-66q0 -92 -86 -92l-526 1q-24 3 -38 11t-21 26t-9 36.5t-3 53.5q2 54 26 130l26 -27q-34 -78 -34 -114q0 -34 34 -41q83 -1 249 -1q41 0 124 0.5t124 0.5h5q83 0 83 48v5q-16 3 -45 9t-40 8.5t-30.5 8.5t-26.5 11t-16 14t-12 20.5t-3 27.5
q0 64 33 126q24 57 70 57h4q46 0 90 -95zM693 329q-36 -10 -36 -71q0 -49 84 -49q15 0 23 1q-8 40 -27.5 77t-43.5 42zM675 512l-49 -50l-50 50l50 51z" />
    <glyph glyph-name="uniFED2" unicode="&#x641;" horiz-adv-x="801" arabic-form="final" 
d="M789 321q22 -96 22 -158v-66q0 -92 -86 -92l-526 1q-24 3 -38 11t-21 26t-9 36.5t-3 53.5q2 54 26 130l26 -27q-34 -78 -34 -114q0 -34 34 -41q83 -1 249 -1q41 0 124 0.5t124 0.5h5q83 0 83 48v5q-16 3 -45 9t-40 8.5t-30.5 8.5t-26.5 11t-16 14t-12 20.5t-3 27.5
q0 64 33 126q24 57 70 57h4q46 0 90 -95zM693 329q-36 -10 -36 -71q0 -49 84 -49q15 0 23 1q-8 40 -27.5 77t-43.5 42zM675 512l-49 -50l-50 50l50 51z" />
    <glyph glyph-name="uniFED3" unicode="&#x641;" horiz-adv-x="300" arabic-form="initial" 
d="M296 309q22 -66 22 -154v-63q0 -92 -83 -92h-265v74l218 1h5q80 0 80 47v5q-19 5 -48.5 11t-42.5 9.5t-31.5 10t-25.5 14t-13 20.5t-6 31q0 66 32 123q23 56 68 56h4q24 0 47 -23.5t39 -69.5zM197 553l-49 -50l-48 50l48 50zM196 327q-20 0 -37 -25t-17 -49
q0 -20 8.5 -33t27 -19.5t36 -9t47.5 -5.5q8 -1 12 -1q-4 33 -13 63t-26 54.5t-38 24.5z" />
    <glyph glyph-name="uniFED4" unicode="&#x641;" horiz-adv-x="300" arabic-form="medial" 
d="M296 309q22 -66 22 -154v-63q0 -92 -83 -92h-265v74l218 1h5q80 0 80 47v5q-19 5 -48.5 11t-42.5 9.5t-31.5 10t-25.5 14t-13 20.5t-6 31q0 66 32 123q23 56 68 56h4q24 0 47 -23.5t39 -69.5zM197 553l-49 -50l-48 50l48 50zM196 327q-20 0 -37 -25t-17 -49
q0 -20 8.5 -33t27 -19.5t36 -9t47.5 -5.5q8 -1 12 -1q-4 33 -13 63t-26 54.5t-38 24.5z" />
    <glyph glyph-name="uniFED5" unicode="&#x642;" horiz-adv-x="696" arabic-form="isolated" 
d="M709 362l-55 -55l-55 55l55 55zM552 362l-56 -55l-55 55l55 55zM606 217q36 -16 72 -58.5t41 -112.5v-63q-17 -143 -88 -187q-91 -56 -259 -56h-31q-209 45 -209 163q0 5 -1 17t-1 18q0 96 51 218h11q-28 -103 -28 -168q0 -39 9.5 -65.5t37.5 -50t85 -35t145 -11.5
q25 0 79.5 12.5t85.5 23.5q75 36 75 111q0 20 -6 27.5t-26 7.5q-17 0 -49 -8q-95 0 -95 51q0 47 32.5 103t68.5 63zM605 154q-25 0 -40 -23.5t-15 -38.5q0 -20 41 -20h9q38 0 44 2q5 0 5 9q0 25 -18 48l-24 23h-2z" />
    <glyph glyph-name="uniFED6" unicode="&#x642;" horiz-adv-x="696" arabic-form="final" 
d="M709 362l-55 -55l-55 55l55 55zM552 362l-56 -55l-55 55l55 55zM606 217q36 -16 72 -58.5t41 -112.5v-63q-17 -143 -88 -187q-91 -56 -259 -56h-31q-209 45 -209 163q0 5 -1 17t-1 18q0 96 51 218h11q-28 -103 -28 -168q0 -39 9.5 -65.5t37.5 -50t85 -35t145 -11.5
q25 0 79.5 12.5t85.5 23.5q75 36 75 111q0 20 -6 27.5t-26 7.5q-17 0 -49 -8q-95 0 -95 51q0 47 32.5 103t68.5 63zM605 154q-25 0 -40 -23.5t-15 -38.5q0 -20 41 -20h9q38 0 44 2q5 0 5 9q0 25 -18 48l-24 23h-2z" />
    <glyph glyph-name="uniFED7" unicode="&#x642;" horiz-adv-x="650" arabic-form="initial" 
d="M292 303q21 -61 21 -149v-62q0 -90 -82 -90h-261v72l215 1h5q79 0 79 46v5q-18 4 -47.5 9.5t-42 8.5t-31 9.5t-25.5 14t-13 21t-6 31.5q0 55 28 114.5t70 59.5h4q24 0 47 -23t39 -68zM147 544l-48 -50l-47 50l47 48zM139 247q0 -19 9.5 -31.5t30 -19t39 -9t51.5 -4.5
q-7 51 -26.5 94t-49.5 43q-20 0 -37 -24.5t-17 -48.5zM276 544l-47 -50l-48 50l48 48z" />
    <glyph glyph-name="uniFED8" unicode="&#x642;" horiz-adv-x="650" arabic-form="medial" 
d="M292 303q21 -61 21 -149v-62q0 -90 -82 -90h-261v72l215 1h5q79 0 79 46v5q-18 4 -47.5 9.5t-42 8.5t-31 9.5t-25.5 14t-13 21t-6 31.5q0 55 28 114.5t70 59.5h4q24 0 47 -23t39 -68zM147 544l-48 -50l-47 50l47 48zM139 247q0 -19 9.5 -31.5t30 -19t39 -9t51.5 -4.5
q-7 51 -26.5 94t-49.5 43q-20 0 -37 -24.5t-17 -48.5zM276 544l-47 -50l-48 50l48 48z" />
    <glyph glyph-name="uniFED9" unicode="&#x643;" horiz-adv-x="757" arabic-form="isolated" 
d="M948 758l-199 -87q-4 -2 -22.5 -10t-34 -15.5t-33 -16t-28 -15t-10.5 -9.5q0 -7 7 -15.5t23.5 -25t37.5 -39.5t56.5 -68t74.5 -101q12 -19 25.5 -46.5t31 -89.5t17.5 -120q0 -100 -42 -100h-588q-77 0 -128 88q-15 25 -15 89q0 67 20 131l8 -4q-7 -45 -7 -85
q0 -77 39.5 -111t137.5 -34h11h529q2 24 2 35q0 122 -125 286l-61 65l-11 -14q-34 23 -86 75q-4 26 -4 38q0 74 56 112t270 127q35 15 54 23z" />
    <glyph glyph-name="uniFEDA" unicode="&#x643;" horiz-adv-x="757" arabic-form="final" 
d="M948 758l-199 -87q-4 -2 -22.5 -10t-34 -15.5t-33 -16t-28 -15t-10.5 -9.5q0 -7 7 -15.5t23.5 -25t37.5 -39.5t56.5 -68t74.5 -101q12 -19 25.5 -46.5t31 -89.5t17.5 -120q0 -100 -42 -100h-588q-77 0 -128 88q-15 25 -15 89q0 67 20 131l8 -4q-7 -45 -7 -85
q0 -77 39.5 -111t137.5 -34h11h529q2 24 2 35q0 122 -125 286l-61 65l-11 -14q-34 23 -86 75q-4 26 -4 38q0 74 56 112t270 127q35 15 54 23z" />
    <glyph glyph-name="uniFEDB" unicode="&#x643;" horiz-adv-x="318" arabic-form="initial" 
d="M388 712l-199 -82q-4 -2 -41.5 -17.5t-62 -27.5t-24.5 -17q0 -8 107 -118q85 -102 125.5 -179.5t40.5 -176.5q0 -94 -42 -94h-307l6 79h308q2 20 2 29q0 106 -125 263l-61 61l-11 -13q-34 22 -86 70q-4 24 -4 36q0 31 11 53.5t35 42.5t70 42t105.5 46t152.5 60l6 2z" />
    <glyph glyph-name="uniFEDC" unicode="&#x643;" horiz-adv-x="318" arabic-form="medial" 
d="M388 712l-199 -82q-4 -2 -41.5 -17.5t-62 -27.5t-24.5 -17q0 -8 107 -118q85 -102 125.5 -179.5t40.5 -176.5q0 -94 -42 -94h-307l6 79h308q2 20 2 29q0 106 -125 263l-61 61l-11 -13q-34 22 -86 70q-4 24 -4 36q0 31 11 53.5t35 42.5t70 42t105.5 46t152.5 60l6 2z" />
    <glyph glyph-name="uniFEDD" unicode="&#x644;" horiz-adv-x="655" arabic-form="isolated" 
d="M665 -39q0 -85 -11.5 -139t-42.5 -95t-88 -59t-146 -18q-245 0 -245 193q0 97 61 261l16 -6q-46 -141 -46 -216q0 -74 76 -126q89 -19 161 -19q81 0 116 18q89 46 89 157q0 264 -37 704l38 38l52 41l47 -146l-52 -64v-48q0 -172 6 -311.5t6 -164.5z" />
    <glyph glyph-name="uniFEDE" unicode="&#x644;" horiz-adv-x="655" arabic-form="final" 
d="M665 -39q0 -85 -11.5 -139t-42.5 -95t-88 -59t-146 -18q-245 0 -245 193q0 97 61 261l16 -6q-46 -141 -46 -216q0 -74 76 -126q89 -19 161 -19q81 0 116 18q89 46 89 157q0 264 -37 704l38 38l52 41l47 -146l-52 -64v-48q0 -172 6 -311.5t6 -164.5z" />
    <glyph glyph-name="uniFEDF" unicode="&#x644;" horiz-adv-x="206" arabic-form="initial" 
d="M210 701l40 -130l-40 9v-391q0 -74 -13.5 -114t-36 -53.5t-65.5 -20.5l-108 -3l1 77l78 2q89 2 89 105v6l-10 452z" />
    <glyph glyph-name="uniFEE0" unicode="&#x644;" horiz-adv-x="206" arabic-form="medial" 
d="M210 701l40 -130l-40 9v-391q0 -74 -13.5 -114t-36 -53.5t-65.5 -20.5l-108 -3l1 77l78 2q89 2 89 105v6l-10 452z" />
    <glyph glyph-name="uniFEE1" unicode="&#x645;" horiz-adv-x="549" arabic-form="isolated" 
d="M280 103q-27 0 -51 -38q-4 16 -4 34q0 65 80 67h27q28 0 81.5 -17t103.5 -52.5t50 -74.5q0 -26 -28 -57t-64 -31q-5 0 -36 12t-74.5 24t-79.5 12q-61 0 -86 -36q30 -242 30 -373q0 -63 -22 -111q-22 131 -38 211.5t-21.5 99t-10 48.5t-8.5 96v11q0 14 7.5 35t23.5 46
t47.5 42.5t71.5 17.5q21 0 129 -28q-95 62 -128 62z" />
    <glyph glyph-name="uniFEE2" unicode="&#x645;" horiz-adv-x="549" arabic-form="final" 
d="M280 103q-27 0 -51 -38q-4 16 -4 34q0 65 80 67h27q28 0 81.5 -17t103.5 -52.5t50 -74.5q0 -26 -28 -57t-64 -31q-5 0 -36 12t-74.5 24t-79.5 12q-61 0 -86 -36q30 -242 30 -373q0 -63 -22 -111q-22 131 -38 211.5t-21.5 99t-10 48.5t-8.5 96v11q0 14 7.5 35t23.5 46
t47.5 42.5t71.5 17.5q21 0 129 -28q-95 62 -128 62z" />
    <glyph glyph-name="uniFEE3" unicode="&#x645;" horiz-adv-x="403" arabic-form="initial" 
d="M307 230q37 0 79.5 -61t42.5 -117q0 -61 -77 -73q-67 0 -114 32l-45 31q-32 -40 -88 -40h-4h-101v76l101 -1q34 1 57.5 17t37 38.5t25.5 44.5t32 37.5t48 15.5h6zM342 40q27 0 27 34q0 19 -42 71l-19 14l-17 -7q-31 -25 -39 -58q15 -24 41 -39t49 -15z" />
    <glyph glyph-name="uniFEE4" unicode="&#x645;" horiz-adv-x="403" arabic-form="medial" 
d="M307 230q37 0 79.5 -61t42.5 -117q0 -61 -77 -73q-67 0 -114 32l-45 31q-32 -40 -88 -40h-4h-101v76l101 -1q34 1 57.5 17t37 38.5t25.5 44.5t32 37.5t48 15.5h6zM342 40q27 0 27 34q0 19 -42 71l-19 14l-17 -7q-31 -25 -39 -58q15 -24 41 -39t49 -15z" />
    <glyph glyph-name="uniFEE5" unicode="&#x646;" horiz-adv-x="651" arabic-form="isolated" 
d="M441 251l-59 -55l-58 55l58 55zM362 -220q143 0 208.5 40.5t65.5 148.5q-1 156 -41 188l58 96q17 -71 20 -243l-7 -78q-5 -70 -26 -117t-57 -70.5t-76 -32.5t-96 -9q-32 0 -49 1q-136 0 -188.5 53t-52.5 156q0 92 28 189l21 -4q-17 -73 -17 -130q0 -7 1 -20t1 -19
q0 -147 207 -149z" />
    <glyph glyph-name="uniFEE6" unicode="&#x646;" horiz-adv-x="651" arabic-form="final" 
d="M441 251l-59 -55l-58 55l58 55zM362 -220q143 0 208.5 40.5t65.5 148.5q-1 156 -41 188l58 96q17 -71 20 -243l-7 -78q-5 -70 -26 -117t-57 -70.5t-76 -32.5t-96 -9q-32 0 -49 1q-136 0 -188.5 53t-52.5 156q0 92 28 189l21 -4q-17 -73 -17 -130q0 -7 1 -20t1 -19
q0 -147 207 -149z" />
    <glyph glyph-name="uniFEE7" unicode="&#x646;" horiz-adv-x="323" arabic-form="initial" 
d="M278 430l-61 -58l-62 58l62 58zM286 308q45 -60 45 -137v-68q0 -103 -52 -103h-282l-9 77h310v9q0 94 -56 147z" />
    <glyph glyph-name="uniFEE8" unicode="&#x646;" horiz-adv-x="323" arabic-form="medial" 
d="M278 430l-61 -58l-62 58l62 58zM286 308q45 -60 45 -137v-68q0 -103 -52 -103h-282l-9 77h310v9q0 94 -56 147z" />
    <glyph glyph-name="uniFEE9" unicode="&#x647;" horiz-adv-x="424" arabic-form="isolated" 
d="M394 115q0 -101 -117 -113q-65 0 -94 11t-50 50q-6 12 -6 34t9.5 49.5t19.5 46.5t28 49t23 40l-8 10l53 72q60 -68 79 -102l51 -87q12 -31 12 -60zM274 70q87 0 87 32q0 28 -32 79.5t-94 72.5q-69 -79 -69 -126q0 -31 33 -44.5t75 -13.5z" />
    <glyph glyph-name="uniFEEA" unicode="&#x647;" horiz-adv-x="622" arabic-form="final" 
d="M615 1q-103 0 -147.5 42.5t-67.5 172.5q-32 -77 -107 -77q-163 3 -163 74q0 85 223 179q-4 13 -4 30q0 38 24 76l74 -337q44 -86 106 -86h94l-5 -72q-2 -2 -27 -2zM199 240q0 -23 34 -33.5t62 -10.5q53 0 69 11t23 45q-3 12 -7.5 34.5t-9 40.5t-10.5 32
q-161 -67 -161 -119z" />
    <glyph glyph-name="uniFEEB" unicode="&#x647;" horiz-adv-x="525" arabic-form="initial" 
d="M353 547q179 -174 179 -365q0 -21 -3 -46t-10.5 -58t-25 -58t-42.5 -32q-102 10 -190 92q-88 -79 -190 -81h-83l7 76q137 0 221 48q-51 24 -75 109q0 167 214 215l-56 37q7 46 54 63zM455 94q10 0 22 43t12 63q0 94 -70 177l-2 -47q-25 -109 -76 -172q95 -55 112 -64h2z
M323 223q38 99 38 124q0 29 -24 33q-48 -14 -88.5 -42.5t-40.5 -62.5q0 -40 96 -87z" />
    <glyph glyph-name="uniFEEC" unicode="&#x647;" horiz-adv-x="476" arabic-form="medial" 
d="M378 204q0 -17 -2 -29t-11 -31.5t-33 -36.5t-61 -29h220v-77h-220q32 -7 58 -31q46 -27 46 -88q0 -38 -34 -77.5t-79 -39.5q-32 0 -53.5 40.5t-30.5 94.5l-5 101h-191l1 77h187l9 125q16 65 36.5 94.5t61.5 29.5q42 0 71.5 -47t29.5 -76zM348 199q0 11 -4.5 26.5
t-20 31.5t-39.5 16q-13 0 -23 -5.5t-17 -17.5t-12 -23.5t-9 -32.5t-6 -35.5t-5.5 -40.5t-5.5 -40h32q55 23 82.5 48.5t27.5 72.5zM209 -12q23 -156 81 -160q64 18 64 59q0 51 -43.5 82.5t-101.5 31.5v-13z" />
    <glyph glyph-name="uniFEED" unicode="&#x648;" horiz-adv-x="399" arabic-form="isolated" 
d="M330 -1h-99q-42 18 -42 90v14q0 62 42 119q24 32 75 32h9q68 -11 84 -172v-85q0 -114 -106 -247q-59 -75 -167 -75h-53v10q119 69 149.5 96t75.5 101q34 55 34 97q0 6 -2 20zM341 88q-2 53 -10 77.5t-32 24.5q-45 0 -45 -102h10q8 0 26.5 -0.5t27.5 -0.5q16 0 23 1z" />
    <glyph glyph-name="uniFEEE" unicode="&#x648;" horiz-adv-x="399" arabic-form="final" 
d="M330 -1h-99q-42 18 -42 90v14q0 62 42 119q24 32 75 32h9q68 -11 84 -172v-85q0 -114 -106 -247q-59 -75 -167 -75h-53v10q119 69 149.5 96t75.5 101q34 55 34 97q0 6 -2 20zM341 88q-2 53 -10 77.5t-32 24.5q-45 0 -45 -102h10q8 0 26.5 -0.5t27.5 -0.5q16 0 23 1z" />
    <glyph glyph-name="uniFEEF" unicode="&#x649;" horiz-adv-x="776" arabic-form="isolated" 
d="M714 265q27 0 35.5 -15t8.5 -43q0 -9 -2 -27q-33 26 -66 26q-34 0 -80.5 -43t-46.5 -63q0 -29 80 -29q3 0 19 2t30 2q63 0 63 -41q0 -103 -99.5 -176.5t-238.5 -73.5q-82 0 -141 17.5t-89 47t-43 60.5t-13 65q0 107 83 222l11 -4q-52 -98 -52 -163t52 -106.5t146 -48.5
q302 16 348 109q-2 20 -101 20q-101 0 -101 56q0 65 67 135.5t130 70.5z" />
    <glyph glyph-name="alefmaksurafinalarabic" unicode="&#x649;" horiz-adv-x="776" arabic-form="final" 
d="M695 88q22 0 46.5 -5.5t34.5 -5.5v-77q-16 0 -52 9t-86 9q-48 0 -48 -18q0 -11 11.5 -16t41.5 -7q129 -10 129 -72q0 -20 -14 -36t-29.5 -25t-48.5 -24q-78 -36 -263 -36q-82 0 -141 17.5t-89 47t-43 60.5t-13 65q0 107 83 222l11 -4q-52 -98 -52 -163q0 -66 51.5 -110.5
t140.5 -44.5q212 0 275.5 4.5t63.5 20.5q0 15 -92 21q-44 3 -69.5 28t-25.5 55q0 39 46 62t132 23z" />
    <glyph glyph-name="uniFEF1" unicode="&#x64a;" horiz-adv-x="776" arabic-form="isolated" 
d="M714 265q27 0 35.5 -15t8.5 -43q0 -9 -2 -27q-33 26 -66 26q-34 0 -80.5 -43t-46.5 -63q0 -29 80 -29q3 0 19 2t30 2q63 0 63 -37v-4q0 -118 -132 -197q-89 -53 -206 -53q-82 0 -141 17.5t-89 47t-43 60.5t-13 65q0 107 83 222l11 -4q-52 -98 -52 -163t52 -106.5
t146 -48.5q302 16 348 109q-2 20 -101 20h-6q-95 0 -95 56q0 65 67 135.5t130 70.5zM461 -322l-65 -66l-67 66l67 67zM619 -289l-65 -66l-67 66l67 67z" />
    <glyph glyph-name="yehfinalarabic" unicode="&#x64a;" horiz-adv-x="776" arabic-form="final" 
d="M461 -322l-65 -66l-67 66l67 67zM619 -289l-65 -66l-67 66l67 67zM695 88q22 0 46.5 -5.5t34.5 -5.5v-77q-15 0 -49 9t-89 9q-48 0 -48 -18q0 -12 11.5 -16.5t41.5 -6.5q129 -10 129 -72q0 -26 -23 -45t-69 -40q-78 -36 -263 -36q-82 0 -141 17.5t-89 47t-43 60.5t-13 65
q0 107 83 222l11 -4q-52 -98 -52 -163q0 -69 55 -112t143 -43q201 0 267 5t66 20q0 14 -92 21q-44 4 -69.5 29t-25.5 54q0 39 46 62t132 23z" />
    <glyph glyph-name="yehinitialarabic" unicode="&#x64a;" horiz-adv-x="296" arabic-form="initial" 
d="M220 78q-16 96 -27 119q-16 32 -69 68q-13 8 -32 20l2 79q22 -7 36 -13t40 -26t43 -48t32.5 -80t19.5 -119q0 -78 -56 -78h-208q-4 33 -7 78h226zM135 -128l-65 -66l-67 66l67 67zM293 -95l-65 -66l-67 66l67 67z" />
    <glyph glyph-name="yehmedialarabic" unicode="&#x64a;" horiz-adv-x="264" arabic-form="medial" 
d="M39 78q51 0 79.5 20.5t46.5 62.5q18 -43 44.5 -63t76.5 -20q4 -53 7 -78h-55q-24 0 -47 26q-11 12 -27 52q-22 -44 -32 -52q-15 -12 -22 -16t-23.5 -7t-48.5 -3h-38q-4 33 -7 78h46zM134 -128l-65 -66l-67 66l67 67zM292 -95l-65 -66l-67 66l67 67z" />
    <glyph glyph-name="uniFEF9" unicode="&#xfef9;" horiz-adv-x="676" arabic-form="isolated" 
d="M110 -133q0 22 23 60t59 38h5q41 -2 43 -44q-18 12 -33 12q-18 0 -36 -16t-18 -28q0 -9 14.5 -26.5t33.5 -17.5q20 0 57 10q-59 -51 -157 -85q17 33 52 49q-43 21 -43 48zM440 238q42 92 76 192.5t37 148.5l-20 55q0 2 -0.5 7t-0.5 8q0 40 21 67v-14q1 -27 61 -48
l-10 -52l-18 -19q-8 -21 -13.5 -58.5t-29 -111t-77.5 -198.5q59 -105 59 -159q0 -43 -52 -54.5t-229 -14.5l6 91q122 49 169 129l-141 212q-52 77 -57 79q-4 0 -14 -5.5t-15 -5.5q-6 0 -17 6t-23 17.5t-21 33.5t-9 50q0 46 18 46q9 0 26.5 -16t43 -48t47.5 -62t54 -78.5
t49 -74.5t46.5 -72t33.5 -51zM336 73q74 2 101 9t27 28q0 14 -24 64q-45 -62 -104 -101z" />
    <glyph glyph-name="uniFEFA" unicode="&#xfefa;" horiz-adv-x="724" arabic-form="final" 
d="M323 -136q0 22 23 60t59 38h5q41 -2 43 -44q-18 12 -33 12q-18 0 -36 -16t-18 -28q0 -9 14.5 -26.5t33.5 -17.5q20 0 57 10q-59 -51 -157 -85q17 33 52 49q-43 21 -43 48zM739 -3h-48q-105 0 -105 164l-11 98q-45 -175 -137 -237q-70 -26 -231 -26q-54 0 -84 1
q166 53 287 111q148 85 148 354q0 93 -14 252l120 -119q-42 -30 -42 -169q0 -112 27 -293q21 -53 46 -53h37zM438 245q-104 216 -223 216h-8l-3 144q100 -6 152 -107t82 -253z" />
    <glyph glyph-name=".notdef" horiz-adv-x="700" 
d="M88 0v666h524v-666h-524zM164 33h372v600h-372v-600z" />
    <glyph glyph-name=".null" 
 />
    <glyph glyph-name="nonmarkingreturn" horiz-adv-x="600" 
 />
    <glyph glyph-name="space" unicode=" " horiz-adv-x="250" 
 />
    <glyph glyph-name="exclam" unicode="!" horiz-adv-x="333" 
d="M189 176h-13q-10 122 -22 215t-18 136t-6 72q0 35 14 56t39 21q53 0 53 -80q0 -28 -6 -70t-18 -135.5t-23 -214.5zM183 98q22 0 38 -16t16 -39t-15.5 -37.5t-39.5 -14.5q-22 0 -37 14.5t-15 37.5t15.5 39t37.5 16z" />
    <glyph glyph-name="quotedbl" unicode="&#x22;" horiz-adv-x="408" 
d="M299 431h-21q-32 169 -32 204q0 17 12.5 29t30.5 12q17 0 29.5 -12t12.5 -28q0 -37 -32 -205zM130 431h-21q-32 169 -32 204q0 17 12.5 29t30.5 12q17 0 29.5 -12t12.5 -28q0 -37 -32 -205z" />
    <glyph glyph-name="numbersign" unicode="#" horiz-adv-x="500" 
d="M471 271v-55h-109l-31 -216h-58l31 216h-134l-33 -216h-58l33 216h-107v55h116l21 134h-110v55h118l31 202h58l-31 -202h133l30 202h58l-30 -202h97v-55h-105l-20 -134h100zM333 405h-133l-21 -134h134z" />
    <glyph glyph-name="dollar" unicode="$" horiz-adv-x="500" 
d="M52 512q0 64 45 103t133 49v63h34v-63q113 -13 161 -53v-111h-15q-13 64 -48 96.5t-98 40.5v-246q10 -6 38.5 -22t38 -22t31.5 -20.5t30 -23.5t22 -25t19 -30.5t9.5 -34.5t4.5 -43q0 -75 -48.5 -114.5t-144.5 -55.5v-87h-34v87q-63 2 -102 12.5t-84 38.5v130h15
q18 -79 59 -115.5t112 -37.5v282q-99 55 -138.5 98.5t-39.5 103.5zM229 407v230q-103 -21 -103 -103q0 -35 20.5 -60t82.5 -67zM264 293v-265q114 22 114 118q0 46 -22 74.5t-92 72.5z" />
    <glyph glyph-name="percent" unicode="%" horiz-adv-x="833" 
d="M669 371q49 0 76 -28t27 -79q0 -58 -23 -115t-63 -98q-51 -51 -117 -51q-54 0 -87 35.5t-33 93.5q0 94 67.5 168t152.5 74zM586 30q43 0 81 38t58.5 90.5t20.5 100.5q0 33 -20.5 56.5t-49.5 23.5q-46 0 -83 -52t-52.5 -106.5t-15.5 -86.5q0 -28 17 -46t44 -18zM282 662
q31 0 50 -13.5t42.5 -27t64.5 -13.5q47 0 81.5 15t74.5 53h39l-385 -689h-48l351 626q-52 -30 -110 -30q-39 0 -65 10q7 -25 7 -44q0 -93 -59.5 -176.5t-145.5 -83.5q-49 0 -83.5 37.5t-34.5 89.5q0 95 67.5 170.5t153.5 75.5zM282 632q-48 0 -96.5 -87.5t-48.5 -160.5
q0 -27 16.5 -44t42.5 -17q61 0 112 71.5t51 156.5q0 19 -9 49q-20 5 -33.5 11.5t-18 10.5t-8.5 7t-8 3z" />
    <glyph glyph-name="ampersand" unicode="&#x26;" horiz-adv-x="778" 
d="M491 555q0 -53 -35 -92t-120 -79q60 -117 132 -206q91 121 91 182q0 23 -13.5 32t-50.5 13v21h216v-21q-38 -5 -57 -16.5t-37 -42.5q-63 -112 -126 -196q69 -92 154 -92q27 0 46.5 11.5t43.5 41.5l15 -11q-22 -53 -62.5 -83t-88.5 -30q-82 0 -170 91q-56 -49 -105.5 -70
t-110.5 -21q-80 0 -125.5 40.5t-45.5 111.5q0 45 16.5 82.5t49.5 67t59.5 47t69.5 41.5q-35 97 -35 145q0 64 45 109t109 45q59 0 97 -34t38 -87zM321 416q61 33 89 67t28 76q0 37 -22.5 61t-57.5 24q-34 0 -55.5 -23t-21.5 -59q0 -62 40 -146zM252 343q-65 -42 -91.5 -78.5
t-26.5 -84.5q0 -58 38 -99.5t91 -41.5q59 0 141 65q-74 91 -152 239z" />
    <glyph glyph-name="quotesingle" unicode="'" horiz-adv-x="180" 
d="M101 431h-21q-32 169 -32 204q0 17 12.5 29t30.5 12q17 0 29.5 -12t12.5 -28q0 -37 -32 -205z" />
    <glyph glyph-name="parenleft" unicode="(" horiz-adv-x="333" 
d="M292 -177q-26 16 -54 38.5t-63.5 62.5t-62.5 85.5t-45.5 109.5t-18.5 133q0 72 18.5 136.5t43.5 107t63.5 82t63.5 58.5t58 40l9 -16q-44 -36 -71 -65t-52 -75.5t-36 -111t-11 -153.5q0 -93 11 -160t36 -114.5t52 -77.5t71 -64z" />
    <glyph glyph-name="parenright" unicode=")" horiz-adv-x="333" 
d="M41 676q26 -16 54 -38.5t63.5 -62.5t62.5 -85.5t45.5 -109.5t18.5 -133q0 -72 -18.5 -136.5t-43.5 -107t-63.5 -82t-63.5 -58.5t-58 -40l-9 16q44 36 71 65t52 75.5t36 111t11 153.5q0 93 -11 160t-36 114.5t-52 77.5t-71 64z" />
    <glyph glyph-name="asterisk" unicode="*" horiz-adv-x="500" 
d="M214 302q0 10 13.5 53.5t13.5 100.5q-39 -24 -64 -52t-37.5 -40.5t-34.5 -12.5q-36 0 -36 35q0 17 13 25.5t32 12t53.5 16t66.5 31.5q-39 20 -84.5 31t-63 20t-17.5 33q0 15 10 25.5t24 10.5q16 0 28.5 -9t21.5 -22t32.5 -34t55.5 -40q0 57 -12.5 101t-12.5 54
q0 15 10 25t25 10t25.5 -10.5t10.5 -26.5q0 -13 -13.5 -54.5t-13.5 -100.5q35 22 61.5 50.5t41 43.5t32.5 15q16 0 26 -11t10 -28q0 -21 -20 -30t-64 -21.5t-79 -32.5q30 -19 64 -30.5t53.5 -14.5t33 -12t13.5 -26t-9.5 -27t-25.5 -10q-21 0 -35 12.5t-40.5 41t-61.5 52.5
q0 -57 14 -101.5t14 -49.5q0 -16 -11.5 -28t-27.5 -12q-14 0 -24.5 11t-10.5 26z" />
    <glyph glyph-name="plus" unicode="+" horiz-adv-x="564" 
d="M249 286v220h66v-220h219v-66h-219v-220h-66v220h-219v66h219z" />
    <glyph glyph-name="comma" unicode="," horiz-adv-x="250" 
d="M142 -2l-8 -2q-9 -2 -19 -2q-27 0 -43 13.5t-16 37.5q0 25 16.5 41t42.5 16q34 0 57 -25.5t23 -63.5q0 -45 -31 -87t-81 -67l-9 19q82 56 82 106q0 14 -14 14z" />
    <glyph glyph-name="hyphen" unicode="-" horiz-adv-x="333" 
d="M39 257h246v-63h-246v63z" />
    <glyph glyph-name="period" unicode="." horiz-adv-x="250" 
d="M125 100q23 0 39.5 -17t16.5 -40q0 -22 -17 -38t-40 -16q-22 0 -38 16t-16 38q0 23 16.5 40t38.5 17z" />
    <glyph glyph-name="slash" unicode="/" horiz-adv-x="278" 
d="M287 676l-228 -690h-68l229 690h67z" />
    <glyph glyph-name="zero" unicode="0" horiz-adv-x="500" 
d="M250 -14q-102 0 -164 98t-62 252q0 145 62 242.5t168 97.5q98 0 160 -96t62 -250q0 -152 -62 -248t-164 -96zM251 650q-131 0 -131 -323q0 -315 130 -315t130 316q0 157 -33 239.5t-96 82.5z" />
    <glyph glyph-name="one" unicode="1" horiz-adv-x="500" 
d="M183 593q-18 0 -72 -22v14l180 91l8 -2v-600q0 -36 18 -47t77 -12v-15h-276v15q56 2 75.5 16.5t19.5 61.5v453q0 47 -30 47z" />
    <glyph glyph-name="two" unicode="2" horiz-adv-x="500" 
d="M31 477q5 23 10 40t21.5 49.5t37 54t57 38.5t82.5 17q78 0 131.5 -51t53.5 -126q0 -113 -128 -247l-168 -176h239q34 0 50.5 11.5t44.5 54.5l13 -5l-55 -137h-390v12l178 189q130 138 130 260q0 63 -39 102t-102 39q-52 0 -83.5 -28.5t-61.5 -101.5z" />
    <glyph glyph-name="three" unicode="3" horiz-adv-x="500" 
d="M81 78q23 0 68.5 -28t79.5 -28q55 0 93 43t38 106q0 39 -13.5 69t-34.5 46.5t-50 27t-54.5 13.5t-54.5 3v13q34 12 58.5 23.5t51.5 31t41.5 47.5t14.5 64q0 47 -30.5 77t-79.5 30q-47 0 -82.5 -25.5t-66.5 -80.5l-15 4q26 71 70.5 116.5t126.5 45.5q69 0 112.5 -38
t43.5 -99q0 -41 -21 -72t-73 -66q60 -26 94 -66.5t34 -115.5q0 -106 -78.5 -169.5t-197.5 -63.5q-52 0 -82.5 15.5t-30.5 41.5q0 16 10.5 25.5t27.5 9.5z" />
    <glyph glyph-name="four" unicode="4" horiz-adv-x="500" 
d="M472 231v-64h-102v-167h-77v167h-281v64l314 445h44v-445h102zM292 231v343l-240 -343h240z" />
    <glyph glyph-name="five" unicode="5" horiz-adv-x="500" 
d="M357 194q0 53 -23.5 94t-57 63.5t-75 37t-72 19t-53.5 4.5q-12 0 -12 8q0 3 1 5l109 237h209q16 0 25.5 5t20.5 21l9 -7l-38 -89q-4 -9 -23 -9h-196l-42 -85q146 -26 217 -84.5t71 -171.5q0 -59 -18.5 -105t-47 -74t-66 -46t-72 -24.5t-69.5 -6.5q-56 0 -89 16.5
t-33 45.5q0 37 43 37q28 0 72.5 -31t70.5 -31q59 0 99 49.5t40 121.5z" />
    <glyph glyph-name="six" unicode="6" horiz-adv-x="500" 
d="M258 -14q-101 0 -162.5 80.5t-61.5 212.5q0 41 8 84.5t35 99t70 99.5t120.5 78.5t178.5 43.5l2 -16q-118 -19 -197 -95.5t-99 -189.5q47 28 71 36.5t57 8.5q86 0 137 -56.5t51 -152.5q0 -103 -58.5 -168t-151.5 -65zM242 382q-68 0 -91.5 -30t-23.5 -89q0 -116 38 -182.5
t104 -66.5q53 0 81 44.5t28 126.5q0 94 -35.5 145.5t-100.5 51.5z" />
    <glyph glyph-name="seven" unicode="7" horiz-adv-x="500" 
d="M449 662v-16l-212 -654h-65l198 596h-217q-41 0 -62.5 -15t-53.5 -66l-17 8l59 147h370z" />
    <glyph glyph-name="eight" unicode="8" horiz-adv-x="500" 
d="M290 371q90 -67 122.5 -112.5t32.5 -103.5q0 -77 -53.5 -123t-143.5 -46q-85 0 -138.5 46t-53.5 119q0 51 24.5 85.5t105.5 95.5q-79 69 -101.5 103t-22.5 83q0 68 54 113t136 45q75 0 123.5 -40t48.5 -102q0 -51 -30 -87t-104 -76zM212 312q-44 -35 -62 -70t-18 -83
q0 -65 35 -105t92 -40q49 0 79.5 30.5t30.5 79.5q0 16 -3.5 30t-7 24.5t-14 23.5t-17 20.5t-23.5 21.5t-25.5 20t-32 23t-34.5 25zM261 389q1 1 13.5 9.5t18 13.5t17 15.5t17.5 20t13.5 23t11 30t3.5 34.5q0 52 -30 82.5t-81 30.5q-47 0 -77.5 -28t-30.5 -71q0 -42 29 -79
t96 -81z" />
    <glyph glyph-name="nine" unicode="9" horiz-adv-x="500" 
d="M59 -22l-3 20q114 20 193.5 97t110.5 199q-74 -57 -150 -57q-81 0 -130.5 56t-49.5 147q0 101 59.5 168.5t148.5 67.5q97 0 159 -79t62 -203q0 -40 -7 -82t-32.5 -99.5t-66.5 -103t-117 -82.5t-177 -49zM246 280q19 0 43 5.5t48.5 24t24.5 45.5v39q0 254 -132 254
q-31 0 -53 -16.5t-33.5 -43.5t-16.5 -55t-5 -59q0 -89 33.5 -141.5t90.5 -52.5z" />
    <glyph glyph-name="colon" unicode=":" horiz-adv-x="278" 
d="M136 459q23 0 39.5 -17t16.5 -40q0 -22 -17 -38t-40 -16q-22 0 -38 16t-16 38q0 23 16.5 40t38.5 17zM136 100q23 0 39.5 -17t16.5 -40q0 -22 -17 -38t-40 -16q-22 0 -38 16t-16 38q0 23 16.5 40t38.5 17z" />
    <glyph glyph-name="semicolon" unicode=";" horiz-adv-x="278" 
d="M166 -2l-8 -2q-9 -2 -19 -2q-27 0 -43 13.5t-16 37.5q0 25 16.5 41t42.5 16q34 0 57 -25.5t23 -63.5q0 -45 -31 -87t-81 -67l-9 19q82 56 82 106q0 14 -14 14zM136 459q23 0 39.5 -17t16.5 -40q0 -22 -17 -38t-40 -16q-22 0 -38 16t-16 38q0 23 16.5 40t38.5 17z" />
    <glyph glyph-name="less" unicode="&#x3c;" horiz-adv-x="564" 
d="M536 -10l-508 230v66l508 230v-72l-420 -191l420 -191v-72z" />
    <glyph glyph-name="equal" unicode="=" horiz-adv-x="564" 
d="M534 386v-66h-504v66h504zM534 186v-66h-504v66h504z" />
    <glyph glyph-name="greater" unicode="&#x3e;" horiz-adv-x="564" 
d="M28 516l508 -230v-66l-508 -230v72l420 191l-420 191v72z" />
    <glyph glyph-name="question" unicode="?" horiz-adv-x="444" 
d="M230 676q76 0 130 -42.5t54 -112.5q0 -36 -17 -73.5t-34 -61t-54 -68.5q-50 -64 -65 -154h-17q0 19 1.5 35t5.5 33t6 26t9.5 28.5t9.5 25t13 29t13 29.5q37 85 37 156q0 50 -31.5 85t-76.5 35q-37 0 -66 -19t-29 -43q0 -9 19 -33t19 -41q0 -18 -11.5 -29.5t-29.5 -11.5
q-48 0 -48 62t46.5 103.5t115.5 41.5zM237 99q22 0 38 -16.5t16 -38.5q0 -23 -15.5 -37.5t-39.5 -14.5q-22 0 -37 14.5t-15 36.5q0 24 15 40t38 16z" />
    <glyph glyph-name="at" unicode="@" horiz-adv-x="921" 
d="M482 645q-126 0 -204 -93.5t-78 -228.5q0 -130 82 -214t210 -84q89 0 196 48l12 -30q-73 -33 -118.5 -45t-98.5 -12q-155 0 -261 98t-106 242q0 146 106.5 248t258.5 102q139 0 233.5 -84.5t94.5 -208.5q0 -97 -55 -168.5t-129 -71.5q-36 0 -61.5 20t-29.5 53
q-54 -72 -125 -72q-37 0 -62.5 32.5t-25.5 79.5q0 90 56.5 171t139.5 81q26 0 40.5 -10.5t31.5 -41.5l10 38h69l-65 -254q-2 -12 -2 -18q0 -46 39 -46q49 0 89 61t40 136q0 112 -84.5 192t-202.5 80zM572 406q0 31 -13 44.5t-31 13.5q-41 0 -88.5 -55.5t-47.5 -136.5
q0 -39 16 -62t44 -23q48 0 84 75t36 144z" />
    <glyph glyph-name="A" unicode="A" horiz-adv-x="722" 
d="M706 19v-19h-255v19q40 1 55 8t15 26q0 24 -19 67l-41 96h-262l-46 -117q-8 -21 -8 -39q0 -41 68 -41v-19h-198v19q37 2 57.5 28.5t66.5 135.5l208 491h20l249 -568q24 -55 40 -70t50 -17zM216 257h231l-116 275z" />
    <glyph glyph-name="B" unicode="B" horiz-adv-x="667" 
d="M593 180q0 -30 -11 -59t-36.5 -57.5t-75.5 -46t-119 -17.5h-334v19q62 2 79 18t17 72v444q0 55 -16.5 70.5t-79.5 19.5v19h280q262 0 262 -170q0 -33 -12 -58.5t-24.5 -39t-38.5 -25.5t-33 -13.5t-29 -7.5l34.5 -9t42 -17t47.5 -30t32 -45.5t15 -66.5zM278 37q45 0 78 6
t62 20.5t44.5 43.5t15.5 72q0 41 -15.5 69.5t-37.5 43.5t-61 23t-69 9.5t-80 1.5v-248q0 -24 13 -32.5t50 -8.5zM215 366h95q70 0 108.5 31.5t38.5 90.5q0 67 -45 102t-131 35h-44q-22 0 -22 -30v-229z" />
    <glyph glyph-name="C" unicode="C" horiz-adv-x="667" 
d="M28 325q0 156 96 253.5t239 97.5q64 0 120 -16.5t65 -16.5q33 0 42 33h21l9 -226h-23q-55 186 -215 186q-109 0 -173.5 -81t-64.5 -217q0 -87 22.5 -150.5t60.5 -96t78.5 -47t86.5 -14.5q118 0 223 101l18 -18q-46 -61 -117 -94t-156 -33q-148 0 -240 93t-92 246z" />
    <glyph glyph-name="D" unicode="D" horiz-adv-x="722" 
d="M685 334q0 -45 -10 -88t-37 -89t-69 -79.5t-111.5 -55.5t-157.5 -22h-284v19q57 4 72.5 20t15.5 70v444q0 55 -14.5 70t-73.5 20v19h270q91 0 162.5 -20.5t115 -53t72 -77t39 -87.5t10.5 -90zM576 327q0 43 -8.5 82.5t-30.5 80t-57 69.5t-92 47.5t-130 18.5
q-31 0 -41.5 -8t-10.5 -31v-508q0 -24 11 -32.5t41 -8.5q318 0 318 290z" />
    <glyph glyph-name="E" unicode="E" horiz-adv-x="611" 
d="M201 80q0 -29 16.5 -36t88.5 -7h27q107 0 153 25.5t83 106.5h28l-45 -169h-540v19q55 4 71 20.5t16 69.5v444q0 53 -16 69.5t-71 20.5v19h531l3 -143h-25q-13 67 -40 86t-112 19h-135q-20 0 -26.5 -6.5t-6.5 -27.5v-222h154q64 0 82.5 19.5t27.5 75.5h23v-232h-23
q-10 62 -29 79t-81 17h-154v-247z" />
    <glyph glyph-name="F" unicode="F" horiz-adv-x="556" 
d="M479 231h-23q-9 61 -29 78.5t-81 17.5h-145v-208q0 -61 16.5 -79t74.5 -21v-19h-280v19q57 4 72 21.5t15 79.5v433q0 53 -16 69.5t-71 20.5v19h531l3 -143h-25q-13 67 -40 86t-112 19h-136q-20 0 -26 -6.5t-6 -27.5v-222h145q60 0 80.5 17.5t29.5 77.5h23v-232z" />
    <glyph glyph-name="G" unicode="G" horiz-adv-x="722" 
d="M392 636q-57 0 -101 -20.5t-71 -52.5t-44 -75t-23.5 -82.5t-6.5 -79.5q0 -139 70.5 -219.5t192.5 -80.5q54 0 93.5 17.5t39.5 41.5v162q0 56 -15.5 70.5t-72.5 18.5v18h255v-18q-44 -4 -57 -18.5t-13 -58.5v-203q-30 -26 -108.5 -48t-142.5 -22q-45 0 -90 9t-94 33
t-86 60.5t-61.5 97.5t-24.5 139q0 153 96.5 252t246.5 99q58 0 114.5 -16.5t65.5 -16.5q16 0 28 9.5t17 23.5h22l8 -211h-23q-32 78 -80 124.5t-135 46.5z" />
    <glyph glyph-name="H" unicode="H" horiz-adv-x="722" 
d="M209 359h303v194q0 54 -15 69.5t-73 20.5v19h278v-19q-58 -5 -73 -20.5t-15 -69.5v-444q0 -53 16 -69t72 -21v-19h-278v19q58 4 73 21t15 80v195h-303v-206q0 -53 16 -69t72 -21v-19h-278v19q58 4 73 21t15 80v433q0 54 -15 69.5t-73 20.5v19h278v-19q-58 -5 -73 -20.5
t-15 -69.5v-194z" />
    <glyph glyph-name="I" unicode="I" horiz-adv-x="333" 
d="M115 109v444q0 55 -16.5 70.5t-80.5 19.5v19h297v-19q-63 -3 -80.5 -19t-17.5 -71v-444q0 -55 18 -71.5t80 -18.5v-19h-297v19q63 2 80 18t17 72z" />
    <glyph glyph-name="J" unicode="J" horiz-adv-x="389" 
d="M59 108q21 0 33 -13t16 -29t11 -29t19 -13q38 0 38 66v463q0 55 -16 70.5t-77 19.5v19h287v-19q-61 -4 -76.5 -19.5t-15.5 -70.5v-370q0 -94 -44 -145.5t-125 -51.5q-43 0 -71 20t-28 52q0 20 14.5 35t34.5 15z" />
    <glyph glyph-name="K" unicode="K" horiz-adv-x="722" 
d="M413 643v19h262v-19q-52 -4 -77.5 -16.5t-74.5 -61.5l-190 -188l233 -250q68 -73 93 -90t64 -18v-19h-305v19q3 0 12 0.5t14 1t12.5 1.5t12.5 2.5t9.5 4t7 6t2.5 7.5q0 18 -36.5 66t-93.5 104l-106 105l-26 -21v-187q0 -55 16 -70.5t74 -19.5v-19h-282v19q59 4 74.5 21.5
t15.5 79.5v433q0 53 -16 69.5t-74 20.5v19h284v-19q-61 -4 -76.5 -19.5t-15.5 -70.5v-205l177 161q78 72 78 103q0 15 -9.5 21.5t-32.5 8.5q-14 0 -26 1z" />
    <glyph glyph-name="L" unicode="L" horiz-adv-x="611" 
d="M354 39q26 0 48.5 3t39.5 6.5t33 11.5l26 13t20.5 16.5t16 16.5t12.5 18.5t9 17.5t8 17.5t6 14.5h25l-48 -174h-538v19q55 4 71 20.5t16 69.5v444q0 53 -16 69.5t-71 20.5v19h282v-19q-59 -4 -76 -20.5t-17 -69.5v-473q0 -26 15.5 -33.5t70.5 -7.5h67z" />
    <glyph glyph-name="M" unicode="M" horiz-adv-x="889" 
d="M674 573l-256 -573h-14l-251 550v-403q0 -76 18 -100.5t76 -27.5v-19h-235v19q62 4 79.5 27.5t17.5 100.5v406q0 55 -16.5 70.5t-78.5 19.5v19h198l231 -505l221 505h199v-19q-56 -5 -71.5 -21t-15.5 -69v-444q0 -53 16 -69.5t71 -20.5v-19h-280v19q59 4 75 21.5t16 79.5
v453z" />
    <glyph glyph-name="N" unicode="N" horiz-adv-x="722" 
d="M707 643q-28 -3 -41.5 -6.5t-28 -15.5t-20 -37.5t-5.5 -68.5v-526h-17l-442 550v-392q0 -76 18 -100.5t76 -27.5v-19h-235v19q62 4 79.5 27.5t17.5 100.5v441q-30 35 -47.5 45t-49.5 10v19h171l385 -484v337q0 76 -18.5 99.5t-77.5 28.5v19h235v-19z" />
    <glyph glyph-name="O" unicode="O" horiz-adv-x="722" 
d="M355 -14q-135 0 -228 95.5t-93 249.5q0 151 92 248t235 97q144 0 235.5 -96.5t91.5 -252.5q0 -151 -92.5 -246t-240.5 -95zM574 328q0 72 -14 128t-35.5 90t-50.5 56t-56.5 30t-56.5 8q-49 0 -88 -21t-61.5 -52.5t-37.5 -74.5t-20.5 -82.5t-5.5 -80.5q0 -51 10 -100
t32 -98t65.5 -79t103.5 -30q61 0 105.5 30t67 79t32.5 98t10 99z" />
    <glyph glyph-name="P" unicode="P" horiz-adv-x="556" 
d="M542 481q0 -26 -6 -50t-23.5 -51t-46.5 -46.5t-79 -32.5t-116 -13q-30 0 -69 3v-182q0 -55 17.5 -71.5t76.5 -18.5v-19h-280v19q57 5 70.5 21.5t13.5 79.5v433q0 54 -14 69t-70 21v19h264q45 0 87 -8.5t83.5 -27.5t66.5 -56t25 -89zM202 591v-260q34 -3 57 -3
q174 0 174 147q0 77 -48 113.5t-149 36.5q-20 0 -27 -7t-7 -27z" />
    <glyph glyph-name="Q" unicode="Q" horiz-adv-x="722" 
d="M688 331q0 -55 -12 -103t-30.5 -80.5t-44 -59.5t-49.5 -43t-51 -28t-43.5 -16.5t-31.5 -7.5q61 -79 125 -114.5t150 -37.5v-18q-16 -1 -41 -1q-38 0 -73.5 3.5t-63 8t-54.5 15t-45 17t-39.5 21.5t-32 22t-27.5 24t-22 22.5t-20.5 23.5t-17.5 20q-100 34 -165.5 114
t-65.5 216q0 152 92 249.5t235 97.5t235 -97t92 -248zM574 333q0 140 -57.5 223.5t-152.5 83.5q-50 0 -89 -20.5t-62 -52t-38.5 -73.5t-21 -80.5t-5.5 -78.5q0 -88 20 -152.5t53 -97.5t67.5 -48t72.5 -15q49 0 87.5 20.5t61.5 52.5t38 74.5t20.5 82.5t5.5 81z" />
    <glyph glyph-name="R" unicode="R" horiz-adv-x="667" 
d="M293 662q43 0 82 -7t80.5 -24.5t66.5 -54.5t25 -90q0 -133 -176 -166q-3 -1 -5 -1l206 -253q21 -25 39.5 -35t47.5 -12v-19h-161l-238 308l-56 -2v-197q0 -54 16 -70t74 -20v-19h-277v19q56 4 70.5 21.5t14.5 79.5v433q0 53 -14.5 68.5t-70.5 21.5v19h276zM204 343
q121 2 177.5 32t56.5 113q0 70 -44.5 103.5t-138.5 33.5q-30 0 -40.5 -7.5t-10.5 -28.5v-246z" />
    <glyph glyph-name="S" unicode="S" horiz-adv-x="556" 
d="M390 135q0 47 -33 83.5t-80 62.5t-93.5 53.5t-79.5 70.5t-33 100q0 76 51.5 123.5t121.5 47.5q42 0 91 -17t59 -17q26 0 32 34h21l22 -213h-25q-24 88 -73.5 130t-109.5 42q-46 0 -75 -26t-29 -67q0 -40 34 -76t113 -80q99 -53 143 -104.5t44 -113.5q0 -77 -59 -129.5
t-145 -52.5q-50 0 -101.5 17t-63.5 17q-11 0 -19 -9.5t-9 -23.5h-22l-30 212h23q37 -91 86 -134t116 -43q55 0 89 31.5t34 81.5z" />
    <glyph glyph-name="T" unicode="T" horiz-adv-x="611" 
d="M254 620h-54q-84 0 -112.5 -23t-46.5 -105h-24l6 170h564l6 -170h-24q-17 83 -45.5 105.5t-113.5 22.5h-54v-511q0 -55 17 -71t79 -19v-19h-292v19q62 4 78 20.5t16 80.5v500z" />
    <glyph glyph-name="U" unicode="U" horiz-adv-x="722" 
d="M206 233q0 -100 37.5 -151.5t134.5 -51.5q56 0 101 21.5t65 57.5q23 43 23 136v270q0 75 -18 99.5t-76 28.5v19h232v-19q-62 -8 -78 -30t-16 -98v-261q0 -59 -10.5 -103t-37 -83.5t-79 -60.5t-129.5 -21q-128 0 -189.5 62.5t-61.5 192.5v312q0 55 -15.5 70t-74.5 20v19
h283v-19q-60 -5 -75.5 -20.5t-15.5 -69.5v-320z" />
    <glyph glyph-name="V" unicode="V" horiz-adv-x="722" 
d="M697 662v-19q-37 -2 -52.5 -18t-39.5 -75l-222 -561h-15l-246 549q-29 66 -48.5 84.5t-57.5 20.5v19h266v-19q-28 -2 -29 -2q-46 -3 -46 -31q0 -20 41 -111l151 -338l147 367q19 48 19 73q0 21 -16 30.5t-57 11.5v19h205z" />
    <glyph glyph-name="W" unicode="W" horiz-adv-x="944" 
d="M932 662v-19q-40 -8 -54.5 -20t-28.5 -51q-83 -223 -112 -306t-92 -277h-15l-160 423l-154 -423h-15l-193 537q-25 70 -44.5 91.5t-58.5 25.5v19h245v-19q-38 -2 -51.5 -8.5t-13.5 -23.5q0 -18 11 -46l144 -376l107 282l-33 82q-24 60 -41 74.5t-60 15.5v19h267v-19
q-77 -1 -77 -35q0 -11 27 -81l132 -341l125 339q16 45 16 75q0 20 -15.5 29.5t-53.5 13.5v19h198z" />
    <glyph glyph-name="X" unicode="X" horiz-adv-x="722" 
d="M696 662v-19q-49 -3 -75.5 -19.5t-73.5 -74.5l-146 -182l192 -274q30 -43 50 -56t61 -18v-19h-297v19q41 4 59 10.5t18 20.5q0 22 -51 98l-95 140l-119 -148q-52 -65 -52 -86q0 -17 16 -24.5t60 -10.5v-19h-233v19q39 3 60 19t85 95l157 193l-109 160q-70 103 -100.5 129
t-80.5 28v19h302v-19l-28 -1q-48 -1 -48 -29q0 -32 85 -150l42 -59l113 138q40 50 40 69q0 17 -14.5 23.5t-55.5 8.5v19h238z" />
    <glyph glyph-name="Y" unicode="Y" horiz-adv-x="722" 
d="M703 662v-19q-39 -3 -67 -25.5t-71 -88.5l-148 -226v-194q0 -57 18 -72.5t85 -17.5v-19h-306v19q68 3 84.5 19.5t16.5 81.5v174l-131 192q-50 73 -76 104.5t-43 41.5t-43 11v19h280v-19q-71 -5 -71 -30q0 -19 17 -44l148 -222l143 226q14 23 14 37q0 18 -15 25t-54 8v19
h219z" />
    <glyph glyph-name="Z" unicode="Z" horiz-adv-x="611" 
d="M402 38q28 0 51 5t38.5 10t29 19t20 21t14.5 27.5t10 26.5t9 29h23l-24 -176h-564v15l437 609h-221q-51 0 -84 -10t-49.5 -32t-22.5 -40t-12 -51h-26l20 171h526v-15l-432 -609h257z" />
    <glyph glyph-name="bracketleft" unicode="[" horiz-adv-x="333" 
d="M299 -131v-25h-211v818h211v-25h-90q-24 0 -34.5 -10.5t-10.5 -33.5v-672q0 -52 49 -52h86z" />
    <glyph glyph-name="backslash" unicode="\" horiz-adv-x="296" 
d="M0 676h67l229 -690h-68z" />
    <glyph glyph-name="bracketright" unicode="]" horiz-adv-x="333" 
d="M34 637v25h211v-818h-211v25h90q24 0 34.5 10.5t10.5 33.5v672q0 52 -49 52h-86z" />
    <glyph glyph-name="asciicircum" unicode="^" horiz-adv-x="469" 
d="M92 297h-68l181 365h60l181 -365h-68l-143 289z" />
    <glyph glyph-name="underscore" unicode="_" horiz-adv-x="500" 
d="M500 -125h-500v50h500v-50z" />
    <glyph glyph-name="grave" unicode="`" horiz-adv-x="333" 
d="M242 507h-40l-154 97q-29 19 -29 43q0 31 34 31q19 0 42 -23z" />
    <glyph glyph-name="a" unicode="a" horiz-adv-x="444" 
d="M37 97q0 18 4 33.5t14 29t19 24.5t27 22.5t30 19t36.5 18t37.5 16t41 16.5t41 16v61q0 83 -76 83q-30 0 -51 -14.5t-21 -34.5q0 -8 2.5 -22t2.5 -18q0 -17 -13.5 -29.5t-31.5 -12.5q-17 0 -30 13t-13 30q0 47 48.5 79.5t119.5 32.5q82 0 113 -39.5t31 -120.5v-195
q0 -33 6.5 -45.5t23.5 -12.5q21 0 44 19v-26q-26 -29 -45.5 -39.5t-44.5 -10.5q-31 0 -45.5 17t-18.5 56q-86 -73 -146 -73q-46 0 -75.5 30t-29.5 77zM287 123v145q-90 -33 -126 -64t-36 -75q0 -41 20 -61t43 -20q34 0 73 23q16 9 21 19t5 33z" />
    <glyph glyph-name="b" unicode="b" horiz-adv-x="500" 
d="M153 681v-306q15 37 54 61t85 24q75 0 125.5 -62.5t50.5 -154.5q0 -107 -67.5 -180t-166.5 -73q-60 0 -112.5 20.5t-52.5 43.5v519q0 31 -9.5 41t-39.5 10q-11 0 -17 -1v16q77 19 145 44zM153 322v-252q0 -19 29 -33.5t68 -14.5q62 0 96 46t34 129q0 91 -34.5 145.5
t-93.5 54.5q-39 0 -69 -23t-30 -52z" />
    <glyph glyph-name="c" unicode="c" horiz-adv-x="444" 
d="M25 213q0 111 65.5 179t153.5 68q63 0 108.5 -30.5t45.5 -72.5q0 -17 -14 -29.5t-34 -12.5q-34 0 -47 46l-6 22q-8 28 -20 38t-39 10q-61 0 -98.5 -48.5t-37.5 -125.5q0 -86 43.5 -140.5t111.5 -54.5q43 0 74 21t67 73l14 -9q-10 -20 -17.5 -33t-27 -39t-38.5 -42
t-50 -29.5t-64 -13.5q-83 0 -136.5 62.5t-53.5 160.5z" />
    <glyph glyph-name="d" unicode="d" horiz-adv-x="500" 
d="M344 -10l-4 3v64q-48 -67 -128 -67q-83 0 -134 59.5t-51 155.5q0 106 61 180.5t147 74.5q54 0 105 -43v156q0 31 -9 41t-37 10q-14 0 -22 -1v16q91 24 147 44l5 -2v-567q0 -35 8.5 -46t35.5 -11q5 0 23 1v-16zM251 42q38 0 63.5 21.5t25.5 38.5v230q0 40 -31 70t-71 30
q-57 0 -91 -51t-34 -136q0 -92 38 -147.5t100 -55.5z" />
    <glyph glyph-name="e" unicode="e" horiz-adv-x="444" 
d="M97 277q2 -63 17 -108.5t39 -68t48.5 -32t51.5 -9.5q48 0 83.5 24t71.5 81l16 -7q-31 -81 -86 -124t-126 -43q-86 0 -136.5 60.5t-50.5 163.5q0 111 58.5 178.5t150.5 67.5q76 0 118 -45.5t53 -137.5h-308zM99 309h204q-10 65 -31 90t-67 25q-90 0 -106 -115z" />
    <glyph glyph-name="f" unicode="f" horiz-adv-x="333" 
d="M341 580q-16 0 -27.5 11.5t-18 26t-20 26t-32.5 11.5q-57 0 -57 -89v-116h123v-32h-122v-314q0 -56 16 -71.5t77 -17.5v-15h-260v15q54 3 68.5 18.5t14.5 70.5v314h-82v32h82q2 112 42 172.5t134 60.5q45 0 74.5 -17.5t29.5 -44.5q0 -17 -12.5 -29t-29.5 -12z" />
    <glyph glyph-name="g" unicode="g" horiz-adv-x="500" 
d="M73 54q0 19 13.5 35t75.5 74q-50 25 -71.5 56t-21.5 78q0 68 48.5 115.5t118.5 47.5q39 0 83.5 -16.5t73.5 -16.5h77v-39h-83q19 -43 19 -84q0 -69 -46.5 -112t-109.5 -43q-12 0 -57 5q-20 -6 -40 -27t-20 -36q0 -24 78 -27l129 -6q55 -2 88 -31t33 -76
q0 -72 -82.5 -120.5t-177.5 -48.5q-71 0 -122 28.5t-51 68.5q0 28 22.5 55.5t75.5 66.5q-31 15 -42 26t-11 27zM147 -2q-31 -37 -40 -53t-9 -33q0 -33 40 -53t106 -20q85 0 137 27t52 70q0 27 -28 38t-96 11q-101 0 -162 13zM329 265q0 17 -4 41t-14 54.5t-32 51t-53 20.5
q-35 0 -54.5 -25t-19.5 -69q0 -86 32 -125t70 -39q35 0 55 24.5t20 66.5z" />
    <glyph glyph-name="h" unicode="h" horiz-adv-x="500" 
d="M157 343v-241q0 -52 12 -67t56 -20v-15h-216v15q43 6 53.5 20t10.5 67v471q0 32 -8.5 42t-37.5 10q-7 0 -17 -2v16q71 19 142 44l5 -3v-304q35 45 69 64.5t78 19.5q123 0 123 -159v-199q0 -52 9.5 -65.5t50.5 -21.5v-15h-212v15q43 4 55.5 20t12.5 67v198q0 106 -75 106
q-29 0 -54.5 -14.5t-56.5 -48.5z" />
    <glyph glyph-name="i" unicode="i" horiz-adv-x="278" 
d="M62 393q-22 0 -42 -3v15q70 20 155 55l4 -3v-355q0 -54 12.5 -68.5t61.5 -18.5v-15h-237v15q52 3 65.5 18t13.5 69v232q0 33 -7.5 46t-25.5 13zM128 683q22 0 37 -15t15 -36q0 -22 -15 -36.5t-37 -14.5q-21 0 -35.5 15t-14.5 36t15 36t35 15z" />
    <glyph glyph-name="j" unicode="j" horiz-adv-x="278" 
d="M77 393l-45 -3v16q80 25 156 54l5 -3v-457q0 -106 -43 -162t-126 -56q-41 0 -67.5 15.5t-26.5 39.5q0 16 12 27.5t29 11.5q21 0 46 -30t44 -30q30 0 39 31t9 108v379q0 32 -7.5 45.5t-24.5 13.5zM142 683q22 0 37 -15t15 -36q0 -22 -15 -36.5t-37 -14.5q-21 0 -35.5 15
t-14.5 36t15 36t35 15z" />
    <glyph glyph-name="k" unicode="k" horiz-adv-x="500" 
d="M7 623v16q85 21 155 44l4 -2v-420l137 122q23 20 23 34q0 10 -10.5 14t-39.5 5v14h204v-15q-23 0 -36.5 -2.5t-38.5 -13.5t-58.5 -38t-82.5 -72l-29 -27l153 -194q31 -38 57.5 -54.5t59.5 -18.5v-15h-218v15q40 0 40 15q0 4 -3 9.5t-9.5 13t-8.5 11.5l-140 187v-171
q0 -36 11.5 -46t63.5 -19v-15h-234v15q54 9 64.5 18.5t10.5 48.5v482q0 36 -9 48.5t-34 12.5q-14 0 -32 -2z" />
    <glyph glyph-name="l" unicode="l" horiz-adv-x="278" 
d="M19 623v16q99 24 159 44l4 -2v-597q0 -41 13.5 -53.5t61.5 -15.5v-15h-236v15q47 4 62 18t15 54v477q0 35 -9 48t-33 13q-20 0 -37 -2z" />
    <glyph glyph-name="m" unicode="m" horiz-adv-x="778" 
d="M19 398v17q72 20 140 45l7 -2v-75q62 47 92 62t63 15q79 0 106 -84q78 84 163 84q116 0 116 -178v-206q0 -56 43 -59l26 -2v-15h-219v15q44 5 55 17t11 55v211q0 62 -16 86t-59 24q-66 0 -109 -61v-252q0 -47 14.5 -63t57.5 -17v-15h-224v15q43 3 55.5 16t12.5 55v217
q0 105 -66 105q-28 0 -62.5 -14t-55.5 -45v-282q0 -29 14 -39.5t54 -12.5v-15h-222v15q42 1 56 15t14 55v253q0 36 -7.5 50t-27.5 14q-15 0 -32 -4z" />
    <glyph glyph-name="n" unicode="n" horiz-adv-x="500" 
d="M16 398v17q74 22 138 45l7 -2v-79q51 48 80.5 64.5t64.5 16.5q55 0 86.5 -39.5t31.5 -110.5v-229q0 -37 12 -49.5t49 -16.5v-15h-208v15q38 3 50.5 20t12.5 64v209q0 97 -73 97q-25 0 -46 -11.5t-57 -45.5v-281q0 -27 14 -38t52 -14v-15h-212v15q38 3 50 17.5t12 57.5
v248q0 37 -8 50.5t-29 13.5q-19 0 -27 -4z" />
    <glyph glyph-name="o" unicode="o" horiz-adv-x="500" 
d="M250 460q96 0 158 -64t62 -162q0 -104 -64 -174t-158 -70t-156.5 67.5t-62.5 168.5q0 103 61.5 168.5t159.5 65.5zM119 275q0 -107 39 -182t102 -75q56 0 88 48t32 133q0 103 -40 168t-103 65q-53 0 -85.5 -43t-32.5 -114z" />
    <glyph glyph-name="p" unicode="p" horiz-adv-x="500" 
d="M9 393v16q63 19 144 51l6 -2v-77q64 79 144 79q73 0 120 -60t47 -153q0 -109 -60.5 -183t-149.5 -74q-32 0 -53.5 9t-47.5 34v-157q0 -47 16 -60.5t72 -14.5v-18h-242v17q44 4 57 17t13 52v468q0 35 -8 46t-33 11q-16 0 -25 -1zM159 334v-246q0 -22 34.5 -44t69.5 -22
q54 0 87.5 51.5t33.5 134.5q0 87 -33.5 139.5t-89.5 52.5q-35 0 -68.5 -22t-33.5 -44z" />
    <glyph glyph-name="q" unicode="q" horiz-adv-x="500" 
d="M360 425l54 32h11v-598q0 -32 11 -42.5t52 -19.5v-14h-236v17q53 4 71 19t18 57v188q-68 -74 -157 -74q-70 0 -115 60t-45 155q0 108 63.5 182t157.5 74q54 0 115 -36zM110 241q0 -43 10 -83t41 -73.5t80 -33.5q50 0 86 31q14 11 14 45v206q0 100 -93 100
q-64 0 -101 -51.5t-37 -140.5z" />
    <glyph glyph-name="r" unicode="r" horiz-adv-x="333" 
d="M296 362q-15 0 -37 17.5t-29 17.5q-20 0 -45 -29t-25 -53v-225q0 -43 17 -58t68 -17v-15h-240v15q48 9 59.5 20t11.5 49v250q0 33 -7.5 46.5t-26.5 13.5q-16 0 -35 -4v16q80 26 148 54l5 -2v-92q37 53 63 73.5t57 20.5q26 0 40.5 -14t14.5 -39q0 -21 -10.5 -33t-28.5 -12
z" />
    <glyph glyph-name="s" unicode="s" horiz-adv-x="389" 
d="M284 440q1 0 16 10h11l4 -136h-15q-17 67 -42 95t-68 28q-34 0 -55.5 -19t-21.5 -49q0 -43 43 -68l108 -64q45 -27 64.5 -54.5t19.5 -64.5q0 -52 -41.5 -90t-99.5 -38q-25 0 -67 9t-52 9q-15 0 -23 -12h-13v156h16q16 -70 38 -99q32 -41 89 -41q38 0 60.5 19.5t22.5 52.5
q0 45 -52 75l-58 33q-64 36 -90.5 69t-26.5 75q0 54 38.5 88.5t97.5 34.5q33 0 62 -9.5t35 -9.5z" />
    <glyph glyph-name="t" unicode="t" horiz-adv-x="278" 
d="M255 450v-32h-101v-286q0 -47 12 -68.5t40 -21.5q31 0 60 35l13 -11q-48 -76 -120 -76q-89 0 -89 127v301h-53q-4 3 -4 7q0 5 3 8t11.5 8.5t20.5 15t33 34.5t46 60q16 23 20 28q7 0 7 -13v-116h101z" />
    <glyph glyph-name="u" unicode="u" horiz-adv-x="500" 
d="M479 50v-14q-78 -21 -137 -45l-4 2v83q-3 -3 -17.5 -18t-20.5 -20.5t-20.5 -17t-25.5 -16.5t-28 -9.5t-34 -4.5q-55 0 -88 35.5t-33 94.5v252q0 35 -13 48.5t-49 15.5v14h146v-326q0 -31 21 -53.5t50 -22.5q11 0 26 3t34.5 11.5t33 27t13.5 45.5v235q0 37 -13.5 49
t-60.5 14v17h158v-343q0 -35 11.5 -46t45.5 -11h5z" />
    <glyph glyph-name="v" unicode="v" horiz-adv-x="500" 
d="M477 450v-15q-23 -2 -34 -15t-31 -63l-128 -321q-20 -50 -28 -50q-11 0 -26 47l-120 287q-32 77 -47 95t-44 20v15h196v-15q-26 -2 -36 -8t-10 -20q0 -16 9 -37l102 -256l99 259q6 15 6 30q0 28 -47 32v15h139z" />
    <glyph glyph-name="w" unicode="w" horiz-adv-x="722" 
d="M351 310q-27 80 -41.5 100.5t-47.5 24.5v15h203v-15q-35 -5 -46.5 -12t-11.5 -24q0 -13 17 -59l84 -224l90 222q17 42 17 66q0 13 -9 19.5t-35 11.5v15h123v-15q-15 -5 -21.5 -14t-19.5 -40l-138 -346q-20 -49 -28 -49t-24 43l-91 236l-112 -240q-18 -39 -25 -39
q-8 0 -26 44l-135 342q-15 38 -25 49.5t-28 13.5v15h180v-15q-26 -3 -36 -10t-10 -23q0 -15 6 -30l99 -261z" />
    <glyph glyph-name="x" unicode="x" horiz-adv-x="500" 
d="M248 304q11 17 26 37.5t22.5 31t13 21.5t5.5 19q0 19 -40 22v15h158v-15q-51 -2 -81 -44l-83 -120l128 -196q22 -33 40.5 -46.5t41.5 -13.5v-15h-201v15q25 2 32.5 6.5t7.5 17.5q0 9 -6 18l-91 140l-79 -123q-20 -31 -20 -41q0 -18 40 -18v-15h-145v15q25 2 38.5 11
t34.5 40l114 165l-94 144q-18 28 -32.5 41t-24 16t-29.5 3v15h207v-15q-43 -1 -43 -22q0 -20 46 -89z" />
    <glyph glyph-name="y" unicode="y" horiz-adv-x="500" 
d="M151 -134q28 0 59 62t31 91q0 13 -44 101l-132 284q-12 26 -51 32v14h206v-15q-32 -1 -45 -7t-13 -20q0 -15 10 -38l115 -253l97 276q4 9 4 17q0 25 -48 25v15h135v-15q-18 -2 -28.5 -11.5t-19.5 -33.5l-154 -408q-40 -108 -79.5 -154t-89.5 -46q-32 0 -53 16.5t-21 41.5
q0 18 13 31t30 13q22 0 47 -9t31 -9z" />
    <glyph glyph-name="z" unicode="z" horiz-adv-x="444" 
d="M272 30q39 0 62 5t36 22t18 32t12 50l18 -4l-14 -135h-377v15l266 405h-138q-45 0 -61 -16.5t-23 -71.5h-18l3 118h347v-15l-269 -405h138z" />
    <glyph glyph-name="braceleft" unicode="{" horiz-adv-x="480" 
d="M350 -181q-88 2 -126.5 29t-38.5 111v177q0 52 -17.5 75t-67.5 39q50 15 67.5 38t17.5 75v178q0 44 10 71.5t33 42t50.5 19.5t71.5 6v-11q-52 -13 -71.5 -40t-19.5 -83v-168q0 -62 -19 -88t-75 -41q56 -14 75 -40t19 -88v-168q0 -56 19.5 -83t71.5 -40v-11z" />
    <glyph glyph-name="bar" unicode="|" horiz-adv-x="200" 
d="M67 -14v690h66v-690h-66z" />
    <glyph glyph-name="braceright" unicode="}" horiz-adv-x="480" 
d="M130 680q88 -2 126.5 -29t38.5 -111v-177q0 -52 17.5 -75t67.5 -39q-50 -15 -67.5 -38t-17.5 -75v-178q0 -44 -10 -71.5t-33 -42t-50.5 -19.5t-71.5 -6v11q52 13 71.5 40t19.5 83v168q0 62 19 88t75 41q-56 14 -75 40t-19 88v168q0 56 -19.5 83t-71.5 40v11z" />
    <glyph glyph-name="asciitilde" unicode="~" horiz-adv-x="541" 
d="M163 320q50 0 113 -34t98 -34q23 0 38.5 11t35.5 40l54 -32q-34 -48 -61 -66.5t-62 -18.5q-50 0 -113 34t-98 34q-23 0 -38.5 -11t-35.5 -40l-54 32q34 48 61 66.5t62 18.5z" />
    <glyph glyph-name="nonbreakingspace" unicode="&#xa0;" horiz-adv-x="250" 
 />
    <glyph glyph-name="exclamdown" unicode="&#xa1;" horiz-adv-x="333" 
d="M144 282h13q10 -122 22 -215t18 -136t6 -72q0 -35 -14 -56t-39 -21q-53 0 -53 80q0 28 6 70t18 135.5t23 214.5zM150 360q-22 0 -38 16t-16 39t15.5 37.5t39.5 14.5q22 0 37 -14.5t15 -37.5t-15.5 -39t-37.5 -16z" />
    <glyph glyph-name="cent" unicode="&#xa2;" horiz-adv-x="500" 
d="M169 12q-116 66 -116 207q0 101 63.5 171t156.5 70q21 0 51 -5l44 124h35l-47 -135q75 -30 75 -84q0 -20 -12 -32.5t-31 -12.5t-32 11.5t-26 40.5l-101 -291q32 -12 59 -12q44 0 76 22t71 78l13 -8q-12 -25 -18.5 -37.5t-25.5 -41t-37 -44t-47.5 -29t-62.5 -13.5
q-25 0 -56 9l-49 -138h-34zM198 98l115 323q-23 9 -47 9q-61 0 -98.5 -46.5t-37.5 -123.5q0 -54 15.5 -91t52.5 -71z" />
    <glyph glyph-name="sterling" unicode="&#xa3;" horiz-adv-x="500" 
d="M490 136q0 -12 -10.5 -34.5t-30 -47.5t-53.5 -43t-74 -18q-32 0 -62.5 13t-81.5 48q-30 -35 -51 -48.5t-47 -13.5q-31 0 -49.5 17t-18.5 45q0 34 25 55t66 21q22 0 46 -5q4 11 4 21q0 20 -22 182h-108v45h107q-7 36 -7 69q0 107 53 170.5t142 63.5q56 0 93 -26.5
t37 -66.5q0 -23 -14 -38t-36 -15t-30 13.5t-9 53.5q-1 52 -56 52q-45 0 -70 -36.5t-25 -102.5q0 -44 11 -137h125v-45h-121q1 -22 1 -55q0 -35 -25 -162q84 -35 149 -35q34 0 59 10t36.5 22.5t22 22.5t18.5 10q6 0 6 -5zM79 20q28 0 45.5 21.5t17.5 34.5q0 6 -17.5 12
t-35.5 6q-51 0 -51 -37q0 -16 11.5 -26.5t29.5 -10.5z" />
    <glyph glyph-name="currency" unicode="&#xa4;" horiz-adv-x="500" 
d="M-22 108l98 96q-41 59 -41 126q0 69 41 126l-98 98l50 48l96 -96q61 39 127 39q69 0 125 -39l98 96l48 -48l-96 -98q39 -58 39 -125q0 -66 -39 -127l96 -96l-48 -50l-98 98q-57 -41 -125 -41q-65 0 -127 41l-96 -98zM253 481q-63 0 -106.5 -44t-43.5 -107
q0 -62 43.5 -106.5t104.5 -44.5t103.5 44t42.5 108q0 62 -42.5 106t-101.5 44z" />
    <glyph glyph-name="yen" unicode="&#xa5;" horiz-adv-x="500" 
d="M190 182h-174v40h174v76l-7 14h-167v40h144l-95 173q-41 74 -62 95t-56 23v19h243v-19q-65 -1 -65 -29q0 -19 13 -45l118 -221l112 220q14 26 14 44q0 31 -65 31v19h195v-19q-39 -8 -65.5 -32t-52.5 -75l-92 -184h146v-40h-166l-7 -14v-76h173v-40h-173v-73q0 -53 16 -71
t64 -19v-19h-244v19q50 2 64.5 20.5t14.5 80.5v62z" />
    <glyph glyph-name="brokenbar" unicode="&#xa6;" horiz-adv-x="200" 
d="M67 -14v276h66v-276h-66zM67 400v276h66v-276h-66z" />
    <glyph glyph-name="section" unicode="&#xa7;" horiz-adv-x="500" 
d="M279 568q0 19 17 36t17 19q0 13 -18 22.5t-44 9.5q-38 0 -61.5 -19.5t-23.5 -51.5q0 -42 34 -71l137 -113q89 -74 89 -155q0 -53 -32.5 -87t-83.5 -34q-6 0 -18 1q56 -49 75 -78.5t19 -67.5q0 -57 -39.5 -92t-104.5 -35q-58 0 -98 29t-40 71q0 23 15.5 38.5t38.5 15.5
q20 0 34 -12t14 -30t-17 -35t-17 -21q0 -14 21.5 -24.5t49.5 -10.5q40 0 63.5 21t23.5 56q0 32 -27 62.5t-65 57t-76 55.5t-65 71t-27 90q0 51 33 85t82 34q15 0 25 -1q-60 50 -80 80t-20 70q0 54 38.5 88t100.5 34q55 0 91.5 -28t36.5 -70q0 -25 -13.5 -39t-37.5 -14
q-20 0 -33.5 12t-13.5 31zM374 212q0 52 -72.5 111.5t-110.5 59.5q-29 0 -48.5 -19t-19.5 -48q0 -50 66.5 -110t115.5 -60q28 0 48.5 20t20.5 46z" />
    <glyph glyph-name="dieresis" unicode="&#xa8;" horiz-adv-x="333" 
d="M265 622q21 0 36 -15t15 -35t-15 -34.5t-36 -14.5q-20 0 -34 14.5t-14 35.5q0 19 14.5 34t33.5 15zM66 622q21 0 36 -15t15 -35t-15 -34.5t-36 -14.5q-20 0 -34 14.5t-14 35.5q0 19 14.5 34t33.5 15z" />
    <glyph glyph-name="copyright" unicode="&#xa9;" horiz-adv-x="793" 
d="M401 676q-139 0 -236.5 -95t-97.5 -231q0 -138 96 -235t233 -97q136 0 232.5 96.5t96.5 232.5q0 135 -96 232t-228 97zM402 717q149 0 256.5 -108.5t107.5 -261.5q0 -151 -109 -260.5t-261 -109.5q-156 0 -263 107t-107 266q0 154 109.5 260.5t266.5 106.5z
M198.799 336.992q0 93.5957 57.5977 152.094t143.395 58.498q38.3984 0 71.9971 -9.90039q33.5986 -9.89941 38.999 -9.89941q19.7988 0 25.1982 19.7998h12.5996l5.39941 -135.595h-13.7988q-32.999 111.595 -128.995 111.595q-65.3975 0 -104.096 -48.5977
t-38.6982 -130.194q0 -52.1982 13.499 -90.2969q13.5 -38.0986 36.2988 -57.5977t47.0986 -28.1982q24.2988 -8.7002 51.8975 -8.7002q70.7969 0 133.795 60.5977l10.7988 -10.7998q-27.5986 -36.5977 -70.1963 -56.3975q-42.5986 -19.7988 -93.5967 -19.7988
q-88.7959 0 -143.994 55.7979q-55.1982 55.7969 -55.1982 147.594z" />
    <glyph glyph-name="ordfeminine" unicode="&#xaa;" horiz-adv-x="276" 
d="M76 625q0 -5 1.5 -11.5t1.5 -10.5q0 -10 -9.5 -17.5t-21.5 -7.5q-13 0 -22.5 9t-9.5 22q0 29 30.5 48t77.5 19q105 0 105 -96v-115q0 -22 2.5 -28.5t10.5 -6.5q13 0 28 12v-18q-30 -30 -59 -30q-20 0 -30 10t-15 34q-48 -44 -91 -44q-31 0 -51 19t-20 49q0 21 11 38
t33 29.5t41.5 21t50.5 19.5q11 4 17 6v30q0 42 -36 42q-16 0 -30.5 -7.5t-14.5 -15.5zM105 441q21 0 37 9t16 24v77q-53 -19 -72 -33t-19 -33q0 -18 11 -31t27 -13z" />
    <glyph glyph-name="guillemotleft" unicode="&#xab;" horiz-adv-x="444" 
d="M301 224q19 -28 53 -70t54.5 -70t20.5 -42q0 -9 -9 -9q-4 0 -21 16q-71 68 -191 173q128 116 197 181q14 13 15 13q10 0 10 -10q0 -14 -20 -42.5t-58 -75.5t-51 -64zM107 224q19 -28 53 -70t54.5 -70t20.5 -42q0 -9 -9 -9q-4 0 -21 16q-71 68 -191 173q128 116 197 181
q14 13 15 13q10 0 10 -10q0 -14 -20 -42.5t-58 -75.5t-51 -64z" />
    <glyph glyph-name="logicalnot" unicode="&#xac;" horiz-adv-x="564" 
d="M468 108v212h-438v66h504v-278h-66z" />
    <glyph glyph-name="softhyphen" unicode="&#xad;" horiz-adv-x="333" 
d="M39 257h246v-63h-246v63z" />
    <glyph glyph-name="registered" unicode="&#xae;" horiz-adv-x="792" 
d="M391.793 539.184q25.7988 0 49.1982 -4.19922q23.3984 -4.2002 48.2979 -14.7002q24.8984 -10.499 39.8984 -32.6982q14.999 -22.1992 14.999 -53.998q0 -79.7969 -105.596 -99.5957q-1.7998 -0.599609 -3 -0.599609l123.595 -151.794q12.5996 -15 23.6992 -20.999
q11.0996 -6 28.499 -7.2002v-11.3994h-96.5957l-142.794 184.793l-33.5996 -1.2002v-118.195q0 -32.3984 9.59961 -41.998t44.3984 -12v-11.3994h-166.193v11.3994q33.5986 2.40039 42.2988 12.8994q8.69922 10.5 8.69922 47.6982v259.789q0 31.7988 -8.69922 41.0986
q-8.7002 9.2998 -42.2988 12.8994v11.3994h165.594zM338.395 347.792q72.5977 1.19922 106.496 19.1992q33.8984 17.999 33.8984 67.7969q0 41.998 -26.6982 62.0977q-26.6992 20.0986 -83.0967 20.0986q-18 0 -24.2998 -4.49902q-6.2998 -4.5 -6.2998 -17.0996v-147.594z
M401 676q-139 0 -236.5 -95t-97.5 -231q0 -138 96 -235t233 -97q136 0 232.5 96.5t96.5 232.5q0 135 -96 232t-228 97zM402 717q149 0 256.5 -108.5t107.5 -261.5q0 -151 -109 -260.5t-261 -109.5q-156 0 -263 107t-107 266q0 154 109.5 260.5t266.5 106.5z" />
    <glyph glyph-name="macron" unicode="&#xaf;" horiz-adv-x="333" 
d="M11 601h311v-54h-311v54z" />
    <glyph glyph-name="degree" unicode="&#xb0;" horiz-adv-x="400" 
d="M200 676q60 0 101.5 -41.5t41.5 -102.5q0 -60 -42 -101t-103 -41q-58 0 -99.5 42t-41.5 101q0 60 41.5 101.5t101.5 41.5zM200 642q-43 0 -73.5 -32.5t-30.5 -76.5t30.5 -76.5t72.5 -32.5q43 0 74 32t31 77q0 44 -31 76.5t-73 32.5z" />
    <glyph glyph-name="plusminus" unicode="&#xb1;" horiz-adv-x="564" 
d="M30 0v66h504v-66h-504zM249 413v220h66v-220h219v-66h-219v-220h-66v220h-219v66h219z" />
    <glyph glyph-name="twosuperior" unicode="&#xb2;" horiz-adv-x="320" 
d="M15 557q7 21 9.5 27.5t15.5 29t26 32.5t38 20t56 10q58 0 94.5 -29.5t36.5 -76.5q0 -73 -84 -156l-86 -85h121q20 0 30 5t21 22l17 -7l-37 -79h-253v17l98 107q36 39 58.5 79.5t22.5 63.5q0 31 -21.5 53.5t-51.5 22.5q-54 0 -86 -70z" />
    <glyph glyph-name="threesuperior" unicode="&#xb3;" horiz-adv-x="320" 
d="M217 378q0 44 -31.5 64.5t-57.5 20.5q-5 0 -28 -3v29q52 18 73.5 36.5t21.5 45.5q0 23 -15.5 36t-42.5 13q-25 0 -43 -12.5t-41 -44.5l-25 18q26 51 57.5 73t77.5 22q45 0 76.5 -24t31.5 -59q0 -39 -60 -82q87 -35 87 -113q0 -58 -55.5 -97t-138.5 -39t-83 50
q0 16 10 26.5t25 10.5t41 -19.5t52 -19.5q31 0 49.5 18.5t18.5 49.5z" />
    <glyph glyph-name="acute" unicode="&#xb4;" horiz-adv-x="333" 
d="M133 507h-40l147 148q23 23 42 23q35 0 35 -32q0 -23 -30 -42z" />
    <glyph glyph-name="micro" unicode="&#xb5;" horiz-adv-x="500" 
d="M36 -148q0 27 12 104t12 98v396h88v-306q0 -43 22.5 -67.5t61.5 -24.5q72 0 110 63v335h88v-358q0 -65 32 -65q19 0 50 28v-8q-25 -32 -45.5 -44.5t-48.5 -12.5q-70 0 -73 90q-58 -90 -137 -90q-73 0 -117 74q6 -51 21.5 -107.5t15.5 -97.5q0 -77 -46 -77t-46 70z" />
    <glyph glyph-name="paragraph" unicode="&#xb6;" horiz-adv-x="483" 
d="M202 273q-94 3 -144 49t-50 155q0 98 49.5 141.5t159.5 43.5h263v-19q-58 -5 -73 -20.5t-15 -69.5v-595q0 -53 15.5 -69.5t72.5 -20.5v-22h-154v794h-58v-794h-154v22q58 4 73 21t15 80v304zM202 640q-62 -5 -90 -36.5t-28 -122.5q0 -95 27 -137t91 -49v345z" />
    <glyph glyph-name="middot" unicode="&#xb7;" horiz-adv-x="250" 
d="M123 282q21 0 36 -15t15 -35t-15 -34.5t-36 -14.5q-20 0 -34 14.5t-14 35.5q0 19 14.5 34t33.5 15z" />
    <glyph glyph-name="cedilla" unicode="&#xb8;" horiz-adv-x="333" 
d="M98 -99l41 99h35l-25 -65q15 3 26 3q40 0 63 -18.5t23 -50.5q0 -39 -33.5 -61.5t-91.5 -22.5q-45 0 -84 16l14 31q37 -12 65 -12q25 0 40 12t15 32q0 19 -12 27.5t-41 8.5q-17 0 -28 -4z" />
    <glyph glyph-name="onesuperior" unicode="&#xb9;" horiz-adv-x="320" 
d="M258 294v-24h-191v24q32 2 42.5 8.5t10.5 23.5v257q0 28 -8 28q-6 0 -43 -13v23l118 55l14 -3v-343q0 -20 11.5 -27t45.5 -9z" />
    <glyph glyph-name="ordmasculine" unicode="&#xba;" horiz-adv-x="310" 
d="M159 676q64 0 104.5 -37.5t40.5 -96.5q0 -63 -44 -105.5t-109 -42.5q-63 0 -104 39.5t-41 99.5q0 64 42.5 103.5t110.5 39.5zM79 569q0 -61 22 -101.5t59 -40.5q71 0 71 87q0 57 -22.5 93t-58.5 36q-32 0 -51.5 -20t-19.5 -54z" />
    <glyph glyph-name="guillemotright" unicode="&#xbb;" horiz-adv-x="441" 
d="M334 225q-19 28 -53 70t-54.5 70t-20.5 42q0 9 9 9q4 0 21 -16q71 -68 191 -173q-128 -116 -197 -181q-14 -13 -15 -13q-10 0 -10 10q0 14 20 42.5t58 75.5t51 64zM143 225q-19 28 -53 70t-54.5 70t-20.5 42q0 9 9 9q4 0 21 -16q71 -68 191 -173q-128 -116 -197 -181
q-14 -13 -15 -13q-10 0 -10 10q0 14 20 42.5t58 75.5t51 64z" />
    <glyph glyph-name="onequarter" unicode="&#xbc;" horiz-adv-x="750" 
d="M718 147v-57h-55v-90h-70v90h-180v49l203 266h47v-258h55zM593 147v179l-135 -179h135zM637 676l-450 -690h-49l453 690h46zM228 294v-24h-191v24q32 2 42.5 8.5t10.5 23.5v257q0 28 -8 28q-6 0 -43 -13v23l118 55l14 -3v-343q0 -20 11.5 -27t45.5 -9z" />
    <glyph glyph-name="onehalf" unicode="&#xbd;" horiz-adv-x="750" 
d="M600 676l-450 -690h-49l453 690h46zM222 294v-24h-191v24q32 2 42.5 8.5t10.5 23.5v257q0 28 -8 28q-6 0 -43 -13v23l118 55l14 -3v-343q0 -20 11.5 -27t45.5 -9zM451 287q7 21 9.5 27.5t15.5 29t26 32.5t38 20t56 10q58 0 94.5 -29.5t36.5 -76.5q0 -37 -19 -71t-65 -79
l-86 -85h121q20 0 30 5t21 22l17 -7l-37 -85h-253v23l98 107q81 87 81 137q0 31 -21.5 53.5t-51.5 22.5q-54 0 -86 -70z" />
    <glyph glyph-name="threequarters" unicode="&#xbe;" horiz-adv-x="750" 
d="M718 147v-57h-55v-90h-70v90h-180v49l203 266h47v-258h55zM593 147v179l-135 -179h135zM637 676l-450 -690h-49l453 690h46zM211 378q0 44 -31.5 64.5t-57.5 20.5q-9 0 -28 -3v29q53 18 74.5 36.5t21.5 45.5q0 22 -15 35.5t-41 13.5q-28 0 -46 -12t-42 -45l-25 18
q27 51 58.5 73t78.5 22q45 0 76.5 -24t31.5 -59q0 -39 -61 -82q87 -35 87 -113q0 -58 -55.5 -97t-138.5 -39t-83 50q0 16 10 26.5t25 10.5t41 -19.5t52 -19.5q31 0 49.5 18.5t18.5 49.5z" />
    <glyph glyph-name="questiondown" unicode="&#xbf;" horiz-adv-x="444" 
d="M213 -218q-76 0 -130 42.5t-54 112.5q0 36 17 73.5t34 61t54 68.5q50 64 65 154h17q0 -19 -1.5 -35t-5.5 -33t-6 -26t-9.5 -28.5t-9.5 -25t-13 -29t-13 -29.5q-37 -85 -37 -156q0 -50 31.5 -85t76.5 -35q37 0 66 19t29 43q0 9 -19 33t-19 41q0 18 11.5 29.5t29.5 11.5
q48 0 48 -62t-46.5 -103.5t-115.5 -41.5zM206 359q-22 0 -38 16.5t-16 38.5q0 23 15.5 37.5t39.5 14.5q22 0 37 -14.5t15 -36.5q0 -24 -15 -40t-38 -16z" />
    <glyph glyph-name="Agrave" unicode="&#xc0;" horiz-adv-x="722" 
d="M437 719h-40l-154 97q-29 19 -29 43q0 31 34 31q19 0 42 -23zM706 19v-19h-255v19q40 1 55 8t15 26q0 24 -19 67l-41 96h-262l-46 -117q-8 -21 -8 -39q0 -41 68 -41v-19h-198v19q37 2 57.5 28.5t66.5 135.5l208 491h20l249 -568q24 -55 40 -70t50 -17zM216 257h231
l-116 275z" />
    <glyph glyph-name="Aacute" unicode="&#xc1;" horiz-adv-x="722" 
d="M323 719h-40l147 148q23 23 42 23q35 0 35 -32q0 -23 -30 -42zM706 19v-19h-255v19q40 1 55 8t15 26q0 24 -19 67l-41 96h-262l-46 -117q-8 -21 -8 -39q0 -41 68 -41v-19h-198v19q37 2 57.5 28.5t66.5 135.5l208 491h20l249 -568q24 -55 40 -70t50 -17zM216 257h231
l-116 275z" />
    <glyph glyph-name="Acircumflex" unicode="&#xc2;" horiz-adv-x="722" 
d="M512 719h-34l-122 103l-121 -103h-34l124 167h62zM706 19v-19h-255v19q40 1 55 8t15 26q0 24 -19 67l-41 96h-262l-46 -117q-8 -21 -8 -39q0 -41 68 -41v-19h-198v19q37 2 57.5 28.5t66.5 135.5l208 491h20l249 -568q24 -55 40 -70t50 -17zM216 257h231l-116 275z" />
    <glyph glyph-name="Atilde" unicode="&#xc3;" horiz-adv-x="722" 
d="M497 838h29q-16 -57 -40 -81.5t-65 -24.5q-32 0 -81 24l-23 11q-24 11 -41 11q-35 0 -51 -46h-29q11 49 37 75t64 26q36 0 70 -18l24 -12q32 -15 53 -15q17 0 28.5 11t24.5 39zM706 19v-19h-255v19q40 1 55 8t15 26q0 24 -19 67l-41 96h-262l-46 -117q-8 -21 -8 -39
q0 -41 68 -41v-19h-198v19q37 2 57.5 28.5t66.5 135.5l208 491h20l249 -568q24 -55 40 -70t50 -17zM216 257h231l-116 275z" />
    <glyph glyph-name="Adieresis" unicode="&#xc4;" horiz-adv-x="722" 
d="M455 835q21 0 36 -15t15 -35t-15 -34.5t-36 -14.5q-20 0 -34 14.5t-14 35.5q0 19 14.5 34t33.5 15zM256 835q21 0 36 -15t15 -35t-15 -34.5t-36 -14.5q-20 0 -34 14.5t-14 35.5q0 19 14.5 34t33.5 15zM706 19v-19h-255v19q40 1 55 8t15 26q0 24 -19 67l-41 96h-262
l-46 -117q-8 -21 -8 -39q0 -41 68 -41v-19h-198v19q37 2 57.5 28.5t66.5 135.5l208 491h20l249 -568q24 -55 40 -70t50 -17zM216 257h231l-116 275z" />
    <glyph glyph-name="Aring" unicode="&#xc5;" horiz-adv-x="722" 
d="M356 900q41 0 70.5 -29.5t29.5 -70.5t-29.5 -70t-70.5 -29q-42 0 -70.5 29t-28.5 71q0 40 29.5 69.5t69.5 29.5zM357 866q-27 0 -46.5 -19t-19.5 -46t19 -46.5t45 -19.5q28 0 47.5 19t19.5 46t-19.5 46.5t-45.5 19.5zM706 19v-19h-255v19q40 1 55 8t15 26q0 24 -19 67
l-41 96h-262l-46 -117q-8 -21 -8 -39q0 -41 68 -41v-19h-198v19q37 2 57.5 28.5t66.5 135.5l208 491h20l249 -568q24 -55 40 -70t50 -17zM216 257h231l-116 275z" />
    <glyph glyph-name="AE" unicode="&#xc6;" horiz-adv-x="889" 
d="M740 229q-7 55 -25 77.5t-73 22.5h-145v-238q0 -37 10 -45t59 -8h76q81 0 117.5 24t79.5 106h24l-44 -168h-510v19q57 7 73 20.5t16 68.5v152h-176l-28 -53q-64 -125 -64 -158q0 -15 26.5 -22.5t42.5 -7.5v-19h-199v19q33 5 49 18.5t39 59.5l245 484q9 17 9 28
q0 16 -20.5 23.5t-69.5 9.5v20h564v-141h-23q-7 48 -22 68.5t-49.5 28.5t-110.5 8h-87q-27 0 -27 -30v-230h111q71 0 98.5 17.5t33.5 79.5h21v-234h-21zM239 299h159v319z" />
    <glyph glyph-name="Ccedilla" unicode="&#xc7;" horiz-adv-x="667" 
d="M144 338q0 -87 22.5 -150.5t60.5 -96t78.5 -47t86.5 -14.5q118 0 223 101l18 -18q-45 -61 -116.5 -94t-156.5 -33q-15 0 -24 1l-20 -52q15 3 26 3q40 0 63 -18.5t23 -50.5q0 -39 -33.5 -61.5t-91.5 -22.5q-45 0 -84 16l14 31q37 -12 65 -12q25 0 40 12t15 32
q0 19 -12 27.5t-41 8.5q-17 0 -28 -4l-7 5l37 89q-125 18 -199.5 108.5t-74.5 226.5q0 156 96 253.5t239 97.5q64 0 120 -16.5t65 -16.5q33 0 42 33h21l9 -226h-23q-55 186 -215 186q-109 0 -173.5 -81t-64.5 -217z" />
    <glyph glyph-name="Egrave" unicode="&#xc8;" horiz-adv-x="611" 
d="M382 719h-40l-154 97q-29 19 -29 43q0 31 34 31q19 0 42 -23zM201 80q0 -29 16.5 -36t88.5 -7h27q107 0 153 25.5t83 106.5h28l-45 -169h-540v19q55 4 71 20.5t16 69.5v444q0 53 -16 69.5t-71 20.5v19h531l3 -143h-25q-13 67 -40 86t-112 19h-135q-20 0 -26.5 -6.5
t-6.5 -27.5v-222h154q64 0 82.5 19.5t27.5 75.5h23v-232h-23q-10 62 -29 79t-81 17h-154v-247z" />
    <glyph glyph-name="Eacute" unicode="&#xc9;" horiz-adv-x="611" 
d="M273 719h-40l147 148q23 23 42 23q35 0 35 -32q0 -23 -30 -42zM201 80q0 -29 16.5 -36t88.5 -7h27q107 0 153 25.5t83 106.5h28l-45 -169h-540v19q55 4 71 20.5t16 69.5v444q0 53 -16 69.5t-71 20.5v19h531l3 -143h-25q-13 67 -40 86t-112 19h-135q-20 0 -26.5 -6.5
t-6.5 -27.5v-222h154q64 0 82.5 19.5t27.5 75.5h23v-232h-23q-10 62 -29 79t-81 17h-154v-247z" />
    <glyph glyph-name="Ecircumflex" unicode="&#xca;" horiz-adv-x="611" 
d="M462 719h-34l-122 103l-121 -103h-34l124 167h62zM201 80q0 -29 16.5 -36t88.5 -7h27q107 0 153 25.5t83 106.5h28l-45 -169h-540v19q55 4 71 20.5t16 69.5v444q0 53 -16 69.5t-71 20.5v19h531l3 -143h-25q-13 67 -40 86t-112 19h-135q-20 0 -26.5 -6.5t-6.5 -27.5v-222
h154q64 0 82.5 19.5t27.5 75.5h23v-232h-23q-10 62 -29 79t-81 17h-154v-247z" />
    <glyph glyph-name="Edieresis" unicode="&#xcb;" horiz-adv-x="611" 
d="M404 834q21 0 36 -15t15 -35t-15 -34.5t-36 -14.5q-20 0 -34 14.5t-14 35.5q0 19 14.5 34t33.5 15zM205 834q21 0 36 -15t15 -35t-15 -34.5t-36 -14.5q-20 0 -34 14.5t-14 35.5q0 19 14.5 34t33.5 15zM201 80q0 -29 16.5 -36t88.5 -7h27q107 0 153 25.5t83 106.5h28
l-45 -169h-540v19q55 4 71 20.5t16 69.5v444q0 53 -16 69.5t-71 20.5v19h531l3 -143h-25q-13 67 -40 86t-112 19h-135q-20 0 -26.5 -6.5t-6.5 -27.5v-222h154q64 0 82.5 19.5t27.5 75.5h23v-232h-23q-10 62 -29 79t-81 17h-154v-247z" />
    <glyph glyph-name="Igrave" unicode="&#xcc;" horiz-adv-x="333" 
d="M242 719h-40l-154 97q-29 19 -29 43q0 31 34 31q19 0 42 -23zM115 109v444q0 55 -16.5 70.5t-80.5 19.5v19h297v-19q-63 -3 -80.5 -19t-17.5 -71v-444q0 -55 18 -71.5t80 -18.5v-19h-297v19q63 2 80 18t17 72z" />
    <glyph glyph-name="Iacute" unicode="&#xcd;" horiz-adv-x="333" 
d="M133 719h-40l147 148q23 23 42 23q35 0 35 -32q0 -23 -30 -42zM115 109v444q0 55 -16.5 70.5t-80.5 19.5v19h297v-19q-63 -3 -80.5 -19t-17.5 -71v-444q0 -55 18 -71.5t80 -18.5v-19h-297v19q63 2 80 18t17 72z" />
    <glyph glyph-name="Icircumflex" unicode="&#xce;" horiz-adv-x="333" 
d="M322 719h-34l-122 103l-121 -103h-34l124 167h62zM115 109v444q0 55 -16.5 70.5t-80.5 19.5v19h297v-19q-63 -3 -80.5 -19t-17.5 -71v-444q0 -55 18 -71.5t80 -18.5v-19h-297v19q63 2 80 18t17 72z" />
    <glyph glyph-name="Idieresis" unicode="&#xcf;" horiz-adv-x="333" 
d="M265 835q21 0 36 -15t15 -35t-15 -34.5t-36 -14.5q-20 0 -34 14.5t-14 35.5q0 19 14.5 34t33.5 15zM66 835q21 0 36 -15t15 -35t-15 -34.5t-36 -14.5q-20 0 -34 14.5t-14 35.5q0 19 14.5 34t33.5 15zM115 109v444q0 55 -16.5 70.5t-80.5 19.5v19h297v-19
q-63 -3 -80.5 -19t-17.5 -71v-444q0 -55 18 -71.5t80 -18.5v-19h-297v19q63 2 80 18t17 72z" />
    <glyph glyph-name="Eth" unicode="&#xd0;" horiz-adv-x="722" 
d="M685 334q0 -45 -10 -88t-37 -89t-69 -79.5t-111.5 -55.5t-157.5 -22h-284v19q57 4 72.5 20t15.5 70v206h-83v44h83v194q0 55 -14.5 70t-73.5 20v19h270q91 0 162.5 -20.5t115 -53t72 -77t39 -87.5t10.5 -90zM576 327q0 39 -7 75.5t-28 78.5t-54.5 72.5t-93 51
t-137.5 20.5q-30 0 -40 -8t-10 -31v-227h146v-44h-146v-237q0 -24 11 -32.5t41 -8.5q318 0 318 290z" />
    <glyph glyph-name="Ntilde" unicode="&#xd1;" horiz-adv-x="722" 
d="M497 838h29q-16 -57 -40 -81.5t-65 -24.5q-32 0 -81 24l-23 11q-24 11 -41 11q-35 0 -51 -46h-29q11 49 37 75t64 26q36 0 70 -18l24 -12q32 -15 53 -15q17 0 28.5 11t24.5 39zM707 643q-28 -3 -41.5 -6.5t-28 -15.5t-20 -37.5t-5.5 -68.5v-526h-17l-442 550v-392
q0 -76 18 -100.5t76 -27.5v-19h-235v19q62 4 79.5 27.5t17.5 100.5v441q-30 35 -47.5 45t-49.5 10v19h171l385 -484v337q0 76 -18.5 99.5t-77.5 28.5v19h235v-19z" />
    <glyph glyph-name="Ograve" unicode="&#xd2;" horiz-adv-x="722" 
d="M438 718h-40l-154 97q-29 19 -29 43q0 31 34 31q19 0 42 -23zM355 -14q-135 0 -228 95.5t-93 249.5q0 151 92 248t235 97q144 0 235.5 -96.5t91.5 -252.5q0 -151 -92.5 -246t-240.5 -95zM574 328q0 72 -14 128t-35.5 90t-50.5 56t-56.5 30t-56.5 8q-49 0 -88 -21
t-61.5 -52.5t-37.5 -74.5t-20.5 -82.5t-5.5 -80.5q0 -51 10 -100t32 -98t65.5 -79t103.5 -30q61 0 105.5 30t67 79t32.5 98t10 99z" />
    <glyph glyph-name="Oacute" unicode="&#xd3;" horiz-adv-x="722" 
d="M328 719h-40l147 148q23 23 42 23q35 0 35 -32q0 -23 -30 -42zM355 -14q-135 0 -228 95.5t-93 249.5q0 151 92 248t235 97q144 0 235.5 -96.5t91.5 -252.5q0 -151 -92.5 -246t-240.5 -95zM574 328q0 72 -14 128t-35.5 90t-50.5 56t-56.5 30t-56.5 8q-49 0 -88 -21
t-61.5 -52.5t-37.5 -74.5t-20.5 -82.5t-5.5 -80.5q0 -51 10 -100t32 -98t65.5 -79t103.5 -30q61 0 105.5 30t67 79t32.5 98t10 99z" />
    <glyph glyph-name="Ocircumflex" unicode="&#xd4;" horiz-adv-x="722" 
d="M517 719h-34l-122 103l-121 -103h-34l124 167h62zM355 -14q-135 0 -228 95.5t-93 249.5q0 151 92 248t235 97q144 0 235.5 -96.5t91.5 -252.5q0 -151 -92.5 -246t-240.5 -95zM574 328q0 72 -14 128t-35.5 90t-50.5 56t-56.5 30t-56.5 8q-49 0 -88 -21t-61.5 -52.5
t-37.5 -74.5t-20.5 -82.5t-5.5 -80.5q0 -51 10 -100t32 -98t65.5 -79t103.5 -30q61 0 105.5 30t67 79t32.5 98t10 99z" />
    <glyph glyph-name="Otilde" unicode="&#xd5;" horiz-adv-x="722" 
d="M497 838h29q-16 -57 -40 -81.5t-65 -24.5q-32 0 -81 24l-23 11q-24 11 -41 11q-35 0 -51 -46h-29q11 49 37 75t64 26q36 0 70 -18l24 -12q32 -15 53 -15q17 0 28.5 11t24.5 39zM355 -14q-135 0 -228 95.5t-93 249.5q0 151 92 248t235 97q144 0 235.5 -96.5t91.5 -252.5
q0 -151 -92.5 -246t-240.5 -95zM574 328q0 72 -14 128t-35.5 90t-50.5 56t-56.5 30t-56.5 8q-49 0 -88 -21t-61.5 -52.5t-37.5 -74.5t-20.5 -82.5t-5.5 -80.5q0 -51 10 -100t32 -98t65.5 -79t103.5 -30q61 0 105.5 30t67 79t32.5 98t10 99z" />
    <glyph glyph-name="Odieresis" unicode="&#xd6;" horiz-adv-x="722" 
d="M459 835q21 0 36 -15t15 -35t-15 -34.5t-36 -14.5q-20 0 -34 14.5t-14 35.5q0 19 14.5 34t33.5 15zM260 835q21 0 36 -15t15 -35t-15 -34.5t-36 -14.5q-20 0 -34 14.5t-14 35.5q0 19 14.5 34t33.5 15zM355 -14q-135 0 -228 95.5t-93 249.5q0 151 92 248t235 97
q144 0 235.5 -96.5t91.5 -252.5q0 -151 -92.5 -246t-240.5 -95zM574 328q0 72 -14 128t-35.5 90t-50.5 56t-56.5 30t-56.5 8q-49 0 -88 -21t-61.5 -52.5t-37.5 -74.5t-20.5 -82.5t-5.5 -80.5q0 -51 10 -100t32 -98t65.5 -79t103.5 -30q61 0 105.5 30t67 79t32.5 98t10 99z
" />
    <glyph glyph-name="multiply" unicode="&#xd7;" horiz-adv-x="564" 
d="M234 253l-196 196l48 48l196 -197l196 197l48 -48l-196 -196l196 -197l-48 -48l-196 197l-196 -197l-48 48z" />
    <glyph glyph-name="Oslash" unicode="&#xd8;" horiz-adv-x="722" 
d="M151 59q-21 19 -36 36t-36.5 50t-33 80.5t-11.5 104.5q0 152 92 249t236 97q88 0 175 -49l72 107h49l-88 -130q22 -21 36.5 -37t36.5 -50t33.5 -81t11.5 -105q0 -152 -92 -248.5t-237 -96.5q-91 0 -175 50l-79 -116h-49zM527 540l-308 -452q60 -66 142 -66q99 0 156 82.5
t57 225.5q0 120 -47 210zM194 123l308 452q-62 65 -141 65q-98 0 -155.5 -83.5t-57.5 -226.5q0 -120 46 -207z" />
    <glyph glyph-name="Ugrave" unicode="&#xd9;" horiz-adv-x="722" 
d="M454 719h-40l-154 97q-29 19 -29 43q0 31 34 31q19 0 42 -23zM206 233q0 -100 37.5 -151.5t134.5 -51.5q56 0 101 21.5t65 57.5q23 43 23 136v270q0 75 -18 99.5t-76 28.5v19h232v-19q-62 -8 -78 -30t-16 -98v-261q0 -59 -10.5 -103t-37 -83.5t-79 -60.5t-129.5 -21
q-128 0 -189.5 62.5t-61.5 192.5v312q0 55 -15.5 70t-74.5 20v19h283v-19q-60 -5 -75.5 -20.5t-15.5 -69.5v-320z" />
    <glyph glyph-name="Uacute" unicode="&#xda;" horiz-adv-x="722" 
d="M353 719h-40l147 148q23 23 42 23q35 0 35 -32q0 -23 -30 -42zM206 233q0 -100 37.5 -151.5t134.5 -51.5q56 0 101 21.5t65 57.5q23 43 23 136v270q0 75 -18 99.5t-76 28.5v19h232v-19q-62 -8 -78 -30t-16 -98v-261q0 -59 -10.5 -103t-37 -83.5t-79 -60.5t-129.5 -21
q-128 0 -189.5 62.5t-61.5 192.5v312q0 55 -15.5 70t-74.5 20v19h283v-19q-60 -5 -75.5 -20.5t-15.5 -69.5v-320z" />
    <glyph glyph-name="Ucircumflex" unicode="&#xdb;" horiz-adv-x="722" 
d="M536 719h-34l-122 103l-121 -103h-34l124 167h62zM206 233q0 -100 37.5 -151.5t134.5 -51.5q56 0 101 21.5t65 57.5q23 43 23 136v270q0 75 -18 99.5t-76 28.5v19h232v-19q-62 -8 -78 -30t-16 -98v-261q0 -59 -10.5 -103t-37 -83.5t-79 -60.5t-129.5 -21
q-128 0 -189.5 62.5t-61.5 192.5v312q0 55 -15.5 70t-74.5 20v19h283v-19q-60 -5 -75.5 -20.5t-15.5 -69.5v-320z" />
    <glyph glyph-name="Udieresis" unicode="&#xdc;" horiz-adv-x="722" 
d="M477 834q21 0 36 -15t15 -35t-15 -34.5t-36 -14.5q-20 0 -34 14.5t-14 35.5q0 19 14.5 34t33.5 15zM278 834q21 0 36 -15t15 -35t-15 -34.5t-36 -14.5q-20 0 -34 14.5t-14 35.5q0 19 14.5 34t33.5 15zM206 233q0 -100 37.5 -151.5t134.5 -51.5q56 0 101 21.5t65 57.5
q23 43 23 136v270q0 75 -18 99.5t-76 28.5v19h232v-19q-62 -8 -78 -30t-16 -98v-261q0 -59 -10.5 -103t-37 -83.5t-79 -60.5t-129.5 -21q-128 0 -189.5 62.5t-61.5 192.5v312q0 55 -15.5 70t-74.5 20v19h283v-19q-60 -5 -75.5 -20.5t-15.5 -69.5v-320z" />
    <glyph glyph-name="Yacute" unicode="&#xdd;" horiz-adv-x="722" 
d="M360 719h-40l147 148q23 23 42 23q35 0 35 -32q0 -23 -30 -42zM703 662v-19q-39 -3 -67 -25.5t-71 -88.5l-148 -226v-194q0 -57 18 -72.5t85 -17.5v-19h-306v19q68 3 84.5 19.5t16.5 81.5v174l-131 192q-50 73 -76 104.5t-43 41.5t-43 11v19h280v-19q-71 -5 -71 -30
q0 -19 17 -44l148 -222l143 226q14 23 14 37q0 18 -15 25t-54 8v19h219z" />
    <glyph glyph-name="Thorn" unicode="&#xde;" horiz-adv-x="576" 
d="M542 351q0 -25 -6 -49t-23.5 -51t-46.5 -47t-79 -33t-116 -13q-29 0 -69 3v-52q0 -55 17.5 -71.5t76.5 -18.5v-19h-280v19q57 5 70.5 21.5t13.5 79.5v433q0 54 -14 69t-70 21v19h277v-19q-60 -5 -75.5 -22.5t-15.5 -77.5v-11h80q120 0 190 -49t70 -132zM202 461v-260
q34 -3 57 -3q174 0 174 147q0 77 -48 113t-151 36q-19 0 -25.5 -7t-6.5 -26z" />
    <glyph glyph-name="ssharp" unicode="&#xdf;" horiz-adv-x="500" 
d="M284 377q184 -35 184 -191q0 -82 -52 -138.5t-127 -56.5q-43 0 -70 20.5t-27 52.5q0 20 13 34t32 14q17 0 29 -11.5t13 -28.5l2 -22q1 -16 8 -23t21 -7q64 0 64 130q0 202 -132 207q-32 1 -32 17q0 12 29 15q95 10 95 128q0 65 -24 102t-67 37q-39 0 -62.5 -29t-23.5 -78
v-549h-145v15q38 3 49.5 16t11.5 53v370q0 50 8 88t26.5 71.5t55 51.5t88.5 18q78 0 124 -41.5t46 -110.5q0 -54 -28.5 -85.5t-108.5 -68.5z" />
    <glyph glyph-name="agrave" unicode="&#xe0;" horiz-adv-x="444" 
d="M298 507h-40l-154 97q-29 19 -29 43q0 31 34 31q19 0 42 -23zM37 97q0 18 4 33.5t14 29t19 24.5t27 22.5t30 19t36.5 18t37.5 16t41 16.5t41 16v61q0 83 -76 83q-30 0 -51 -14.5t-21 -34.5q0 -8 2.5 -22t2.5 -18q0 -17 -13.5 -29.5t-31.5 -12.5q-17 0 -30 13t-13 30
q0 47 48.5 79.5t119.5 32.5q82 0 113 -39.5t31 -120.5v-195q0 -33 6.5 -45.5t23.5 -12.5q21 0 44 19v-26q-26 -29 -45.5 -39.5t-44.5 -10.5q-31 0 -45.5 17t-18.5 56q-86 -73 -146 -73q-46 0 -75.5 30t-29.5 77zM287 123v145q-90 -33 -126 -64t-36 -75q0 -41 20 -61t43 -20
q34 0 73 23q16 9 21 19t5 33z" />
    <glyph glyph-name="aacute" unicode="&#xe1;" horiz-adv-x="444" 
d="M188 507h-40l147 148q23 23 42 23q35 0 35 -32q0 -23 -30 -42zM37 97q0 18 4 33.5t14 29t19 24.5t27 22.5t30 19t36.5 18t37.5 16t41 16.5t41 16v61q0 83 -76 83q-30 0 -51 -14.5t-21 -34.5q0 -8 2.5 -22t2.5 -18q0 -17 -13.5 -29.5t-31.5 -12.5q-17 0 -30 13t-13 30
q0 47 48.5 79.5t119.5 32.5q82 0 113 -39.5t31 -120.5v-195q0 -33 6.5 -45.5t23.5 -12.5q21 0 44 19v-26q-26 -29 -45.5 -39.5t-44.5 -10.5q-31 0 -45.5 17t-18.5 56q-86 -73 -146 -73q-46 0 -75.5 30t-29.5 77zM287 123v145q-90 -33 -126 -64t-36 -75q0 -41 20 -61t43 -20
q34 0 73 23q16 9 21 19t5 33z" />
    <glyph glyph-name="acircumflex" unicode="&#xe2;" horiz-adv-x="444" 
d="M378 507h-34l-122 103l-121 -103h-34l124 167h62zM37 97q0 18 4 33.5t14 29t19 24.5t27 22.5t30 19t36.5 18t37.5 16t41 16.5t41 16v61q0 83 -76 83q-30 0 -51 -14.5t-21 -34.5q0 -8 2.5 -22t2.5 -18q0 -17 -13.5 -29.5t-31.5 -12.5q-17 0 -30 13t-13 30q0 47 48.5 79.5
t119.5 32.5q82 0 113 -39.5t31 -120.5v-195q0 -33 6.5 -45.5t23.5 -12.5q21 0 44 19v-26q-26 -29 -45.5 -39.5t-44.5 -10.5q-31 0 -45.5 17t-18.5 56q-86 -73 -146 -73q-46 0 -75.5 30t-29.5 77zM287 123v145q-90 -33 -126 -64t-36 -75q0 -41 20 -61t43 -20q34 0 73 23
q16 9 21 19t5 33z" />
    <glyph glyph-name="atilde" unicode="&#xe3;" horiz-adv-x="444" 
d="M356 626h29q-16 -57 -40 -81.5t-65 -24.5q-32 0 -81 24l-23 11q-24 11 -41 11q-35 0 -51 -46h-29q11 49 37 75t64 26q36 0 70 -18l24 -12q32 -15 53 -15q17 0 28.5 11t24.5 39zM37 97q0 18 4 33.5t14 29t19 24.5t27 22.5t30 19t36.5 18t37.5 16t41 16.5t41 16v61
q0 83 -76 83q-30 0 -51 -14.5t-21 -34.5q0 -8 2.5 -22t2.5 -18q0 -17 -13.5 -29.5t-31.5 -12.5q-17 0 -30 13t-13 30q0 47 48.5 79.5t119.5 32.5q82 0 113 -39.5t31 -120.5v-195q0 -33 6.5 -45.5t23.5 -12.5q21 0 44 19v-26q-26 -29 -45.5 -39.5t-44.5 -10.5q-31 0 -45.5 17
t-18.5 56q-86 -73 -146 -73q-46 0 -75.5 30t-29.5 77zM287 123v145q-90 -33 -126 -64t-36 -75q0 -41 20 -61t43 -20q34 0 73 23q16 9 21 19t5 33z" />
    <glyph glyph-name="adieresis" unicode="&#xe4;" horiz-adv-x="444" 
d="M322 619q21 0 36 -15t15 -35t-15 -34.5t-36 -14.5q-20 0 -34 14.5t-14 35.5q0 19 14.5 34t33.5 15zM123 619q21 0 36 -15t15 -35t-15 -34.5t-36 -14.5q-20 0 -34 14.5t-14 35.5q0 19 14.5 34t33.5 15zM37 97q0 18 4 33.5t14 29t19 24.5t27 22.5t30 19t36.5 18t37.5 16
t41 16.5t41 16v61q0 83 -76 83q-30 0 -51 -14.5t-21 -34.5q0 -8 2.5 -22t2.5 -18q0 -17 -13.5 -29.5t-31.5 -12.5q-17 0 -30 13t-13 30q0 47 48.5 79.5t119.5 32.5q82 0 113 -39.5t31 -120.5v-195q0 -33 6.5 -45.5t23.5 -12.5q21 0 44 19v-26q-26 -29 -45.5 -39.5
t-44.5 -10.5q-31 0 -45.5 17t-18.5 56q-86 -73 -146 -73q-46 0 -75.5 30t-29.5 77zM287 123v145q-90 -33 -126 -64t-36 -75q0 -41 20 -61t43 -20q34 0 73 23q16 9 21 19t5 33z" />
    <glyph glyph-name="aring" unicode="&#xe5;" horiz-adv-x="444" 
d="M224 719q41 0 70.5 -29.5t29.5 -70.5t-29.5 -70t-70.5 -29q-42 0 -70.5 29t-28.5 71q0 40 29.5 69.5t69.5 29.5zM225 685q-27 0 -46.5 -19t-19.5 -46t19 -46.5t45 -19.5q28 0 47.5 19t19.5 46t-19.5 46.5t-45.5 19.5zM37 97q0 18 4 33.5t14 29t19 24.5t27 22.5t30 19
t36.5 18t37.5 16t41 16.5t41 16v61q0 83 -76 83q-30 0 -51 -14.5t-21 -34.5q0 -8 2.5 -22t2.5 -18q0 -17 -13.5 -29.5t-31.5 -12.5q-17 0 -30 13t-13 30q0 47 48.5 79.5t119.5 32.5q82 0 113 -39.5t31 -120.5v-195q0 -33 6.5 -45.5t23.5 -12.5q21 0 44 19v-26
q-26 -29 -45.5 -39.5t-44.5 -10.5q-31 0 -45.5 17t-18.5 56q-86 -73 -146 -73q-46 0 -75.5 30t-29.5 77zM287 123v145q-90 -33 -126 -64t-36 -75q0 -41 20 -61t43 -20q34 0 73 23q16 9 21 19t5 33z" />
    <glyph glyph-name="ae" unicode="&#xe6;" horiz-adv-x="651" 
d="M143 392q0 -1 0.5 -6.5t1.5 -15.5t1 -21q0 -20 -11.5 -32.5t-31.5 -12.5t-32 13t-12 35q0 46 46 77t114 31q65 0 117 -45q34 26 59.5 35.5t59.5 9.5q76 0 114 -43t46 -140h-262q0 -39 2 -64.5t9 -58t19 -51.5t35.5 -32.5t56.5 -13.5q43 0 75.5 22t68.5 75l12 -5
q-39 -85 -86.5 -122t-110.5 -37q-81 0 -129 73q-51 -42 -83 -57.5t-69 -15.5q-51 0 -83.5 30.5t-32.5 79.5q0 39 29.5 70t64.5 48.5t120 53.5l21 9v63q0 48 -12 70t-48 22q-29 0 -49 -13t-20 -31zM293 88l-5 14q-5 15 -10 41.5t-5 57.5v52q-91 -33 -120 -58t-29 -70
q0 -36 19.5 -61.5t47.5 -25.5t65 18t37 32zM354 307h166q-2 65 -20.5 94.5t-58.5 29.5q-43 0 -63 -29t-24 -95z" />
    <glyph glyph-name="ccedilla" unicode="&#xe7;" horiz-adv-x="444" 
d="M25 212q0 111 65 179.5t154 68.5q63 0 108.5 -30.5t45.5 -72.5q0 -17 -14 -29.5t-33 -12.5q-35 0 -48 46l-6 22q-8 28 -20 38t-39 10q-61 0 -98.5 -48.5t-37.5 -125.5q0 -86 43.5 -140.5t111.5 -54.5q43 0 74 21t67 73l14 -9q-39 -79 -82 -115.5t-104 -41.5l-21 -55
q15 3 26 3q40 0 63 -18.5t23 -50.5q0 -39 -33.5 -61.5t-91.5 -22.5q-45 0 -84 16l14 31q36 -12 65 -12q25 0 40 12t15 32q0 19 -12 27.5t-41 8.5q-17 0 -28 -4l-7 5l38 91q-76 10 -121.5 70.5t-45.5 149.5z" />
    <glyph glyph-name="egrave" unicode="&#xe8;" horiz-adv-x="444" 
d="M298 507h-40l-154 97q-29 19 -29 43q0 31 34 31q19 0 42 -23zM97 277q2 -63 17 -108.5t39 -68t48.5 -32t51.5 -9.5q48 0 83.5 24t71.5 81l16 -7q-31 -81 -86 -124t-126 -43q-86 0 -136.5 60.5t-50.5 163.5q0 111 58.5 178.5t150.5 67.5q76 0 118 -45.5t53 -137.5h-308z
M99 309h204q-10 65 -31 90t-67 25q-90 0 -106 -115z" />
    <glyph glyph-name="eacute" unicode="&#xe9;" horiz-adv-x="444" 
d="M188 507h-40l147 148q23 23 42 23q35 0 35 -32q0 -23 -30 -42zM97 277q2 -63 17 -108.5t39 -68t48.5 -32t51.5 -9.5q48 0 83.5 24t71.5 81l16 -7q-31 -81 -86 -124t-126 -43q-86 0 -136.5 60.5t-50.5 163.5q0 111 58.5 178.5t150.5 67.5q76 0 118 -45.5t53 -137.5h-308z
M99 309h204q-10 65 -31 90t-67 25q-90 0 -106 -115z" />
    <glyph glyph-name="ecircumflex" unicode="&#xea;" horiz-adv-x="444" 
d="M378 507h-34l-122 103l-121 -103h-34l124 167h62zM97 277q2 -63 17 -108.5t39 -68t48.5 -32t51.5 -9.5q48 0 83.5 24t71.5 81l16 -7q-31 -81 -86 -124t-126 -43q-86 0 -136.5 60.5t-50.5 163.5q0 111 58.5 178.5t150.5 67.5q76 0 118 -45.5t53 -137.5h-308zM99 309h204
q-10 65 -31 90t-67 25q-90 0 -106 -115z" />
    <glyph glyph-name="edieresis" unicode="&#xeb;" horiz-adv-x="444" 
d="M320 621q21 0 36 -15t15 -35t-15 -34.5t-36 -14.5q-20 0 -34 14.5t-14 35.5q0 19 14.5 34t33.5 15zM121 621q21 0 36 -15t15 -35t-15 -34.5t-36 -14.5q-20 0 -34 14.5t-14 35.5q0 19 14.5 34t33.5 15zM97 277q2 -63 17 -108.5t39 -68t48.5 -32t51.5 -9.5q48 0 83.5 24
t71.5 81l16 -7q-31 -81 -86 -124t-126 -43q-86 0 -136.5 60.5t-50.5 163.5q0 111 58.5 178.5t150.5 67.5q76 0 118 -45.5t53 -137.5h-308zM99 309h204q-10 65 -31 90t-67 25q-90 0 -106 -115z" />
    <glyph glyph-name="igrave" unicode="&#xec;" horiz-adv-x="278" 
d="M223 507h-40l-154 97q-29 19 -29 43q0 31 34 31q19 0 42 -23zM62 394q-12 0 -42 -4v15l155 55l4 -3v-355q0 -54 12.5 -68.5t61.5 -18.5v-15h-237v15q52 3 65.5 18t13.5 69v232q0 33 -7.5 46.5t-25.5 13.5z" />
    <glyph glyph-name="iacute" unicode="&#xed;" horiz-adv-x="278" 
d="M90 507h-40l147 148q23 23 42 23q35 0 35 -32q0 -23 -30 -42zM62 394q-12 0 -42 -4v15l155 55l4 -3v-355q0 -54 12.5 -68.5t61.5 -18.5v-15h-237v15q52 3 65.5 18t13.5 69v232q0 33 -7.5 46.5t-25.5 13.5z" />
    <glyph glyph-name="icircumflex" unicode="&#xee;" horiz-adv-x="278" 
d="M295 507h-34l-122 103l-121 -103h-34l124 167h62zM62 394q-12 0 -42 -4v15l155 55l4 -3v-355q0 -54 12.5 -68.5t61.5 -18.5v-15h-237v15q52 3 65.5 18t13.5 69v232q0 33 -7.5 46.5t-25.5 13.5z" />
    <glyph glyph-name="idieresis" unicode="&#xef;" horiz-adv-x="278" 
d="M220 622q21 0 36 -15t15 -35t-15 -34.5t-36 -14.5q-20 0 -34 14.5t-14 35.5q0 19 14.5 34t33.5 15zM55 622q21 0 36 -15t15 -35t-15 -34.5t-36 -14.5q-20 0 -34 14.5t-14 35.5q0 19 14.5 34t33.5 15zM62 394q-12 0 -42 -4v15l155 55l4 -3v-355q0 -54 12.5 -68.5
t61.5 -18.5v-15h-237v15q52 3 65.5 18t13.5 69v232q0 33 -7.5 46.5t-25.5 13.5z" />
    <glyph glyph-name="eth" unicode="&#xf0;" horiz-adv-x="501" 
d="M469 285q0 -126 -62.5 -210.5t-161.5 -84.5q-93 0 -155.5 66.5t-62.5 166.5q0 101 61 169t151 68q36 0 62 -12.5t64 -47.5q-11 55 -32 92.5t-65 82.5l-123 -65l-33 30l121 64q-62 44 -133 56l42 23q49 -4 81.5 -14t70.5 -33l95 50l33 -30l-91 -48q138 -133 138 -323z
M117 276q0 -106 39 -182t103 -76q57 0 88.5 48.5t31.5 134.5q0 102 -40 166.5t-104 64.5q-53 0 -85.5 -43t-32.5 -113z" />
    <glyph glyph-name="ntilde" unicode="&#xf1;" horiz-adv-x="500" 
d="M386 626h29q-16 -57 -40 -81.5t-65 -24.5q-32 0 -81 24l-23 11q-24 11 -41 11q-35 0 -51 -46h-29q11 49 37 75t64 26q36 0 70 -18l24 -12q32 -15 53 -15q17 0 28.5 11t24.5 39zM16 398v17q74 22 138 45l7 -2v-79q51 48 80.5 64.5t64.5 16.5q55 0 86.5 -39.5t31.5 -110.5
v-229q0 -37 12 -49.5t49 -16.5v-15h-208v15q38 3 50.5 20t12.5 64v209q0 97 -73 97q-25 0 -46 -11.5t-57 -45.5v-281q0 -27 14 -38t52 -14v-15h-212v15q38 3 50 17.5t12 57.5v248q0 37 -8 50.5t-29 13.5q-19 0 -27 -4z" />
    <glyph glyph-name="ograve" unicode="&#xf2;" horiz-adv-x="500" 
d="M326 507h-40l-154 97q-29 19 -29 43q0 31 34 31q19 0 42 -23zM250 460q96 0 158 -64t62 -162q0 -104 -64 -174t-158 -70t-156.5 67.5t-62.5 168.5q0 103 61.5 168.5t159.5 65.5zM119 275q0 -107 39 -182t102 -75q56 0 88 48t32 133q0 103 -40 168t-103 65
q-53 0 -85.5 -43t-32.5 -114z" />
    <glyph glyph-name="oacute" unicode="&#xf3;" horiz-adv-x="500" 
d="M217 507h-40l147 148q23 23 42 23q35 0 35 -32q0 -23 -30 -42zM250 460q96 0 158 -64t62 -162q0 -104 -64 -174t-158 -70t-156.5 67.5t-62.5 168.5q0 103 61.5 168.5t159.5 65.5zM119 275q0 -107 39 -182t102 -75q56 0 88 48t32 133q0 103 -40 168t-103 65
q-53 0 -85.5 -43t-32.5 -114z" />
    <glyph glyph-name="ocircumflex" unicode="&#xf4;" horiz-adv-x="500" 
d="M406 507h-34l-122 103l-121 -103h-34l124 167h62zM250 460q96 0 158 -64t62 -162q0 -104 -64 -174t-158 -70t-156.5 67.5t-62.5 168.5q0 103 61.5 168.5t159.5 65.5zM119 275q0 -107 39 -182t102 -75q56 0 88 48t32 133q0 103 -40 168t-103 65q-53 0 -85.5 -43
t-32.5 -114z" />
    <glyph glyph-name="otilde" unicode="&#xf5;" horiz-adv-x="500" 
d="M386 625h29q-16 -57 -40 -81.5t-65 -24.5q-32 0 -81 24l-23 11q-24 11 -41 11q-35 0 -51 -46h-29q11 49 37 75t64 26q36 0 70 -18l24 -12q32 -15 53 -15q17 0 28.5 11t24.5 39zM250 460q96 0 158 -64t62 -162q0 -104 -64 -174t-158 -70t-156.5 67.5t-62.5 168.5
q0 103 61.5 168.5t159.5 65.5zM119 275q0 -107 39 -182t102 -75q56 0 88 48t32 133q0 103 -40 168t-103 65q-53 0 -85.5 -43t-32.5 -114z" />
    <glyph glyph-name="odieresis" unicode="&#xf6;" horiz-adv-x="500" 
d="M348 619q21 0 36 -15t15 -35t-15 -34.5t-36 -14.5q-20 0 -34 14.5t-14 35.5q0 19 14.5 34t33.5 15zM149 619q21 0 36 -15t15 -35t-15 -34.5t-36 -14.5q-20 0 -34 14.5t-14 35.5q0 19 14.5 34t33.5 15zM250 460q96 0 158 -64t62 -162q0 -104 -64 -174t-158 -70
t-156.5 67.5t-62.5 168.5q0 103 61.5 168.5t159.5 65.5zM119 275q0 -107 39 -182t102 -75q56 0 88 48t32 133q0 103 -40 168t-103 65q-53 0 -85.5 -43t-32.5 -114z" />
    <glyph glyph-name="divide" unicode="&#xf7;" horiz-adv-x="564" 
d="M534 220h-504v66h504v-66zM282 516q23 0 39.5 -17t16.5 -40q0 -22 -17 -38t-40 -16q-22 0 -38 16t-16 38q0 23 16.5 40t38.5 17zM282 101q23 0 39.5 -17t16.5 -40q0 -22 -17 -38t-40 -16q-22 0 -38 16t-16 38q0 23 16.5 40t38.5 17z" />
    <glyph glyph-name="oslash" unicode="&#xf8;" horiz-adv-x="500" 
d="M125 28q-96 78 -96 199q0 102 61.5 167.5t158.5 65.5q44 0 92 -18l57 109h39l-65 -125q98 -70 98 -192q0 -104 -64 -174t-159 -70q-47 0 -93 21l-65 -123h-37zM340 366l-161 -306q35 -42 82 -42q56 0 87.5 49t31.5 136t-40 163zM158 92l159 304q-37 36 -80 36
q-53 0 -85.5 -43t-32.5 -113q0 -102 39 -184z" />
    <glyph glyph-name="ugrave" unicode="&#xf9;" horiz-adv-x="500" 
d="M305 507h-40l-154 97q-29 19 -29 43q0 31 34 31q19 0 42 -23zM479 50v-14q-78 -21 -137 -45l-4 2v83q-3 -3 -17.5 -18t-20.5 -20.5t-20.5 -17t-25.5 -16.5t-28 -9.5t-34 -4.5q-55 0 -88 35.5t-33 94.5v252q0 35 -13 48.5t-49 15.5v14h146v-326q0 -31 21 -53.5t50 -22.5
q11 0 26 3t34.5 11.5t33 27t13.5 45.5v235q0 37 -13.5 49t-60.5 14v17h158v-343q0 -35 11.5 -46t45.5 -11h5z" />
    <glyph glyph-name="uacute" unicode="&#xfa;" horiz-adv-x="500" 
d="M217 507h-40l147 148q23 23 42 23q35 0 35 -32q0 -23 -30 -42zM479 50v-14q-78 -21 -137 -45l-4 2v83q-3 -3 -17.5 -18t-20.5 -20.5t-20.5 -17t-25.5 -16.5t-28 -9.5t-34 -4.5q-55 0 -88 35.5t-33 94.5v252q0 35 -13 48.5t-49 15.5v14h146v-326q0 -31 21 -53.5t50 -22.5
q11 0 26 3t34.5 11.5t33 27t13.5 45.5v235q0 37 -13.5 49t-60.5 14v17h158v-343q0 -35 11.5 -46t45.5 -11h5z" />
    <glyph glyph-name="ucircumflex" unicode="&#xfb;" horiz-adv-x="500" 
d="M393 507h-34l-122 103l-121 -103h-34l124 167h62zM479 50v-14q-78 -21 -137 -45l-4 2v83q-3 -3 -17.5 -18t-20.5 -20.5t-20.5 -17t-25.5 -16.5t-28 -9.5t-34 -4.5q-55 0 -88 35.5t-33 94.5v252q0 35 -13 48.5t-49 15.5v14h146v-326q0 -31 21 -53.5t50 -22.5q11 0 26 3
t34.5 11.5t33 27t13.5 45.5v235q0 37 -13.5 49t-60.5 14v17h158v-343q0 -35 11.5 -46t45.5 -11h5z" />
    <glyph glyph-name="udieresis" unicode="&#xfc;" horiz-adv-x="500" 
d="M341 621q21 0 36 -15t15 -35t-15 -34.5t-36 -14.5q-20 0 -34 14.5t-14 35.5q0 19 14.5 34t33.5 15zM142 621q21 0 36 -15t15 -35t-15 -34.5t-36 -14.5q-20 0 -34 14.5t-14 35.5q0 19 14.5 34t33.5 15zM479 50v-14q-78 -21 -137 -45l-4 2v83q-3 -3 -17.5 -18t-20.5 -20.5
t-20.5 -17t-25.5 -16.5t-28 -9.5t-34 -4.5q-55 0 -88 35.5t-33 94.5v252q0 35 -13 48.5t-49 15.5v14h146v-326q0 -31 21 -53.5t50 -22.5q11 0 26 3t34.5 11.5t33 27t13.5 45.5v235q0 37 -13.5 49t-60.5 14v17h158v-343q0 -35 11.5 -46t45.5 -11h5z" />
    <glyph glyph-name="yacute" unicode="&#xfd;" horiz-adv-x="500" 
d="M217 507h-40l147 148q23 23 42 23q35 0 35 -32q0 -23 -30 -42zM151 -134q28 0 59 62t31 91q0 13 -44 101l-132 284q-12 26 -51 32v14h206v-15q-32 -1 -45 -7t-13 -20q0 -15 10 -38l115 -253l97 276q4 9 4 17q0 25 -48 25v15h135v-15q-18 -2 -28.5 -11.5t-19.5 -33.5
l-154 -408q-40 -108 -79.5 -154t-89.5 -46q-32 0 -53 16.5t-21 41.5q0 18 13 31t30 13q22 0 47 -9t31 -9z" />
    <glyph glyph-name="thorn" unicode="&#xfe;" horiz-adv-x="496" 
d="M5 623v16q93 26 145 44l5 -3v-298q65 78 144 78q73 0 120 -60t47 -153q0 -109 -60.5 -183t-149.5 -74q-32 0 -53.5 9t-47.5 34v-157q0 -47 16 -60.5t72 -14.5v-18h-242v18q44 4 57 16.5t13 51.5v704q0 31 -9.5 41t-39.5 10q-11 0 -17 -1zM155 334v-246q0 -22 34.5 -44
t69.5 -22q54 0 87.5 51.5t33.5 134.5q0 87 -33.5 139.5t-89.5 52.5q-35 0 -68.5 -22t-33.5 -44z" />
    <glyph glyph-name="ydieresis" unicode="&#xff;" horiz-adv-x="500" 
d="M365 625q21 0 36 -15t15 -35t-15 -34.5t-36 -14.5q-20 0 -34 14.5t-14 35.5q0 19 14.5 34t33.5 15zM166 625q21 0 36 -15t15 -35t-15 -34.5t-36 -14.5q-20 0 -34 14.5t-14 35.5q0 19 14.5 34t33.5 15zM151 -134q28 0 59 62t31 91q0 13 -44 101l-132 284q-12 26 -51 32v14
h206v-15q-32 -1 -45 -7t-13 -20q0 -15 10 -38l115 -253l97 276q4 9 4 17q0 25 -48 25v15h135v-15q-18 -2 -28.5 -11.5t-19.5 -33.5l-154 -408q-40 -108 -79.5 -154t-89.5 -46q-32 0 -53 16.5t-21 41.5q0 18 13 31t30 13q22 0 47 -9t31 -9z" />
    <glyph glyph-name="Amacron" unicode="&#x100;" horiz-adv-x="722" 
d="M201 790h311v-54h-311v54zM706 19v-19h-255v19q40 1 55 8t15 26q0 24 -19 67l-41 96h-262l-46 -117q-8 -21 -8 -39q0 -41 68 -41v-19h-198v19q37 2 57.5 28.5t66.5 135.5l208 491h20l249 -568q24 -55 40 -70t50 -17zM216 257h231l-116 275z" />
    <glyph glyph-name="amacron" unicode="&#x101;" horiz-adv-x="444" 
d="M69 584h311v-54h-311v54zM37 97q0 18 4 33.5t14 29t19 24.5t27 22.5t30 19t36.5 18t37.5 16t41 16.5t41 16v61q0 83 -76 83q-30 0 -51 -14.5t-21 -34.5q0 -8 2.5 -22t2.5 -18q0 -17 -13.5 -29.5t-31.5 -12.5q-17 0 -30 13t-13 30q0 47 48.5 79.5t119.5 32.5
q82 0 113 -39.5t31 -120.5v-195q0 -33 6.5 -45.5t23.5 -12.5q21 0 44 19v-26q-26 -29 -45.5 -39.5t-44.5 -10.5q-31 0 -45.5 17t-18.5 56q-86 -73 -146 -73q-46 0 -75.5 30t-29.5 77zM287 123v145q-90 -33 -126 -64t-36 -75q0 -41 20 -61t43 -20q34 0 73 23q16 9 21 19t5 33
z" />
    <glyph glyph-name="Abreve" unicode="&#x102;" horiz-adv-x="722" 
d="M468 893h29q-18 -157 -142 -157q-56 0 -96.5 35t-42.5 122h29q11 -50 37.5 -73.5t74.5 -23.5q44 0 67 20t44 77zM706 19v-19h-255v19q40 1 55 8t15 26q0 24 -19 67l-41 96h-262l-46 -117q-8 -21 -8 -39q0 -41 68 -41v-19h-198v19q37 2 57.5 28.5t66.5 135.5l208 491h20
l249 -568q24 -55 40 -70t50 -17zM216 257h231l-116 275z" />
    <glyph glyph-name="abreve" unicode="&#x103;" horiz-adv-x="444" 
d="M336 664h29q-18 -157 -142 -157q-56 0 -96.5 35t-42.5 122h29q11 -50 37.5 -73.5t74.5 -23.5q44 0 67 20t44 77zM37 97q0 18 4 33.5t14 29t19 24.5t27 22.5t30 19t36.5 18t37.5 16t41 16.5t41 16v61q0 83 -76 83q-30 0 -51 -14.5t-21 -34.5q0 -8 2.5 -22t2.5 -18
q0 -17 -13.5 -29.5t-31.5 -12.5q-17 0 -30 13t-13 30q0 47 48.5 79.5t119.5 32.5q82 0 113 -39.5t31 -120.5v-195q0 -33 6.5 -45.5t23.5 -12.5q21 0 44 19v-26q-26 -29 -45.5 -39.5t-44.5 -10.5q-31 0 -45.5 17t-18.5 56q-86 -73 -146 -73q-46 0 -75.5 30t-29.5 77zM287 123
v145q-90 -33 -126 -64t-36 -75q0 -41 20 -61t43 -20q34 0 73 23q16 9 21 19t5 33z" />
    <glyph glyph-name="Aogonek" unicode="&#x104;" horiz-adv-x="722" 
d="M767 -73l20 -16q-53 -76 -112 -76q-31 0 -52 22t-21 54q0 46 54 89h-205v19q40 1 55 8t15 26q0 24 -19 67l-41 96h-262l-46 -117q-8 -21 -8 -39q0 -41 68 -41v-19h-198v19q37 2 57.5 28.5t66.5 135.5l208 491h20l249 -568q26 -56 41 -70.5t49 -16.5v-19h-4
q-44 -35 -44 -69q0 -17 11 -28.5t27 -11.5q28 0 71 36zM216 257h231l-116 275z" />
    <glyph glyph-name="aogonek" unicode="&#x105;" horiz-adv-x="444" 
d="M224 460q82 0 113 -39.5t31 -120.5v-195q0 -33 6.5 -45.5t23.5 -12.5q21 0 44 19v-26q-26 -28 -41 -37t-46 -14q-18 -4 -29 -19t-11 -36q0 -20 10.5 -31.5t27.5 -11.5q28 0 71 36l20 -16q-53 -76 -112 -76q-31 0 -52 22t-21 54q0 46 54 89q-21 20 -25 63
q-86 -73 -146 -73q-46 0 -75.5 30t-29.5 77q0 18 4 33.5t14 29t19 24.5t27 22.5t30 19t36.5 18t37.5 16t41 16.5t41 16v61q0 83 -76 83q-30 0 -51 -14.5t-21 -34.5q0 -8 2.5 -22t2.5 -18q0 -17 -13.5 -29.5t-31.5 -12.5q-17 0 -30 13t-13 30q0 47 48.5 79.5t119.5 32.5z
M287 123v145q-90 -33 -126 -64t-36 -75q0 -41 20 -61t43 -20q34 0 73 23q16 9 21 19t5 33z" />
    <glyph glyph-name="Cacute" unicode="&#x106;" horiz-adv-x="667" 
d="M360 719h-40l147 148q23 23 42 23q35 0 35 -32q0 -23 -30 -42zM28 325q0 156 96 253.5t239 97.5q64 0 120 -16.5t65 -16.5q33 0 42 33h21l9 -226h-23q-55 186 -215 186q-109 0 -173.5 -81t-64.5 -217q0 -87 22.5 -150.5t60.5 -96t78.5 -47t86.5 -14.5q118 0 223 101
l18 -18q-46 -61 -117 -94t-156 -33q-148 0 -240 93t-92 246z" />
    <glyph glyph-name="cacute" unicode="&#x107;" horiz-adv-x="444" 
d="M209 507h-40l147 148q23 23 42 23q35 0 35 -32q0 -23 -30 -42zM25 213q0 111 65.5 179t153.5 68q63 0 108.5 -30.5t45.5 -72.5q0 -17 -14 -29.5t-34 -12.5q-34 0 -47 46l-6 22q-8 28 -20 38t-39 10q-61 0 -98.5 -48.5t-37.5 -125.5q0 -86 43.5 -140.5t111.5 -54.5
q43 0 74 21t67 73l14 -9q-10 -20 -17.5 -33t-27 -39t-38.5 -42t-50 -29.5t-64 -13.5q-83 0 -136.5 62.5t-53.5 160.5z" />
    <glyph glyph-name="Ccircumflex" unicode="&#x108;" horiz-adv-x="667" 
d="M536 719h-34l-122 103l-121 -103h-34l124 167h62zM28 325q0 156 96 253.5t239 97.5q64 0 120 -16.5t65 -16.5q33 0 42 33h21l9 -226h-23q-55 186 -215 186q-109 0 -173.5 -81t-64.5 -217q0 -87 22.5 -150.5t60.5 -96t78.5 -47t86.5 -14.5q118 0 223 101l18 -18
q-46 -61 -117 -94t-156 -33q-148 0 -240 93t-92 246z" />
    <glyph glyph-name="ccircumflex" unicode="&#x109;" horiz-adv-x="444" 
d="M393 507h-34l-122 103l-121 -103h-34l124 167h62zM25 213q0 111 65.5 179t153.5 68q63 0 108.5 -30.5t45.5 -72.5q0 -17 -14 -29.5t-34 -12.5q-34 0 -47 46l-6 22q-8 28 -20 38t-39 10q-61 0 -98.5 -48.5t-37.5 -125.5q0 -86 43.5 -140.5t111.5 -54.5q43 0 74 21t67 73
l14 -9q-10 -20 -17.5 -33t-27 -39t-38.5 -42t-50 -29.5t-64 -13.5q-83 0 -136.5 62.5t-53.5 160.5z" />
    <glyph glyph-name="Cdotaccent" unicode="&#x10a;" horiz-adv-x="667" 
d="M366 835q21 0 36 -15t15 -35t-15 -34.5t-36 -14.5q-20 0 -34 14.5t-14 35.5q0 19 14.5 34t33.5 15zM28 325q0 156 96 253.5t239 97.5q64 0 120 -16.5t65 -16.5q33 0 42 33h21l9 -226h-23q-55 186 -215 186q-109 0 -173.5 -81t-64.5 -217q0 -87 22.5 -150.5t60.5 -96
t78.5 -47t86.5 -14.5q118 0 223 101l18 -18q-46 -61 -117 -94t-156 -33q-148 0 -240 93t-92 246z" />
    <glyph glyph-name="cdotaccent" unicode="&#x10b;" horiz-adv-x="444" 
d="M220 622q21 0 36 -15t15 -35t-15 -34.5t-36 -14.5q-20 0 -34 14.5t-14 35.5q0 19 14.5 34t33.5 15zM25 213q0 111 65.5 179t153.5 68q63 0 108.5 -30.5t45.5 -72.5q0 -17 -14 -29.5t-34 -12.5q-34 0 -47 46l-6 22q-8 28 -20 38t-39 10q-61 0 -98.5 -48.5t-37.5 -125.5
q0 -86 43.5 -140.5t111.5 -54.5q43 0 74 21t67 73l14 -9q-10 -20 -17.5 -33t-27 -39t-38.5 -42t-50 -29.5t-64 -13.5q-83 0 -136.5 62.5t-53.5 160.5z" />
    <glyph glyph-name="Ccaron" unicode="&#x10c;" horiz-adv-x="667" 
d="M518 886l-125 -167h-62l-124 167h34l121 -103l122 103h34zM28 325q0 156 96 253.5t239 97.5q64 0 120 -16.5t65 -16.5q33 0 42 33h21l9 -226h-23q-55 186 -215 186q-109 0 -173.5 -81t-64.5 -217q0 -87 22.5 -150.5t60.5 -96t78.5 -47t86.5 -14.5q118 0 223 101l18 -18
q-46 -61 -117 -94t-156 -33q-148 0 -240 93t-92 246z" />
    <glyph glyph-name="ccaron" unicode="&#x10d;" horiz-adv-x="444" 
d="M398 674l-125 -167h-62l-124 167h34l121 -103l122 103h34zM25 213q0 111 65.5 179t153.5 68q63 0 108.5 -30.5t45.5 -72.5q0 -17 -14 -29.5t-34 -12.5q-34 0 -47 46l-6 22q-8 28 -20 38t-39 10q-61 0 -98.5 -48.5t-37.5 -125.5q0 -86 43.5 -140.5t111.5 -54.5q43 0 74 21
t67 73l14 -9q-10 -20 -17.5 -33t-27 -39t-38.5 -42t-50 -29.5t-64 -13.5q-83 0 -136.5 62.5t-53.5 160.5z" />
    <glyph glyph-name="Dcaron" unicode="&#x10e;" horiz-adv-x="722" 
d="M517 887l-125 -167h-62l-124 167h34l121 -103l122 103h34zM685 334q0 -45 -10 -88t-37 -89t-69 -79.5t-111.5 -55.5t-157.5 -22h-284v19q57 4 72.5 20t15.5 70v444q0 55 -14.5 70t-73.5 20v19h270q91 0 162.5 -20.5t115 -53t72 -77t39 -87.5t10.5 -90zM576 327
q0 43 -8.5 82.5t-30.5 80t-57 69.5t-92 47.5t-130 18.5q-31 0 -41.5 -8t-10.5 -31v-508q0 -24 11 -32.5t41 -8.5q318 0 318 290z" />
    <glyph glyph-name="dcaron" unicode="&#x10f;" horiz-adv-x="630" 
d="M344 -10l-4 3v64q-48 -67 -128 -67q-83 0 -134 59.5t-51 155.5q0 106 61 180.5t147 74.5q54 0 105 -43v156q0 31 -9 41t-37 10q-14 0 -22 -1v16q91 24 147 44l5 -2v-567q0 -35 8.5 -46t35.5 -11q5 0 23 1v-16zM251 42q38 0 63.5 21.5t25.5 38.5v230q0 40 -31 70t-71 30
q-57 0 -91 -51t-34 -136q0 -92 38 -147.5t100 -55.5zM561 573l-9 -2q-8 -2 -18 -2q-27 0 -43 14t-16 37q0 25 16.5 41t42.5 16q34 0 57 -25.5t23 -63.5q0 -45 -31 -87t-81 -67l-9 19q82 56 82 106q0 14 -14 14z" />
    <glyph glyph-name="Dcroat" unicode="&#x110;" horiz-adv-x="722" 
d="M685 334q0 -45 -10 -88t-37 -89t-69 -79.5t-111.5 -55.5t-157.5 -22h-284v19q57 4 72.5 20t15.5 70v206h-83v44h83v194q0 55 -14.5 70t-73.5 20v19h270q91 0 162.5 -20.5t115 -53t72 -77t39 -87.5t10.5 -90zM576 327q0 39 -7 75.5t-28 78.5t-54.5 72.5t-93 51
t-137.5 20.5q-30 0 -40 -8t-10 -31v-227h146v-44h-146v-237q0 -24 11 -32.5t41 -8.5q318 0 318 290z" />
    <glyph glyph-name="dcroat" unicode="&#x111;" horiz-adv-x="500" 
d="M340 527h-121v34h121v12q0 31 -9 41t-37 10q-14 0 -22 -1v16q91 24 147 44l5 -2v-120h76v-34h-76v-413q0 -35 8.5 -46t35.5 -11q5 0 23 1v-16l-147 -52l-4 3v64q-48 -67 -128 -67q-83 0 -134 59.5t-51 155.5q0 106 61 180.5t147 74.5q54 0 105 -43v110zM340 102v230
q0 40 -31 70t-71 30q-57 0 -91 -51t-34 -136q0 -92 38 -147.5t100 -55.5q40 0 64.5 22.5t24.5 37.5z" />
    <glyph glyph-name="Emacron" unicode="&#x112;" horiz-adv-x="611" 
d="M122 790h311v-54h-311v54zM201 80q0 -29 16.5 -36t88.5 -7h27q107 0 153 25.5t83 106.5h28l-45 -169h-540v19q55 4 71 20.5t16 69.5v444q0 53 -16 69.5t-71 20.5v19h531l3 -143h-25q-13 67 -40 86t-112 19h-135q-20 0 -26.5 -6.5t-6.5 -27.5v-222h154q64 0 82.5 19.5
t27.5 75.5h23v-232h-23q-10 62 -29 79t-81 17h-154v-247z" />
    <glyph glyph-name="emacron" unicode="&#x113;" horiz-adv-x="444" 
d="M79 584h311v-54h-311v54zM97 277q2 -63 17 -108.5t39 -68t48.5 -32t51.5 -9.5q48 0 83.5 24t71.5 81l16 -7q-31 -81 -86 -124t-126 -43q-86 0 -136.5 60.5t-50.5 163.5q0 111 58.5 178.5t150.5 67.5q76 0 118 -45.5t53 -137.5h-308zM99 309h204q-10 65 -31 90t-67 25
q-90 0 -106 -115z" />
    <glyph glyph-name="Ebreve" unicode="&#x114;" horiz-adv-x="611" 
d="M404 876h29q-18 -157 -142 -157q-56 0 -96.5 35t-42.5 122h29q11 -50 37.5 -73.5t74.5 -23.5q44 0 67 20t44 77zM201 80q0 -29 16.5 -36t88.5 -7h27q107 0 153 25.5t83 106.5h28l-45 -169h-540v19q55 4 71 20.5t16 69.5v444q0 53 -16 69.5t-71 20.5v19h531l3 -143h-25
q-13 67 -40 86t-112 19h-135q-20 0 -26.5 -6.5t-6.5 -27.5v-222h154q64 0 82.5 19.5t27.5 75.5h23v-232h-23q-10 62 -29 79t-81 17h-154v-247z" />
    <glyph glyph-name="ebreve" unicode="&#x115;" horiz-adv-x="444" 
d="M346 665h29q-18 -157 -142 -157q-56 0 -96.5 35t-42.5 122h29q11 -50 37.5 -73.5t74.5 -23.5q44 0 67 20t44 77zM97 277q2 -63 17 -108.5t39 -68t48.5 -32t51.5 -9.5q48 0 83.5 24t71.5 81l16 -7q-31 -81 -86 -124t-126 -43q-86 0 -136.5 60.5t-50.5 163.5
q0 111 58.5 178.5t150.5 67.5q76 0 118 -45.5t53 -137.5h-308zM99 309h204q-10 65 -31 90t-67 25q-90 0 -106 -115z" />
    <glyph glyph-name="Edotaccent" unicode="&#x116;" horiz-adv-x="611" 
d="M306 835q21 0 36 -15t15 -35t-15 -34.5t-36 -14.5q-20 0 -34 14.5t-14 35.5q0 19 14.5 34t33.5 15zM201 80q0 -29 16.5 -36t88.5 -7h27q107 0 153 25.5t83 106.5h28l-45 -169h-540v19q55 4 71 20.5t16 69.5v444q0 53 -16 69.5t-71 20.5v19h531l3 -143h-25q-13 67 -40 86
t-112 19h-135q-20 0 -26.5 -6.5t-6.5 -27.5v-222h154q64 0 82.5 19.5t27.5 75.5h23v-232h-23q-10 62 -29 79t-81 17h-154v-247z" />
    <glyph glyph-name="edotaccent" unicode="&#x117;" horiz-adv-x="444" 
d="M222 622q21 0 36 -15t15 -35t-15 -34.5t-36 -14.5q-20 0 -34 14.5t-14 35.5q0 19 14.5 34t33.5 15zM97 277q2 -63 17 -108.5t39 -68t48.5 -32t51.5 -9.5q48 0 83.5 24t71.5 81l16 -7q-31 -81 -86 -124t-126 -43q-86 0 -136.5 60.5t-50.5 163.5q0 111 58.5 178.5
t150.5 67.5q76 0 118 -45.5t53 -137.5h-308zM99 309h204q-10 65 -31 90t-67 25q-90 0 -106 -115z" />
    <glyph glyph-name="Eogonek" unicode="&#x118;" horiz-adv-x="611" 
d="M593 -73l20 -16q-53 -76 -112 -76q-31 0 -52 22t-21 54q0 46 54 89h-470v19q55 4 71 20.5t16 69.5v444q0 53 -16 69.5t-71 20.5v19h531l3 -143h-25q-13 67 -40 86t-112 19h-135q-20 0 -26.5 -6.5t-6.5 -27.5v-222h154q64 0 82.5 19.5t27.5 75.5h23v-232h-23
q-10 62 -29 79t-81 17h-154v-247q0 -29 16.5 -36t88.5 -7h27q107 0 153 25.5t83 106.5h28l-45 -169h-24q-44 -35 -44 -69q0 -17 11 -28.5t27 -11.5q28 0 71 36z" />
    <glyph glyph-name="eogonek" unicode="&#x119;" horiz-adv-x="444" 
d="M97 277q2 -63 17 -108.5t39 -68t48.5 -32t51.5 -9.5q48 0 83.5 24t71.5 81l16 -7q-15 -42 -42 -77.5t-50 -55t-40 -44t-17 -50.5q0 -17 10.5 -28t27.5 -11q29 0 72 36l20 -16q-54 -76 -113 -76q-31 0 -52 22t-21 54q0 46 53 88q-30 -9 -59 -9q-87 0 -137.5 60t-50.5 164
q0 111 58.5 178.5t150.5 67.5q76 0 118 -45.5t53 -137.5h-308zM99 309h204q-10 65 -31 90t-67 25q-90 0 -106 -115z" />
    <glyph glyph-name="Ecaron" unicode="&#x11a;" horiz-adv-x="611" 
d="M460 886l-125 -167h-62l-124 167h34l121 -103l122 103h34zM201 80q0 -29 16.5 -36t88.5 -7h27q107 0 153 25.5t83 106.5h28l-45 -169h-540v19q55 4 71 20.5t16 69.5v444q0 53 -16 69.5t-71 20.5v19h531l3 -143h-25q-13 67 -40 86t-112 19h-135q-20 0 -26.5 -6.5
t-6.5 -27.5v-222h154q64 0 82.5 19.5t27.5 75.5h23v-232h-23q-10 62 -29 79t-81 17h-154v-247z" />
    <glyph glyph-name="ecaron" unicode="&#x11b;" horiz-adv-x="444" 
d="M380 675l-125 -167h-62l-124 167h34l121 -103l122 103h34zM97 277q2 -63 17 -108.5t39 -68t48.5 -32t51.5 -9.5q48 0 83.5 24t71.5 81l16 -7q-31 -81 -86 -124t-126 -43q-86 0 -136.5 60.5t-50.5 163.5q0 111 58.5 178.5t150.5 67.5q76 0 118 -45.5t53 -137.5h-308z
M99 309h204q-10 65 -31 90t-67 25q-90 0 -106 -115z" />
    <glyph glyph-name="Gcircumflex" unicode="&#x11c;" horiz-adv-x="722" 
d="M536 718h-34l-122 103l-121 -103h-34l124 167h62zM392 636q-57 0 -101 -20.5t-71 -52.5t-44 -75t-23.5 -82.5t-6.5 -79.5q0 -139 70.5 -219.5t192.5 -80.5q54 0 93.5 17.5t39.5 41.5v162q0 56 -15.5 70.5t-72.5 18.5v18h255v-18q-44 -4 -57 -18.5t-13 -58.5v-203
q-30 -26 -108.5 -48t-142.5 -22q-45 0 -90 9t-94 33t-86 60.5t-61.5 97.5t-24.5 139q0 153 96.5 252t246.5 99q58 0 114.5 -16.5t65.5 -16.5q16 0 28 9.5t17 23.5h22l8 -211h-23q-32 78 -80 124.5t-135 46.5z" />
    <glyph glyph-name="gcircumflex" unicode="&#x11d;" horiz-adv-x="500" 
d="M394 507h-34l-122 103l-121 -103h-34l124 167h62zM73 54q0 19 13.5 35t75.5 74q-50 25 -71.5 56t-21.5 78q0 68 48.5 115.5t118.5 47.5q39 0 83.5 -16.5t73.5 -16.5h77v-39h-83q19 -43 19 -84q0 -69 -46.5 -112t-109.5 -43q-12 0 -57 5q-20 -6 -40 -27t-20 -36
q0 -24 78 -27l129 -6q55 -2 88 -31t33 -76q0 -72 -82.5 -120.5t-177.5 -48.5q-71 0 -122 28.5t-51 68.5q0 28 22.5 55.5t75.5 66.5q-31 15 -42 26t-11 27zM147 -2q-31 -37 -40 -53t-9 -33q0 -33 40 -53t106 -20q85 0 137 27t52 70q0 27 -28 38t-96 11q-101 0 -162 13z
M329 265q0 17 -4 41t-14 54.5t-32 51t-53 20.5q-35 0 -54.5 -25t-19.5 -69q0 -86 32 -125t70 -39q35 0 55 24.5t20 66.5z" />
    <glyph glyph-name="Gbreve" unicode="&#x11e;" horiz-adv-x="722" 
d="M473 875h29q-18 -157 -142 -157q-56 0 -96.5 35t-42.5 122h29q11 -50 37.5 -73.5t74.5 -23.5q44 0 67 20t44 77zM392 636q-57 0 -101 -20.5t-71 -52.5t-44 -75t-23.5 -82.5t-6.5 -79.5q0 -139 70.5 -219.5t192.5 -80.5q54 0 93.5 17.5t39.5 41.5v162q0 56 -15.5 70.5
t-72.5 18.5v18h255v-18q-44 -4 -57 -18.5t-13 -58.5v-203q-30 -26 -108.5 -48t-142.5 -22q-45 0 -90 9t-94 33t-86 60.5t-61.5 97.5t-24.5 139q0 153 96.5 252t246.5 99q58 0 114.5 -16.5t65.5 -16.5q16 0 28 9.5t17 23.5h22l8 -211h-23q-32 78 -80 124.5t-135 46.5z" />
    <glyph glyph-name="gbreve" unicode="&#x11f;" horiz-adv-x="500" 
d="M362 665h29q-18 -157 -142 -157q-56 0 -96.5 35t-42.5 122h29q11 -50 37.5 -73.5t74.5 -23.5q44 0 67 20t44 77zM73 54q0 19 13.5 35t75.5 74q-50 25 -71.5 56t-21.5 78q0 68 48.5 115.5t118.5 47.5q39 0 83.5 -16.5t73.5 -16.5h77v-39h-83q19 -43 19 -84
q0 -69 -46.5 -112t-109.5 -43q-12 0 -57 5q-20 -6 -40 -27t-20 -36q0 -24 78 -27l129 -6q55 -2 88 -31t33 -76q0 -72 -82.5 -120.5t-177.5 -48.5q-71 0 -122 28.5t-51 68.5q0 28 22.5 55.5t75.5 66.5q-31 15 -42 26t-11 27zM147 -2q-31 -37 -40 -53t-9 -33q0 -33 40 -53
t106 -20q85 0 137 27t52 70q0 27 -28 38t-96 11q-101 0 -162 13zM329 265q0 17 -4 41t-14 54.5t-32 51t-53 20.5q-35 0 -54.5 -25t-19.5 -69q0 -86 32 -125t70 -39q35 0 55 24.5t20 66.5z" />
    <glyph glyph-name="Gdotaccent" unicode="&#x120;" horiz-adv-x="722" 
d="M367 835q21 0 36 -15t15 -35t-15 -34.5t-36 -14.5q-20 0 -34 14.5t-14 35.5q0 19 14.5 34t33.5 15zM392 636q-57 0 -101 -20.5t-71 -52.5t-44 -75t-23.5 -82.5t-6.5 -79.5q0 -139 70.5 -219.5t192.5 -80.5q54 0 93.5 17.5t39.5 41.5v162q0 56 -15.5 70.5t-72.5 18.5v18
h255v-18q-44 -4 -57 -18.5t-13 -58.5v-203q-30 -26 -108.5 -48t-142.5 -22q-45 0 -90 9t-94 33t-86 60.5t-61.5 97.5t-24.5 139q0 153 96.5 252t246.5 99q58 0 114.5 -16.5t65.5 -16.5q16 0 28 9.5t17 23.5h22l8 -211h-23q-32 78 -80 124.5t-135 46.5z" />
    <glyph glyph-name="gdotaccent" unicode="&#x121;" horiz-adv-x="500" 
d="M234 619q21 0 36 -15t15 -35t-15 -34.5t-36 -14.5q-20 0 -34 14.5t-14 35.5q0 19 14.5 34t33.5 15zM73 54q0 19 13.5 35t75.5 74q-50 25 -71.5 56t-21.5 78q0 68 48.5 115.5t118.5 47.5q39 0 83.5 -16.5t73.5 -16.5h77v-39h-83q19 -43 19 -84q0 -69 -46.5 -112
t-109.5 -43q-12 0 -57 5q-20 -6 -40 -27t-20 -36q0 -24 78 -27l129 -6q55 -2 88 -31t33 -76q0 -72 -82.5 -120.5t-177.5 -48.5q-71 0 -122 28.5t-51 68.5q0 28 22.5 55.5t75.5 66.5q-31 15 -42 26t-11 27zM147 -2q-31 -37 -40 -53t-9 -33q0 -33 40 -53t106 -20q85 0 137 27
t52 70q0 27 -28 38t-96 11q-101 0 -162 13zM329 265q0 17 -4 41t-14 54.5t-32 51t-53 20.5q-35 0 -54.5 -25t-19.5 -69q0 -86 32 -125t70 -39q35 0 55 24.5t20 66.5z" />
    <glyph glyph-name="Gcommaaccent" unicode="&#x122;" horiz-adv-x="722" 
d="M375 -161l-8 -2q-9 -2 -19 -2q-27 0 -43 13.5t-16 37.5q0 25 16.5 41t42.5 16q34 0 57 -25.5t23 -63.5q0 -45 -31 -87t-81 -67l-9 19q82 56 82 106q0 14 -14 14zM392 636q-57 0 -101 -20.5t-71 -52.5t-44 -75t-23.5 -82.5t-6.5 -79.5q0 -139 70.5 -219.5t192.5 -80.5
q54 0 93.5 17.5t39.5 41.5v162q0 56 -15.5 70.5t-72.5 18.5v18h255v-18q-44 -4 -57 -18.5t-13 -58.5v-203q-30 -26 -108.5 -48t-142.5 -22q-45 0 -90 9t-94 33t-86 60.5t-61.5 97.5t-24.5 139q0 153 96.5 252t246.5 99q58 0 114.5 -16.5t65.5 -16.5q16 0 28 9.5t17 23.5h22
l8 -211h-23q-32 78 -80 124.5t-135 46.5z" />
    <glyph glyph-name="gcommaaccent" unicode="&#x123;" horiz-adv-x="500" 
d="M238 611l9 2q8 2 18 2q27 0 43 -14t16 -37q0 -25 -16.5 -41t-42.5 -16q-34 0 -57 25.5t-23 63.5q0 45 31 87t81 67l9 -19q-82 -56 -82 -106q0 -14 14 -14zM73 54q0 19 13.5 35t75.5 74q-50 25 -71.5 56t-21.5 78q0 68 48.5 115.5t118.5 47.5q39 0 83.5 -16.5t73.5 -16.5
h77v-39h-83q19 -43 19 -84q0 -69 -46.5 -112t-109.5 -43q-12 0 -57 5q-20 -6 -40 -27t-20 -36q0 -24 78 -27l129 -6q55 -2 88 -31t33 -76q0 -72 -82.5 -120.5t-177.5 -48.5q-71 0 -122 28.5t-51 68.5q0 28 22.5 55.5t75.5 66.5q-31 15 -42 26t-11 27zM147 -2
q-31 -37 -40 -53t-9 -33q0 -33 40 -53t106 -20q85 0 137 27t52 70q0 27 -28 38t-96 11q-101 0 -162 13zM329 265q0 17 -4 41t-14 54.5t-32 51t-53 20.5q-35 0 -54.5 -25t-19.5 -69q0 -86 32 -125t70 -39q35 0 55 24.5t20 66.5z" />
    <glyph glyph-name="Hcircumflex" unicode="&#x124;" horiz-adv-x="722" 
d="M516 733h-34l-122 103l-121 -103h-34l124 167h62zM209 359h303v194q0 54 -15 69.5t-73 20.5v19h278v-19q-58 -5 -73 -20.5t-15 -69.5v-444q0 -53 16 -69t72 -21v-19h-278v19q58 4 73 21t15 80v195h-303v-206q0 -53 16 -69t72 -21v-19h-278v19q58 4 73 21t15 80v433
q0 54 -15 69.5t-73 20.5v19h278v-19q-58 -5 -73 -20.5t-15 -69.5v-194z" />
    <glyph glyph-name="hcircumflex" unicode="&#x125;" horiz-adv-x="500" 
d="M404 723h-34l-122 103l-121 -103h-34l124 167h62zM157 343v-241q0 -52 12 -67t56 -20v-15h-216v15q43 6 53.5 20t10.5 67v471q0 32 -8.5 42t-37.5 10q-7 0 -17 -2v16q71 19 142 44l5 -3v-304q35 45 69 64.5t78 19.5q123 0 123 -159v-199q0 -52 9.5 -65.5t50.5 -21.5v-15
h-212v15q43 4 55.5 20t12.5 67v198q0 106 -75 106q-29 0 -54.5 -14.5t-56.5 -48.5z" />
    <glyph glyph-name="Hbar" unicode="&#x126;" horiz-adv-x="722" 
d="M209 513v-154h303v154h-303zM107 513h-87v39h87q0 54 -15 70t-73 21v19h278v-19q-58 -5 -73 -21t-15 -70h303q0 54 -15 70t-73 21v19h278v-19q-58 -5 -73 -21t-15 -70h87v-39h-87v-404q0 -53 16 -69t72 -21v-19h-278v19q58 4 73 21t15 80v195h-303v-206q0 -53 16 -69
t72 -21v-19h-278v19q58 4 73 21t15 80v393z" />
    <glyph glyph-name="hbar" unicode="&#x127;" horiz-adv-x="500" 
d="M343 300q0 106 -75 106q-29 0 -54.5 -14.5t-56.5 -48.5v-241q0 -52 12 -67t56 -20v-15h-216v15q43 6 53.5 20t10.5 67v430h-64v39h64v2q0 32 -9.5 41.5t-41.5 9.5q-6 0 -12 -1v16q108 32 142 44l5 -3v-109h212v-39h-212v-156q35 45 69 64.5t78 19.5q123 0 123 -159v-199
q0 -52 9.5 -65.5t50.5 -21.5v-15h-212v15q43 4 55.5 20t12.5 67v198z" />
    <glyph glyph-name="Itilde" unicode="&#x128;" horiz-adv-x="333" 
d="M302 830h29q-16 -57 -40 -81.5t-65 -24.5q-32 0 -81 24l-23 11q-24 11 -41 11q-35 0 -51 -46h-29q11 49 37 75t64 26q36 0 70 -18l24 -12q32 -15 53 -15q17 0 28.5 11t24.5 39zM115 109v444q0 55 -16.5 70.5t-80.5 19.5v19h297v-19q-63 -3 -80.5 -19t-17.5 -71v-444
q0 -55 18 -71.5t80 -18.5v-19h-297v19q63 2 80 18t17 72z" />
    <glyph glyph-name="itilde" unicode="&#x129;" horiz-adv-x="278" 
d="M273 614h29q-16 -57 -40 -81.5t-65 -24.5q-32 0 -81 24l-23 11q-24 11 -41 11q-35 0 -51 -46h-29q11 49 37 75t64 26q36 0 70 -18l24 -12q32 -15 53 -15q17 0 28.5 11t24.5 39zM62 394q-12 0 -42 -4v15l155 55l4 -3v-355q0 -54 12.5 -68.5t61.5 -18.5v-15h-237v15
q52 3 65.5 18t13.5 69v232q0 33 -7.5 46.5t-25.5 13.5z" />
    <glyph glyph-name="Imacron" unicode="&#x12a;" horiz-adv-x="333" 
d="M11 790h311v-54h-311v54zM115 109v444q0 55 -16.5 70.5t-80.5 19.5v19h297v-19q-63 -3 -80.5 -19t-17.5 -71v-444q0 -55 18 -71.5t80 -18.5v-19h-297v19q63 2 80 18t17 72z" />
    <glyph glyph-name="imacron" unicode="&#x12b;" horiz-adv-x="278" 
d="M-19 584h311v-54h-311v54zM62 394q-12 0 -42 -4v15l155 55l4 -3v-355q0 -54 12.5 -68.5t61.5 -18.5v-15h-237v15q52 3 65.5 18t13.5 69v232q0 33 -7.5 46.5t-25.5 13.5z" />
    <glyph glyph-name="Ibreve" unicode="&#x12c;" horiz-adv-x="333" 
d="M278 893h29q-18 -157 -142 -157q-56 0 -96.5 35t-42.5 122h29q11 -50 37.5 -73.5t74.5 -23.5q44 0 67 20t44 77zM115 109v444q0 55 -16.5 70.5t-80.5 19.5v19h297v-19q-63 -3 -80.5 -19t-17.5 -71v-444q0 -55 18 -71.5t80 -18.5v-19h-297v19q63 2 80 18t17 72z" />
    <glyph glyph-name="ibreve" unicode="&#x12d;" horiz-adv-x="278" 
d="M248 663h29q-18 -157 -142 -157q-56 0 -96.5 35t-42.5 122h29q11 -50 37.5 -73.5t74.5 -23.5q44 0 67 20t44 77zM62 394q-12 0 -42 -4v15l155 55l4 -3v-355q0 -54 12.5 -68.5t61.5 -18.5v-15h-237v15q52 3 65.5 18t13.5 69v232q0 33 -7.5 46.5t-25.5 13.5z" />
    <glyph glyph-name="Iogonek" unicode="&#x12e;" horiz-adv-x="333" 
d="M315 0q-11 -2 -29 -25t-18 -45q0 -17 11 -28t27 -11q28 0 71 36l20 -16q-53 -76 -112 -76q-31 0 -52 22t-21 54q0 46 54 89h-248v19q63 2 80 18t17 72v444q0 55 -16.5 70.5t-80.5 19.5v19h297v-19q-63 -3 -80.5 -19t-17.5 -71v-444q0 -55 18 -71.5t80 -18.5v-19z" />
    <glyph glyph-name="iogonek" unicode="&#x12f;" horiz-adv-x="278" 
d="M62 394q-12 0 -42 -4v15l155 55l4 -3v-355q0 -54 12.5 -68.5t61.5 -18.5v-15h-33q-28 0 -49.5 -21t-21.5 -49q0 -17 11 -28t27 -11q28 0 71 36l20 -16q-53 -76 -112 -76q-31 0 -52 22t-21 54q0 46 54 89h-131v15q52 3 65.5 18t13.5 69v232q0 33 -7.5 46.5t-25.5 13.5z
M128 683q22 0 37 -15t15 -36q0 -22 -15 -36.5t-37 -14.5q-21 0 -35.5 15t-14.5 36t15 36t35 15z" />
    <glyph glyph-name="Idotaccent" unicode="&#x130;" horiz-adv-x="333" 
d="M165 835q21 0 36 -15t15 -35t-15 -34.5t-36 -14.5q-20 0 -34 14.5t-14 35.5q0 19 14.5 34t33.5 15zM115 109v444q0 55 -16.5 70.5t-80.5 19.5v19h297v-19q-63 -3 -80.5 -19t-17.5 -71v-444q0 -55 18 -71.5t80 -18.5v-19h-297v19q63 2 80 18t17 72z" />
    <glyph glyph-name="dotlessi" unicode="&#x131;" horiz-adv-x="278" 
d="M62 394q-12 0 -42 -4v15l155 55l4 -3v-355q0 -54 12.5 -68.5t61.5 -18.5v-15h-237v15q52 3 65.5 18t13.5 69v232q0 33 -7.5 46.5t-25.5 13.5z" />
    <glyph glyph-name="Jcircumflex" unicode="&#x134;" horiz-adv-x="389" 
d="M382 733h-34l-122 103l-121 -103h-34l124 167h62zM59 108q21 0 33 -13t16 -29t11 -29t19 -13q38 0 38 66v463q0 55 -16 70.5t-77 19.5v19h287v-19q-61 -4 -76.5 -19.5t-15.5 -70.5v-370q0 -94 -44 -145.5t-125 -51.5q-43 0 -71 20t-28 52q0 20 14.5 35t34.5 15z" />
    <glyph glyph-name="jcircumflex" unicode="&#x135;" horiz-adv-x="278" 
d="M77 394l-45 -4v16q80 25 156 54l5 -3v-457q0 -106 -43 -162t-126 -56q-41 0 -67.5 15.5t-26.5 39.5q0 16 12 27.5t29 11.5q21 0 46 -30t44 -30q30 0 39 31t9 108v379q0 60 -32 60zM306 520h-34l-122 103l-121 -103h-34l124 167h62z" />
    <glyph glyph-name="Kcommaaccent" unicode="&#x136;" horiz-adv-x="722" 
d="M375 -161l-8 -2q-9 -2 -19 -2q-27 0 -43 13.5t-16 37.5q0 25 16.5 41t42.5 16q34 0 57 -25.5t23 -63.5q0 -45 -31 -87t-81 -67l-9 19q82 56 82 106q0 14 -14 14zM413 643v19h262v-19q-52 -4 -77.5 -16.5t-74.5 -61.5l-190 -188l233 -250q68 -73 93 -90t64 -18v-19h-305
v19q3 0 12 0.5t14 1t12.5 1.5t12.5 2.5t9.5 4t7 6t2.5 7.5q0 18 -36.5 66t-93.5 104l-106 105l-26 -21v-187q0 -55 16 -70.5t74 -19.5v-19h-282v19q59 4 74.5 21.5t15.5 79.5v433q0 53 -16 69.5t-74 20.5v19h284v-19q-61 -4 -76.5 -19.5t-15.5 -70.5v-205l177 161
q78 72 78 103q0 15 -9.5 21.5t-32.5 8.5q-14 0 -26 1z" />
    <glyph glyph-name="kcommaaccent" unicode="&#x137;" horiz-adv-x="500" 
d="M251 -161l-8 -2q-9 -2 -19 -2q-27 0 -43 13.5t-16 37.5q0 25 16.5 41t42.5 16q34 0 57 -25.5t23 -63.5q0 -45 -31 -87t-81 -67l-9 19q82 56 82 106q0 14 -14 14zM7 623v16q85 21 155 44l4 -2v-420l137 122q23 20 23 34q0 10 -10.5 14t-39.5 5v14h204v-15
q-23 0 -36.5 -2.5t-38.5 -13.5t-58.5 -38t-82.5 -72l-29 -27l153 -194q31 -38 57.5 -54.5t59.5 -18.5v-15h-218v15q40 0 40 15q0 4 -3 9.5t-9.5 13t-8.5 11.5l-140 187v-171q0 -36 11.5 -46t63.5 -19v-15h-234v15q54 9 64.5 18.5t10.5 48.5v482q0 36 -9 48.5t-34 12.5
q-14 0 -32 -2z" />
    <glyph glyph-name="kgreenlandic" unicode="&#x138;" horiz-adv-x="500" 
d="M467 408q0 -16 -12.5 -26t-31.5 -10q-16 0 -36.5 11t-32.5 11q-6 0 -13.5 -21.5t-15 -48t-26 -51t-43.5 -29.5q34 -10 59 -38.5t52 -77.5t45 -72q20 -27 32 -33t46 -8v-15h-138l-125 200q-14 24 -48 24h-13v-143q0 -38 12 -49t63 -17v-15h-234v15q54 9 64.5 18.5
t10.5 48.5v286q0 39 -10.5 48.5t-64.5 18.5v15h234v-15q-53 -8 -64 -17.5t-11 -46.5v-119h29q29 0 62.5 36t40.5 64q17 70 37.5 89t68.5 19q27 0 45 -14.5t18 -37.5z" />
    <glyph glyph-name="Lacute" unicode="&#x139;" horiz-adv-x="611" 
d="M170 729h-40l147 148q23 23 42 23q35 0 35 -32q0 -23 -30 -42zM354 39q26 0 48.5 3t39.5 6.5t33 11.5l26 13t20.5 16.5t16 16.5t12.5 18.5t9 17.5t8 17.5t6 14.5h25l-48 -174h-538v19q55 4 71 20.5t16 69.5v444q0 53 -16 69.5t-71 20.5v19h282v-19q-59 -4 -76 -20.5
t-17 -69.5v-473q0 -26 15.5 -33.5t70.5 -7.5h67z" />
    <glyph glyph-name="lacute" unicode="&#x13a;" horiz-adv-x="278" 
d="M110 723h-40l147 148q23 23 42 23q35 0 35 -32q0 -23 -30 -42zM19 623v16q99 24 159 44l4 -2v-597q0 -41 13.5 -53.5t61.5 -15.5v-15h-236v15q47 4 62 18t15 54v477q0 35 -9 48t-33 13q-20 0 -37 -2z" />
    <glyph glyph-name="Lcommaaccent" unicode="&#x13b;" horiz-adv-x="611" 
d="M276 -161l-8 -2q-9 -2 -19 -2q-27 0 -43 13.5t-16 37.5q0 25 16.5 41t42.5 16q34 0 57 -25.5t23 -63.5q0 -45 -31 -87t-81 -67l-9 19q82 56 82 106q0 14 -14 14zM354 39q26 0 48.5 3t39.5 6.5t33 11.5l26 13t20.5 16.5t16 16.5t12.5 18.5t9 17.5t8 17.5t6 14.5h25
l-48 -174h-538v19q55 4 71 20.5t16 69.5v444q0 53 -16 69.5t-71 20.5v19h282v-19q-59 -4 -76 -20.5t-17 -69.5v-473q0 -26 15.5 -33.5t70.5 -7.5h67z" />
    <glyph glyph-name="lcommaaccent" unicode="&#x13c;" horiz-adv-x="278" 
d="M163 -161l-8 -2q-9 -2 -19 -2q-27 0 -43 13.5t-16 37.5q0 25 16.5 41t42.5 16q34 0 57 -25.5t23 -63.5q0 -45 -31 -87t-81 -67l-9 19q82 56 82 106q0 14 -14 14zM19 623v16q99 24 159 44l4 -2v-597q0 -41 13.5 -53.5t61.5 -15.5v-15h-236v15q47 4 62 18t15 54v477
q0 35 -9 48t-33 13q-20 0 -37 -2z" />
    <glyph glyph-name="Lcaron" unicode="&#x13d;" horiz-adv-x="611" 
d="M354 39q26 0 48.5 3t39.5 6.5t33 11.5l26 13t20.5 16.5t16 16.5t12.5 18.5t9 17.5t8 17.5t6 14.5h25l-48 -174h-538v19q55 4 71 20.5t16 69.5v444q0 53 -16 69.5t-71 20.5v19h282v-19q-59 -4 -76 -20.5t-17 -69.5v-473q0 -26 15.5 -33.5t70.5 -7.5h67zM452 572l-9 -2
q-8 -2 -18 -2q-27 0 -43 14t-16 37q0 25 16.5 41t42.5 16q34 0 57 -25.5t23 -63.5q0 -45 -31 -87t-81 -67l-9 19q82 56 82 106q0 14 -14 14z" />
    <glyph glyph-name="lcaron" unicode="&#x13e;" horiz-adv-x="396" 
d="M19 623v16q99 24 159 44l4 -2v-597q0 -41 13.5 -53.5t61.5 -15.5v-15h-236v15q47 4 62 18t15 54v477q0 35 -9 48t-33 13q-20 0 -37 -2zM327 572l-9 -2q-8 -2 -18 -2q-27 0 -43 14t-16 37q0 25 16.5 41t42.5 16q34 0 57 -25.5t23 -63.5q0 -45 -31 -87t-81 -67l-9 19
q82 56 82 106q0 14 -14 14z" />
    <glyph glyph-name="Ldot" unicode="&#x13f;" horiz-adv-x="611" 
d="M438 353q21 0 36 -15t15 -35t-15 -34.5t-36 -14.5q-20 0 -34 14.5t-14 35.5q0 19 14.5 34t33.5 15zM354 39q26 0 48.5 3t39.5 6.5t33 11.5l26 13t20.5 16.5t16 16.5t12.5 18.5t9 17.5t8 17.5t6 14.5h25l-48 -174h-538v19q55 4 71 20.5t16 69.5v444q0 53 -16 69.5
t-71 20.5v19h282v-19q-59 -4 -76 -20.5t-17 -69.5v-473q0 -26 15.5 -33.5t70.5 -7.5h67z" />
    <glyph glyph-name="ldot" unicode="&#x140;" horiz-adv-x="444" 
d="M332 353q21 0 36 -15t15 -35t-15 -34.5t-36 -14.5q-20 0 -34 14.5t-14 35.5q0 19 14.5 34t33.5 15zM19 623v16q99 24 159 44l4 -2v-597q0 -41 13.5 -53.5t61.5 -15.5v-15h-236v15q47 4 62 18t15 54v477q0 35 -9 48t-33 13q-20 0 -37 -2z" />
    <glyph glyph-name="Lslash" unicode="&#x141;" horiz-adv-x="611" 
d="M354 39q26 0 48.5 3t39.5 6.5t33 11.5l26 13t20.5 16.5t16 16.5t12.5 18.5t9 17.5t8 17.5t6 14.5h25l-48 -174h-538v19q55 4 71 20.5t16 69.5v167l-87 -50v49l87 50v228q0 53 -16 69.5t-71 20.5v19h282v-19q-59 -4 -76 -20.5t-17 -69.5v-169l155 89v-49l-155 -89v-255
q0 -26 15.5 -33.5t70.5 -7.5h67z" />
    <glyph glyph-name="lslash" unicode="&#x142;" horiz-adv-x="278" 
d="M98 362v202q0 35 -9 48t-33 13q-19 0 -37 -2v16q99 24 159 44l4 -2v-262l77 53v-44l-77 -53v-291q0 -41 13.5 -53.5t61.5 -15.5v-15h-236v15q47 4 62 18t15 54v231l-78 -54v44z" />
    <glyph glyph-name="Nacute" unicode="&#x143;" horiz-adv-x="722" 
d="M329 721h-40l147 148q23 23 42 23q35 0 35 -32q0 -23 -30 -42zM707 643q-28 -3 -41.5 -6.5t-28 -15.5t-20 -37.5t-5.5 -68.5v-526h-17l-442 550v-392q0 -76 18 -100.5t76 -27.5v-19h-235v19q62 4 79.5 27.5t17.5 100.5v441q-30 35 -47.5 45t-49.5 10v19h171l385 -484v337
q0 76 -18.5 99.5t-77.5 28.5v19h235v-19z" />
    <glyph glyph-name="nacute" unicode="&#x144;" horiz-adv-x="500" 
d="M217 508h-40l147 148q23 23 42 23q35 0 35 -32q0 -23 -30 -42zM16 398v17q74 22 138 45l7 -2v-79q51 48 80.5 64.5t64.5 16.5q55 0 86.5 -39.5t31.5 -110.5v-229q0 -37 12 -49.5t49 -16.5v-15h-208v15q38 3 50.5 20t12.5 64v209q0 97 -73 97q-25 0 -46 -11.5t-57 -45.5
v-281q0 -27 14 -38t52 -14v-15h-212v15q38 3 50 17.5t12 57.5v248q0 37 -8 50.5t-29 13.5q-19 0 -27 -4z" />
    <glyph glyph-name="Ncommaaccent" unicode="&#x145;" horiz-adv-x="722" 
d="M365 -161l-8 -2q-9 -2 -19 -2q-27 0 -43 13.5t-16 37.5q0 25 16.5 41t42.5 16q34 0 57 -25.5t23 -63.5q0 -45 -31 -87t-81 -67l-9 19q82 56 82 106q0 14 -14 14zM707 643q-28 -3 -41.5 -6.5t-28 -15.5t-20 -37.5t-5.5 -68.5v-526h-17l-442 550v-392q0 -76 18 -100.5
t76 -27.5v-19h-235v19q62 4 79.5 27.5t17.5 100.5v441q-30 35 -47.5 45t-49.5 10v19h171l385 -484v337q0 76 -18.5 99.5t-77.5 28.5v19h235v-19z" />
    <glyph glyph-name="ncommaaccent" unicode="&#x146;" horiz-adv-x="500" 
d="M249 -161l-8 -2q-9 -2 -19 -2q-27 0 -43 13.5t-16 37.5q0 25 16.5 41t42.5 16q34 0 57 -25.5t23 -63.5q0 -45 -31 -87t-81 -67l-9 19q82 56 82 106q0 14 -14 14zM16 398v17q74 22 138 45l7 -2v-79q51 48 80.5 64.5t64.5 16.5q55 0 86.5 -39.5t31.5 -110.5v-229
q0 -37 12 -49.5t49 -16.5v-15h-208v15q38 3 50.5 20t12.5 64v209q0 97 -73 97q-25 0 -46 -11.5t-57 -45.5v-281q0 -27 14 -38t52 -14v-15h-212v15q38 3 50 17.5t12 57.5v248q0 37 -8 50.5t-29 13.5q-19 0 -27 -4z" />
    <glyph glyph-name="Ncaron" unicode="&#x147;" horiz-adv-x="722" 
d="M516 884l-125 -167h-62l-124 167h34l121 -103l122 103h34zM707 643q-28 -3 -41.5 -6.5t-28 -15.5t-20 -37.5t-5.5 -68.5v-526h-17l-442 550v-392q0 -76 18 -100.5t76 -27.5v-19h-235v19q62 4 79.5 27.5t17.5 100.5v441q-30 35 -47.5 45t-49.5 10v19h171l385 -484v337
q0 76 -18.5 99.5t-77.5 28.5v19h235v-19z" />
    <glyph glyph-name="ncaron" unicode="&#x148;" horiz-adv-x="500" 
d="M406 675l-125 -167h-62l-124 167h34l121 -103l122 103h34zM16 398v17q74 22 138 45l7 -2v-79q51 48 80.5 64.5t64.5 16.5q55 0 86.5 -39.5t31.5 -110.5v-229q0 -37 12 -49.5t49 -16.5v-15h-208v15q38 3 50.5 20t12.5 64v209q0 97 -73 97q-25 0 -46 -11.5t-57 -45.5v-281
q0 -27 14 -38t52 -14v-15h-212v15q38 3 50 17.5t12 57.5v248q0 37 -8 50.5t-29 13.5q-19 0 -27 -4z" />
    <glyph glyph-name="napostrophe" unicode="&#x149;" horiz-adv-x="556" 
d="M65 398v17q74 22 138 45l7 -2v-79q51 48 80.5 64.5t64.5 16.5q55 0 86.5 -39.5t31.5 -110.5v-229q0 -37 12 -49.5t49 -16.5v-15h-208v15q38 3 50.5 20t12.5 64v209q0 97 -73 97q-25 0 -46 -11.5t-57 -45.5v-281q0 -27 14 -38t52 -14v-15h-212v15q38 3 50 17.5t12 57.5
v248q0 37 -8 50.5t-29 13.5q-19 0 -27 -4zM86 575l-9 -2q-8 -2 -18 -2q-27 0 -43 14t-16 37q0 25 16.5 41t42.5 16q34 0 57 -25.5t23 -63.5q0 -45 -31 -87t-81 -67l-9 19q82 56 82 106q0 14 -14 14z" />
    <glyph glyph-name="Eng" unicode="&#x14a;" horiz-adv-x="721" 
d="M574 277q0 89 -10 152.5t-24 97t-37 52.5t-41 23t-44 4q-113 0 -192 -138v-370q0 -41 18 -58t73 -21v-19h-276v19q54 4 68.5 25.5t14.5 86.5v362q0 52 -14.5 73t-46.5 21q-27 0 -40 -6v25q54 15 189 66l10 -3v-156q103 159 235 159q36 0 64.5 -7t58.5 -29.5t49.5 -60.5
t32 -104.5t12.5 -156.5q0 -161 -59 -244.5t-164 -83.5q-43 0 -71 20t-28 52q0 20 14.5 35t34.5 15q21 0 33 -13t16 -29t11 -29t19 -13q11 0 21.5 4t24.5 19.5t24 41t17 74.5t7 114z" />
    <glyph glyph-name="eng" unicode="&#x14b;" horiz-adv-x="500" 
d="M292 -184q30 0 39 31t9 108v353q0 97 -73 97q-25 0 -46 -11.5t-57 -45.5v-281q0 -27 14 -38t52 -14v-15h-212v15q38 3 50 17.5t12 57.5v248q0 37 -8 50.5t-29 13.5q-19 0 -27 -4v17q74 22 138 45l7 -2v-79q51 48 80.5 64.5t64.5 16.5q55 0 86.5 -39.5t31.5 -110.5v-310
q0 -106 -43 -162t-126 -56q-41 0 -67.5 15.5t-26.5 39.5q0 16 12 27.5t29 11.5q21 0 46 -30t44 -30z" />
    <glyph glyph-name="Omacron" unicode="&#x14c;" horiz-adv-x="722" 
d="M205 790h311v-54h-311v54zM355 -14q-135 0 -228 95.5t-93 249.5q0 151 92 248t235 97q144 0 235.5 -96.5t91.5 -252.5q0 -151 -92.5 -246t-240.5 -95zM574 328q0 72 -14 128t-35.5 90t-50.5 56t-56.5 30t-56.5 8q-49 0 -88 -21t-61.5 -52.5t-37.5 -74.5t-20.5 -82.5
t-5.5 -80.5q0 -51 10 -100t32 -98t65.5 -79t103.5 -30q61 0 105.5 30t67 79t32.5 98t10 99z" />
    <glyph glyph-name="omacron" unicode="&#x14d;" horiz-adv-x="500" 
d="M95 584h311v-54h-311v54zM250 460q96 0 158 -64t62 -162q0 -104 -64 -174t-158 -70t-156.5 67.5t-62.5 168.5q0 103 61.5 168.5t159.5 65.5zM119 275q0 -107 39 -182t102 -75q56 0 88 48t32 133q0 103 -40 168t-103 65q-53 0 -85.5 -43t-32.5 -114z" />
    <glyph glyph-name="Obreve" unicode="&#x14e;" horiz-adv-x="722" 
d="M472 893h29q-18 -157 -142 -157q-56 0 -96.5 35t-42.5 122h29q11 -50 37.5 -73.5t74.5 -23.5q44 0 67 20t44 77zM355 -14q-135 0 -228 95.5t-93 249.5q0 151 92 248t235 97q144 0 235.5 -96.5t91.5 -252.5q0 -151 -92.5 -246t-240.5 -95zM574 328q0 72 -14 128t-35.5 90
t-50.5 56t-56.5 30t-56.5 8q-49 0 -88 -21t-61.5 -52.5t-37.5 -74.5t-20.5 -82.5t-5.5 -80.5q0 -51 10 -100t32 -98t65.5 -79t103.5 -30q61 0 105.5 30t67 79t32.5 98t10 99z" />
    <glyph glyph-name="obreve" unicode="&#x14f;" horiz-adv-x="500" 
d="M362 664h29q-18 -157 -142 -157q-56 0 -96.5 35t-42.5 122h29q11 -50 37.5 -73.5t74.5 -23.5q44 0 67 20t44 77zM250 460q96 0 158 -64t62 -162q0 -104 -64 -174t-158 -70t-156.5 67.5t-62.5 168.5q0 103 61.5 168.5t159.5 65.5zM119 275q0 -107 39 -182t102 -75
q56 0 88 48t32 133q0 103 -40 168t-103 65q-53 0 -85.5 -43t-32.5 -114z" />
    <glyph glyph-name="Ohungarumlaut" unicode="&#x150;" horiz-adv-x="722" 
d="M428 719h-40l147 148q23 23 42 23q35 0 35 -32q0 -23 -30 -42zM272 719h-40l147 148q23 23 42 23q35 0 35 -32q0 -23 -30 -42zM355 -14q-135 0 -228 95.5t-93 249.5q0 151 92 248t235 97q144 0 235.5 -96.5t91.5 -252.5q0 -151 -92.5 -246t-240.5 -95zM574 328
q0 72 -14 128t-35.5 90t-50.5 56t-56.5 30t-56.5 8q-49 0 -88 -21t-61.5 -52.5t-37.5 -74.5t-20.5 -82.5t-5.5 -80.5q0 -51 10 -100t32 -98t65.5 -79t103.5 -30q61 0 105.5 30t67 79t32.5 98t10 99z" />
    <glyph glyph-name="ohungarumlaut" unicode="&#x151;" horiz-adv-x="500" 
d="M277 509h-40l147 148q23 23 42 23q35 0 35 -32q0 -23 -30 -42zM121 509h-40l147 148q23 23 42 23q35 0 35 -32q0 -23 -30 -42zM250 460q96 0 158 -64t62 -162q0 -104 -64 -174t-158 -70t-156.5 67.5t-62.5 168.5q0 103 61.5 168.5t159.5 65.5zM119 275q0 -107 39 -182
t102 -75q56 0 88 48t32 133q0 103 -40 168t-103 65q-53 0 -85.5 -43t-32.5 -114z" />
    <glyph glyph-name="OE" unicode="&#x152;" horiz-adv-x="889" 
d="M342 668q11 0 69 -3t101 -3h326v-141h-23q-9 67 -39.5 86t-128.5 19h-51q-42 0 -53.5 -4t-11.5 -20v-236h104q70 0 98.5 18.5t33.5 79.5h21v-234h-21q-7 59 -26.5 79t-71.5 20h-138v-245q0 -26 10.5 -35t39.5 -9h130q47 0 79 28t71 100h24l-44 -168h-350q-28 0 -97.5 -3
t-81.5 -3q-127 0 -204.5 89.5t-77.5 238.5q0 79 20 141t51.5 99.5t74 62t83.5 34t83 9.5zM431 131v396q0 55 -23.5 80t-75.5 25q-91 0 -140.5 -80t-49.5 -227q0 -142 48.5 -218t140.5 -76q53 0 76.5 23.5t23.5 76.5z" />
    <glyph glyph-name="oe" unicode="&#x153;" horiz-adv-x="709" 
d="M419 277q2 -42 7 -73.5t17.5 -68.5t39 -57.5t65.5 -20.5q36 0 65.5 20t64.5 68l11 -6q-39 -81 -80 -115t-99 -34q-46 0 -75.5 22t-52.5 73q-29 -51 -62.5 -73t-84.5 -22q-91 0 -148.5 64t-57.5 164q0 103 56.5 172.5t145.5 69.5q47 0 81 -17t71 -59q31 42 60 59t70 17
q61 0 108 -40.5t52 -142.5h-254zM228 431q-45 0 -77 -36.5t-32 -123.5q0 -255 120 -255q103 0 103 183q0 112 -29.5 172t-84.5 60zM418 307h160q0 21 -1 34.5t-5 32.5t-12 30t-23.5 19t-37.5 8q-80 0 -81 -124z" />
    <glyph glyph-name="Racute" unicode="&#x154;" horiz-adv-x="667" 
d="M175 729h-40l147 148q23 23 42 23q35 0 35 -32q0 -23 -30 -42zM293 662q43 0 82 -7t80.5 -24.5t66.5 -54.5t25 -90q0 -133 -176 -166q-3 -1 -5 -1l206 -253q21 -25 39.5 -35t47.5 -12v-19h-161l-238 308l-56 -2v-197q0 -54 16 -70t74 -20v-19h-277v19q56 4 70.5 21.5
t14.5 79.5v433q0 53 -14.5 68.5t-70.5 21.5v19h276zM204 343q121 2 177.5 32t56.5 113q0 70 -44.5 103.5t-138.5 33.5q-30 0 -40.5 -7.5t-10.5 -28.5v-246z" />
    <glyph glyph-name="racute" unicode="&#x155;" horiz-adv-x="333" 
d="M133 508h-40l147 148q23 23 42 23q35 0 35 -32q0 -23 -30 -42zM296 362q-15 0 -37 17.5t-29 17.5q-20 0 -45 -29t-25 -53v-225q0 -43 17 -58t68 -17v-15h-240v15q48 9 59.5 20t11.5 49v250q0 33 -7.5 46.5t-26.5 13.5q-16 0 -35 -4v16q80 26 148 54l5 -2v-92
q37 53 63 73.5t57 20.5q26 0 40.5 -14t14.5 -39q0 -21 -10.5 -33t-28.5 -12z" />
    <glyph glyph-name="Rcommaaccent" unicode="&#x156;" horiz-adv-x="667" 
d="M335 -161l-8 -2q-9 -2 -19 -2q-27 0 -43 13.5t-16 37.5q0 25 16.5 41t42.5 16q34 0 57 -25.5t23 -63.5q0 -45 -31 -87t-81 -67l-9 19q82 56 82 106q0 14 -14 14zM293 662q43 0 82 -7t80.5 -24.5t66.5 -54.5t25 -90q0 -133 -176 -166q-3 -1 -5 -1l206 -253
q21 -25 39.5 -35t47.5 -12v-19h-161l-238 308l-56 -2v-197q0 -54 16 -70t74 -20v-19h-277v19q56 4 70.5 21.5t14.5 79.5v433q0 53 -14.5 68.5t-70.5 21.5v19h276zM204 343q121 2 177.5 32t56.5 113q0 70 -44.5 103.5t-138.5 33.5q-30 0 -40.5 -7.5t-10.5 -28.5v-246z" />
    <glyph glyph-name="rcommaaccent" unicode="&#x157;" horiz-adv-x="333" 
d="M123 -161l-8 -2q-9 -2 -19 -2q-27 0 -43 13.5t-16 37.5q0 25 16.5 41t42.5 16q34 0 57 -25.5t23 -63.5q0 -45 -31 -87t-81 -67l-9 19q82 56 82 106q0 14 -14 14zM296 362q-15 0 -37 17.5t-29 17.5q-20 0 -45 -29t-25 -53v-225q0 -43 17 -58t68 -17v-15h-240v15
q48 9 59.5 20t11.5 49v250q0 33 -7.5 46.5t-26.5 13.5q-16 0 -35 -4v16q80 26 148 54l5 -2v-92q37 53 63 73.5t57 20.5q26 0 40.5 -14t14.5 -39q0 -21 -10.5 -33t-28.5 -12z" />
    <glyph glyph-name="Rcaron" unicode="&#x158;" horiz-adv-x="667" 
d="M492 886l-125 -167h-62l-124 167h34l121 -103l122 103h34zM293 662q43 0 82 -7t80.5 -24.5t66.5 -54.5t25 -90q0 -133 -176 -166q-3 -1 -5 -1l206 -253q21 -25 39.5 -35t47.5 -12v-19h-161l-238 308l-56 -2v-197q0 -54 16 -70t74 -20v-19h-277v19q56 4 70.5 21.5
t14.5 79.5v433q0 53 -14.5 68.5t-70.5 21.5v19h276zM204 343q121 2 177.5 32t56.5 113q0 70 -44.5 103.5t-138.5 33.5q-30 0 -40.5 -7.5t-10.5 -28.5v-246z" />
    <glyph glyph-name="rcaron" unicode="&#x159;" horiz-adv-x="333" 
d="M324 674l-125 -167h-62l-124 167h34l121 -103l122 103h34zM296 362q-15 0 -37 17.5t-29 17.5q-20 0 -45 -29t-25 -53v-225q0 -43 17 -58t68 -17v-15h-240v15q48 9 59.5 20t11.5 49v250q0 33 -7.5 46.5t-26.5 13.5q-16 0 -35 -4v16q80 26 148 54l5 -2v-92q37 53 63 73.5
t57 20.5q26 0 40.5 -14t14.5 -39q0 -21 -10.5 -33t-28.5 -12z" />
    <glyph glyph-name="Sacute" unicode="&#x15a;" horiz-adv-x="556" 
d="M245 721h-40l147 148q23 23 42 23q35 0 35 -32q0 -23 -30 -42zM390 135q0 47 -33 83.5t-80 62.5t-93.5 53.5t-79.5 70.5t-33 100q0 76 51.5 123.5t121.5 47.5q42 0 91 -17t59 -17q26 0 32 34h21l22 -213h-25q-24 88 -73.5 130t-109.5 42q-46 0 -75 -26t-29 -67
q0 -40 34 -76t113 -80q99 -53 143 -104.5t44 -113.5q0 -77 -59 -129.5t-145 -52.5q-50 0 -101.5 17t-63.5 17q-11 0 -19 -9.5t-9 -23.5h-22l-30 212h23q37 -91 86 -134t116 -43q55 0 89 31.5t34 81.5z" />
    <glyph glyph-name="sacute" unicode="&#x15b;" horiz-adv-x="389" 
d="M182 509h-40l147 148q23 23 42 23q35 0 35 -32q0 -23 -30 -42zM284 440q1 0 16 10h11l4 -136h-15q-17 67 -42 95t-68 28q-34 0 -55.5 -19t-21.5 -49q0 -43 43 -68l108 -64q45 -27 64.5 -54.5t19.5 -64.5q0 -52 -41.5 -90t-99.5 -38q-25 0 -67 9t-52 9q-15 0 -23 -12h-13
v156h16q16 -70 38 -99q32 -41 89 -41q38 0 60.5 19.5t22.5 52.5q0 45 -52 75l-58 33q-64 36 -90.5 69t-26.5 75q0 54 38.5 88.5t97.5 34.5q33 0 62 -9.5t35 -9.5z" />
    <glyph glyph-name="Scircumflex" unicode="&#x15c;" horiz-adv-x="556" 
d="M435 719h-34l-122 103l-121 -103h-34l124 167h62zM390 135q0 47 -33 83.5t-80 62.5t-93.5 53.5t-79.5 70.5t-33 100q0 76 51.5 123.5t121.5 47.5q42 0 91 -17t59 -17q26 0 32 34h21l22 -213h-25q-24 88 -73.5 130t-109.5 42q-46 0 -75 -26t-29 -67q0 -40 34 -76t113 -80
q99 -53 143 -104.5t44 -113.5q0 -77 -59 -129.5t-145 -52.5q-50 0 -101.5 17t-63.5 17q-11 0 -19 -9.5t-9 -23.5h-22l-30 212h23q37 -91 86 -134t116 -43q55 0 89 31.5t34 81.5z" />
    <glyph glyph-name="scircumflex" unicode="&#x15d;" horiz-adv-x="389" 
d="M348 508h-34l-122 103l-121 -103h-34l124 167h62zM284 440q1 0 16 10h11l4 -136h-15q-17 67 -42 95t-68 28q-34 0 -55.5 -19t-21.5 -49q0 -43 43 -68l108 -64q45 -27 64.5 -54.5t19.5 -64.5q0 -52 -41.5 -90t-99.5 -38q-25 0 -67 9t-52 9q-15 0 -23 -12h-13v156h16
q16 -70 38 -99q32 -41 89 -41q38 0 60.5 19.5t22.5 52.5q0 45 -52 75l-58 33q-64 36 -90.5 69t-26.5 75q0 54 38.5 88.5t97.5 34.5q33 0 62 -9.5t35 -9.5z" />
    <glyph glyph-name="Scedilla" unicode="&#x15e;" horiz-adv-x="556" 
d="M444 463q-24 88 -73.5 130t-109.5 42q-46 0 -75 -26t-29 -67q0 -40 34 -76t113 -80q99 -53 143 -104.5t44 -113.5q0 -77 -58.5 -129.5t-143.5 -52.5h-9l-19 -51q13 3 26 3q40 0 63 -18.5t23 -50.5q0 -39 -33.5 -61.5t-91.5 -22.5q-45 0 -84 16l14 31q36 -12 65 -12
q25 0 40 12t15 32q0 19 -12 27.5t-41 8.5q-17 0 -28 -4l-7 5l36 88q-33 5 -72.5 18t-51.5 13q-11 0 -19 -9.5t-9 -23.5h-22l-30 212h23q37 -91 86 -134t116 -43q55 0 89 31.5t34 81.5q0 47 -33 83.5t-80 62.5t-93.5 53.5t-79.5 70.5t-33 100q0 76 51.5 123.5t121.5 47.5
q42 0 91 -17t59 -17q26 0 32 34h21l22 -213h-25z" />
    <glyph glyph-name="scedilla" unicode="&#x15f;" horiz-adv-x="389" 
d="M284 440q1 0 16 10h11l4 -136h-15q-17 67 -42 95t-68 28q-34 0 -55.5 -19t-21.5 -49q0 -43 43 -68l108 -64q45 -27 64.5 -54.5t19.5 -64.5q0 -52 -41.5 -90t-97.5 -38h-11l-21 -55q15 3 26 3q40 0 63 -18.5t23 -50.5q0 -39 -33.5 -61.5t-91.5 -22.5q-45 0 -84 16l14 31
q37 -12 65 -12q25 0 40 12t15 32q0 19 -12 27.5t-41 8.5q-17 0 -28 -4l-7 5l39 93q-14 2 -30.5 6t-27.5 6t-19 2q-15 0 -23 -12h-13v156h16q16 -70 38 -99q32 -41 89 -41q38 0 60.5 19.5t22.5 52.5q0 45 -52 75l-58 33q-64 36 -90.5 69t-26.5 75q0 54 38.5 88.5t97.5 34.5
q33 0 62 -9.5t35 -9.5z" />
    <glyph glyph-name="Scaron" unicode="&#x160;" horiz-adv-x="556" 
d="M434 887l-125 -167h-62l-124 167h34l121 -103l122 103h34zM390 135q0 47 -33 83.5t-80 62.5t-93.5 53.5t-79.5 70.5t-33 100q0 76 51.5 123.5t121.5 47.5q42 0 91 -17t59 -17q26 0 32 34h21l22 -213h-25q-24 88 -73.5 130t-109.5 42q-46 0 -75 -26t-29 -67q0 -40 34 -76
t113 -80q99 -53 143 -104.5t44 -113.5q0 -77 -59 -129.5t-145 -52.5q-50 0 -101.5 17t-63.5 17q-11 0 -19 -9.5t-9 -23.5h-22l-30 212h23q37 -91 86 -134t116 -43q55 0 89 31.5t34 81.5z" />
    <glyph glyph-name="scaron" unicode="&#x161;" horiz-adv-x="389" 
d="M350 676l-125 -167h-62l-124 167h34l121 -103l122 103h34zM284 440q1 0 16 10h11l4 -136h-15q-17 67 -42 95t-68 28q-34 0 -55.5 -19t-21.5 -49q0 -43 43 -68l108 -64q45 -27 64.5 -54.5t19.5 -64.5q0 -52 -41.5 -90t-99.5 -38q-25 0 -67 9t-52 9q-15 0 -23 -12h-13v156
h16q16 -70 38 -99q32 -41 89 -41q38 0 60.5 19.5t22.5 52.5q0 45 -52 75l-58 33q-64 36 -90.5 69t-26.5 75q0 54 38.5 88.5t97.5 34.5q33 0 62 -9.5t35 -9.5z" />
    <glyph glyph-name="Tcedilla" unicode="&#x162;" horiz-adv-x="611" 
d="M322 0l-25 -65q15 3 26 3q40 0 63 -18.5t23 -50.5q0 -39 -33.5 -61.5t-91.5 -22.5q-45 0 -84 16l14 31q37 -12 65 -12q25 0 40 12t15 32q0 19 -12 27.5t-41 8.5q-17 0 -28 -4l-7 5l41 99h-127v19q62 4 78 20.5t16 80.5v500h-54q-84 0 -112.5 -23t-46.5 -105h-24l6 170
h564l6 -170h-24q-17 83 -45.5 105.5t-113.5 22.5h-54v-511q0 -55 17 -71t79 -19v-19h-130z" />
    <glyph glyph-name="tcedilla" unicode="&#x163;" horiz-adv-x="278" 
d="M170 -10l-21 -55q15 3 26 3q40 0 63 -18.5t23 -50.5q0 -39 -33.5 -61.5t-91.5 -22.5q-45 0 -84 16l14 31q37 -12 65 -12q25 0 40 12t15 32q0 19 -12 27.5t-41 8.5q-17 0 -28 -4l-7 5l38 92q-66 15 -66 124v301h-53q-4 3 -4 7q0 5 3 8t11.5 8.5t20.5 15t33 34.5t46 60
q16 23 20 28q7 0 7 -13v-116h101v-32h-101v-286q0 -47 12 -68.5t40 -21.5q31 0 60 35l13 -11q-44 -70 -109 -76z" />
    <glyph glyph-name="Tcaron" unicode="&#x164;" horiz-adv-x="611" 
d="M460 888l-125 -167h-62l-124 167h34l121 -103l122 103h34zM254 620h-54q-84 0 -112.5 -23t-46.5 -105h-24l6 170h564l6 -170h-24q-17 83 -45.5 105.5t-113.5 22.5h-54v-511q0 -55 17 -71t79 -19v-19h-292v19q62 4 78 20.5t16 80.5v500z" />
    <glyph glyph-name="tcaron" unicode="&#x165;" horiz-adv-x="415" 
d="M255 450v-32h-101v-286q0 -47 12 -68.5t40 -21.5q31 0 60 35l13 -11q-48 -76 -120 -76q-89 0 -89 127v301h-53q-4 3 -4 7q0 5 3 8t11.5 8.5t20.5 15t33 34.5t46 60q16 23 20 28q7 0 7 -13v-116h101zM346 572l-9 -2q-8 -2 -18 -2q-27 0 -43 14t-16 37q0 25 16.5 41
t42.5 16q34 0 57 -25.5t23 -63.5q0 -45 -31 -87t-81 -67l-9 19q82 56 82 106q0 14 -14 14z" />
    <glyph glyph-name="Tbar" unicode="&#x166;" horiz-adv-x="611" 
d="M254 314h-114v45h114v261h-54q-84 0 -112.5 -23t-46.5 -105h-24l6 170h564l6 -170h-24q-17 83 -45.5 105.5t-113.5 22.5h-54v-261h114v-45h-114v-205q0 -55 17 -71t79 -19v-19h-292v19q62 4 78 20.5t16 80.5v194z" />
    <glyph glyph-name="tbar" unicode="&#x167;" horiz-adv-x="278" 
d="M70 275h-57v45h57v98h-53q-4 3 -4 7q0 5 3 8t11.5 8.5t20.5 15t33 34.5t46 60q16 23 20 28q7 0 7 -13v-116h101v-32h-101v-98h101v-45h-101v-143q0 -47 12 -68.5t40 -21.5q31 0 60 35l13 -11q-48 -76 -120 -76q-89 0 -89 127v158z" />
    <glyph glyph-name="Utilde" unicode="&#x168;" horiz-adv-x="722" 
d="M496 830h29q-16 -57 -40 -81.5t-65 -24.5q-32 0 -81 24l-23 11q-24 11 -41 11q-35 0 -51 -46h-29q11 49 37 75t64 26q36 0 70 -18l24 -12q32 -15 53 -15q17 0 28.5 11t24.5 39zM206 233q0 -100 37.5 -151.5t134.5 -51.5q56 0 101 21.5t65 57.5q23 43 23 136v270
q0 75 -18 99.5t-76 28.5v19h232v-19q-62 -8 -78 -30t-16 -98v-261q0 -59 -10.5 -103t-37 -83.5t-79 -60.5t-129.5 -21q-128 0 -189.5 62.5t-61.5 192.5v312q0 55 -15.5 70t-74.5 20v19h283v-19q-60 -5 -75.5 -20.5t-15.5 -69.5v-320z" />
    <glyph glyph-name="utilde" unicode="&#x169;" horiz-adv-x="500" 
d="M373 621h29q-16 -57 -40 -81.5t-65 -24.5q-32 0 -81 24l-23 11q-24 11 -41 11q-35 0 -51 -46h-29q11 49 37 75t64 26q36 0 70 -18l24 -12q32 -15 53 -15q17 0 28.5 11t24.5 39zM479 50v-14q-78 -21 -137 -45l-4 2v83q-3 -3 -17.5 -18t-20.5 -20.5t-20.5 -17t-25.5 -16.5
t-28 -9.5t-34 -4.5q-55 0 -88 35.5t-33 94.5v252q0 35 -13 48.5t-49 15.5v14h146v-326q0 -31 21 -53.5t50 -22.5q11 0 26 3t34.5 11.5t33 27t13.5 45.5v235q0 37 -13.5 49t-60.5 14v17h158v-343q0 -35 11.5 -46t45.5 -11h5z" />
    <glyph glyph-name="Umacron" unicode="&#x16a;" horiz-adv-x="722" 
d="M204 790h311v-54h-311v54zM206 233q0 -100 37.5 -151.5t134.5 -51.5q56 0 101 21.5t65 57.5q23 43 23 136v270q0 75 -18 99.5t-76 28.5v19h232v-19q-62 -8 -78 -30t-16 -98v-261q0 -59 -10.5 -103t-37 -83.5t-79 -60.5t-129.5 -21q-128 0 -189.5 62.5t-61.5 192.5v312
q0 55 -15.5 70t-74.5 20v19h283v-19q-60 -5 -75.5 -20.5t-15.5 -69.5v-320z" />
    <glyph glyph-name="umacron" unicode="&#x16b;" horiz-adv-x="500" 
d="M84 584h311v-54h-311v54zM479 50v-14q-78 -21 -137 -45l-4 2v83q-3 -3 -17.5 -18t-20.5 -20.5t-20.5 -17t-25.5 -16.5t-28 -9.5t-34 -4.5q-55 0 -88 35.5t-33 94.5v252q0 35 -13 48.5t-49 15.5v14h146v-326q0 -31 21 -53.5t50 -22.5q11 0 26 3t34.5 11.5t33 27t13.5 45.5
v235q0 37 -13.5 49t-60.5 14v17h158v-343q0 -35 11.5 -46t45.5 -11h5z" />
    <glyph glyph-name="Ubreve" unicode="&#x16c;" horiz-adv-x="722" 
d="M471 893h29q-18 -157 -142 -157q-56 0 -96.5 35t-42.5 122h29q11 -50 37.5 -73.5t74.5 -23.5q44 0 67 20t44 77zM206 233q0 -100 37.5 -151.5t134.5 -51.5q56 0 101 21.5t65 57.5q23 43 23 136v270q0 75 -18 99.5t-76 28.5v19h232v-19q-62 -8 -78 -30t-16 -98v-261
q0 -59 -10.5 -103t-37 -83.5t-79 -60.5t-129.5 -21q-128 0 -189.5 62.5t-61.5 192.5v312q0 55 -15.5 70t-74.5 20v19h283v-19q-60 -5 -75.5 -20.5t-15.5 -69.5v-320z" />
    <glyph glyph-name="ubreve" unicode="&#x16d;" horiz-adv-x="500" 
d="M358 662h29q-18 -157 -142 -157q-56 0 -96.5 35t-42.5 122h29q11 -50 37.5 -73.5t74.5 -23.5q44 0 67 20t44 77zM479 50v-14q-78 -21 -137 -45l-4 2v83q-3 -3 -17.5 -18t-20.5 -20.5t-20.5 -17t-25.5 -16.5t-28 -9.5t-34 -4.5q-55 0 -88 35.5t-33 94.5v252q0 35 -13 48.5
t-49 15.5v14h146v-326q0 -31 21 -53.5t50 -22.5q11 0 26 3t34.5 11.5t33 27t13.5 45.5v235q0 37 -13.5 49t-60.5 14v17h158v-343q0 -35 11.5 -46t45.5 -11h5z" />
    <glyph glyph-name="Uring" unicode="&#x16e;" horiz-adv-x="722" 
d="M359 900q41 0 70.5 -29.5t29.5 -70.5t-29.5 -70t-70.5 -29q-42 0 -70.5 29t-28.5 71q0 40 29.5 69.5t69.5 29.5zM360 866q-27 0 -46.5 -19t-19.5 -46t19 -46.5t45 -19.5q28 0 47.5 19t19.5 46t-19.5 46.5t-45.5 19.5zM206 233q0 -100 37.5 -151.5t134.5 -51.5
q56 0 101 21.5t65 57.5q23 43 23 136v270q0 75 -18 99.5t-76 28.5v19h232v-19q-62 -8 -78 -30t-16 -98v-261q0 -59 -10.5 -103t-37 -83.5t-79 -60.5t-129.5 -21q-128 0 -189.5 62.5t-61.5 192.5v312q0 55 -15.5 70t-74.5 20v19h283v-19q-60 -5 -75.5 -20.5t-15.5 -69.5v-320
z" />
    <glyph glyph-name="uring" unicode="&#x16f;" horiz-adv-x="500" 
d="M232 719q41 0 70.5 -29.5t29.5 -70.5t-29.5 -70t-70.5 -29q-42 0 -70.5 29t-28.5 71q0 40 29.5 69.5t69.5 29.5zM233 685q-27 0 -46.5 -19t-19.5 -46t19 -46.5t45 -19.5q28 0 47.5 19t19.5 46t-19.5 46.5t-45.5 19.5zM479 50v-14q-78 -21 -137 -45l-4 2v83
q-3 -3 -17.5 -18t-20.5 -20.5t-20.5 -17t-25.5 -16.5t-28 -9.5t-34 -4.5q-55 0 -88 35.5t-33 94.5v252q0 35 -13 48.5t-49 15.5v14h146v-326q0 -31 21 -53.5t50 -22.5q11 0 26 3t34.5 11.5t33 27t13.5 45.5v235q0 37 -13.5 49t-60.5 14v17h158v-343q0 -35 11.5 -46t45.5 -11
h5z" />
    <glyph glyph-name="Uhungarumlaut" unicode="&#x170;" horiz-adv-x="722" 
d="M428 721h-40l147 148q23 23 42 23q35 0 35 -32q0 -23 -30 -42zM272 721h-40l147 148q23 23 42 23q35 0 35 -32q0 -23 -30 -42zM206 233q0 -100 37.5 -151.5t134.5 -51.5q56 0 101 21.5t65 57.5q23 43 23 136v270q0 75 -18 99.5t-76 28.5v19h232v-19q-62 -8 -78 -30
t-16 -98v-261q0 -59 -10.5 -103t-37 -83.5t-79 -60.5t-129.5 -21q-128 0 -189.5 62.5t-61.5 192.5v312q0 55 -15.5 70t-74.5 20v19h283v-19q-60 -5 -75.5 -20.5t-15.5 -69.5v-320z" />
    </font>
</defs>
</svg>
