<?xml version="1.0" standalone="no"?>
<!DOCTYPE svg PUBLIC "-//W3C//DTD SVG 1.1//EN" "http://www.w3.org/Graphics/SVG/1.1/DTD/svg11.dtd" >
<svg xmlns="http://www.w3.org/2000/svg" xmlns:xlink="http://www.w3.org/1999/xlink" version="1.1">
<metadata>
Created by FontForge 20191125 at Wed Sep 15 23:00:34 2010
 By convertio
Copyleft 2002, 2003, 2005, 2008, 2009, 2010 Free Software Foundation.
</metadata>
<defs>
<font id="FreeMonoOblique" horiz-adv-x="600" >
  <font-face 
    font-family="FreeMono"
    font-weight="400"
    font-style="oblique"
    font-stretch="normal"
    units-per-em="1000"
    panose-1="2 7 4 9 2 2 5 9 4 4"
    ascent="800"
    descent="-200"
    x-height="417"
    cap-height="563"
    bbox="-644 -200 816 800"
    underline-thickness="50"
    underline-position="-150"
    slope="-12"
    unicode-range="U+0020-FFFD"
  />
<missing-glyph 
d="M100 0l120 563h400l-120 -563h-400zM140 33h334l106 497h-334z" />
    <glyph glyph-name="yodyodpatahhebrew" unicode="&#x5f2;&#x5b7;" 
d="M187 456q0 10 8 17t17 7h130l-51 -240q-2 -8 -9 -14.5t-15 -6.5q-17 0 -17 17v4l43 199h-89q-17 0 -17 17zM397 456q0 10 8 17t17 7h130l-51 -240q-2 -8 -9 -14.5t-15 -6.5q-17 0 -17 17v4l43 199h-89q-17 0 -17 17zM280 148q0 10 8 17t17 7h135q17 0 17 -15
q0 -7 -6.5 -16.5t-18.5 -9.5h-135q-17 0 -17 17z" />
    <glyph glyph-name=".notdef" 
d="M100 0l120 563h400l-120 -563h-400zM140 33h334l106 497h-334z" />
    <glyph glyph-name=".null" horiz-adv-x="0" 
 />
    <glyph glyph-name="nonmarkingreturn" 
 />
    <glyph glyph-name="space" unicode=" " 
 />
    <glyph glyph-name="exclam" unicode="!" 
d="M458 563l-88 -326q-7 -28 -27 -28q-6 0 -10.5 4.5t-4.5 10.5q0 7 1 13l51 326q9 55 51 55q14 0 23 -8t9 -21q0 -6 -5 -26zM311 85h12q20 0 32.5 -11t12.5 -29q0 -24 -20 -42t-46 -18h-12q-19 0 -31.5 11t-12.5 28q0 25 19.5 43t45.5 18z" />
    <glyph glyph-name="quotedbl" unicode="&#x22;" 
d="M228 604h128l-87 -253q-13 -36 -38 -36q-23 0 -23 26v10zM436 604h128l-87 -253q-13 -36 -38 -36q-23 0 -23 26v10z" />
    <glyph glyph-name="numbersign" unicode="#" 
d="M466 356l-36 -126h80q24 0 24 -16q0 -25 -33 -25h-82l-64 -225q-7 -26 -26 -26q-16 0 -16 16q0 7 2 13l63 222h-91l-63 -225q-7 -26 -27 -26q-16 0 -16 16q0 3 3 13l63 222h-87q-23 0 -23 16q0 25 32 25h89l36 126h-78q-24 0 -24 16q0 25 33 25h80l64 225q7 25 26 25
q7 0 11.5 -4.5t4.5 -10.5q0 -5 -2 -13l-63 -222h91l63 225q7 25 26 25q17 0 17 -15q0 -3 -3 -13l-63 -222h89q23 0 23 -16q0 -25 -32 -25h-91zM425 356h-91l-35 -126h91z" />
    <glyph glyph-name="dollar" unicode="$" 
d="M492 220q0 33 -27.5 51t-67 26t-78.5 16.5t-66.5 32t-27.5 63.5q0 60 52.5 109.5t125.5 57.5l11 52q6 27 26 27q16 0 16 -16q0 -10 -2 -20.5t-5.5 -23t-4.5 -19.5q32 -3 51.5 -12t43.5 -30q8 29 27 29q7 0 11.5 -4.5t4.5 -10.5q0 -5 -2 -12l-13 -60q-5 -28 -25 -28
q-10 0 -17 13l2 24q0 6 -12 18t-39.5 24t-59.5 12q-55 0 -102 -38t-47 -83q0 -31 27.5 -47.5t66.5 -24t78.5 -16.5t67 -33t27.5 -65q0 -69 -56.5 -119t-144.5 -59l-26 -119q-6 -27 -26 -27q-16 0 -16 16q0 27 12.5 71t14.5 59q-35 2 -67.5 17t-47.5 37q-1 -2 -2 -7
l-1.5 -7.5t-2 -7t-3 -7t-3.5 -5.5t-4.5 -5t-6 -3t-7.5 -1q-6 0 -11 4.5t-5 10.5q0 4 2 12l16 79q7 28 27 28q8 0 16 -12l-3 -32q0 -6 13.5 -20t46 -28.5t71.5 -14.5q69 0 120.5 38t51.5 90z" />
    <glyph glyph-name="percent" unicode="%" 
d="M412 236q44 0 71.5 -27.5t27.5 -71.5q0 -57 -47 -103t-106 -46q-42 0 -70 28t-28 70q0 58 46.5 104t105.5 46zM403 198q-40 0 -72 -32t-32 -72q0 -29 19 -48.5t48 -19.5q41 0 73.5 32t32.5 73q0 29 -19 48t-50 19zM367 611q44 0 72 -27.5t28 -71.5q0 -57 -47 -103
t-106 -46q-43 0 -70.5 28t-27.5 71q0 57 46.5 103t104.5 46zM360 573q-40 0 -72.5 -32t-32.5 -72q0 -29 19 -48.5t48 -19.5q41 0 73.5 32t32.5 72q0 30 -19 49t-49 19zM569 344l-406 -122q-4 -2 -12 -2q-14 0 -14 15t22 23l406 122q10 2 13 2q13 0 13 -15q0 -17 -22 -23z
" />
    <glyph glyph-name="ampersand" unicode="&#x26;" 
d="M393 0l-21 48q-57 -64 -125 -64q-49 0 -82 35.5t-33 88.5q0 61 40.5 111t104.5 68q-28 71 -28 92q0 53 47 96.5t103 43.5q35 0 62 -20q19 11 29 11q6 0 10.5 -5t4.5 -11q0 -15 -22 -26l-35 -16q-25 26 -57 26q-37 0 -69 -30.5t-32 -66.5q0 -25 24 -83l74 -177
q41 54 73 128h43q23 0 23 -16q0 -25 -32 -25h-12q-40 -83 -80 -126l19 -41h38q23 0 23 -16q0 -11 -9 -18t-23 -7h-58zM357 86l-70 165q-49 -11 -81 -49t-32 -86q0 -38 23.5 -64.5t57.5 -26.5q54 0 102 61z" />
    <glyph glyph-name="quotesingle" unicode="'" 
d="M364 604h128l-87 -253q-13 -36 -38 -36q-23 0 -23 26v10z" />
    <glyph glyph-name="parenleft" unicode="(" 
d="M411 -124q-20 0 -48 93t-28 169q0 98 37 190t121 202q33 43 48 58.5t25 15.5q17 0 17 -16q0 -7 -11 -21q-92 -121 -135 -227.5t-43 -215.5q0 -98 41 -217q2 -6 2 -8q0 -8 -8 -15.5t-18 -7.5z" />
    <glyph glyph-name="parenright" unicode=")" 
d="M296 604q20 0 48 -94.5t28 -167.5q0 -98 -37 -190t-121 -202q-31 -42 -47 -58t-26 -16q-17 0 -17 16q0 8 6 15q95 122 139 230t44 219q0 98 -41 217q-2 6 -2 8q0 8 8 15.5t18 7.5z" />
    <glyph glyph-name="asterisk" unicode="*" 
d="M372 438l30 139q6 27 26 27q7 0 11.5 -4.5t4.5 -10.5q0 -31 -14 -82.5t-17 -68.5l143 43q8 3 15 3q6 0 10.5 -5t4.5 -11q0 -17 -26 -26l-143 -42l58 -112q4 -8 4 -15q0 -8 -8 -15.5t-17 -7.5t-17 14l-58 112l-105 -112q-14 -14 -23 -14q-17 0 -17 16q0 10 12 22l105 112
l-124 42q-16 6 -16 16t7.5 17.5t17.5 7.5q5 0 13 -3z" />
    <glyph glyph-name="plus" unicode="+" 
d="M375 261l-43 -202q-6 -27 -26 -27q-7 0 -11.5 4.5t-4.5 10.5q6 43 23 118t21 96h-180q-23 0 -23 16q0 25 31 25h181l43 201q4 27 26 27q16 0 16 -16q-7 -43 -23.5 -116.5t-20.5 -95.5h180q24 0 24 -16q0 -11 -9 -18t-23 -7h-181z" />
    <glyph glyph-name="comma" unicode="," 
d="M238 145h133l-201 -265q-20 -25 -37 -25q-10 0 -16.5 6.5t-6.5 16.5q0 7 5 17z" />
    <glyph glyph-name="hyphen" unicode="-" 
d="M556 258h-402q-23 0 -23 16q0 25 32 25h402q23 0 23 -16q0 -25 -32 -25z" />
    <glyph glyph-name="period" unicode="." 
d="M319 116h11q25 0 40.5 -14.5t15.5 -37.5q0 -31 -25.5 -55t-58.5 -24h-11q-25 0 -40.5 14.5t-15.5 37.5q0 31 25.5 55t58.5 24z" />
    <glyph glyph-name="slash" unicode="/" 
d="M617 633l-476 -696q-13 -18 -26 -18q-6 0 -11 4.5t-5 11.5t8 19l476 696q12 18 25 18q17 0 17 -16q0 -8 -8 -19z" />
    <glyph glyph-name="zero" unicode="0" 
d="M571 441q0 -33 -7 -83t-26.5 -116.5t-48.5 -122.5t-79 -95t-112 -39q-67 0 -104.5 46.5t-37.5 130.5q0 39 10 89l21 100q25 118 92.5 192.5t150.5 74.5q67 0 104 -46.5t37 -130.5zM422 577q-50 0 -91 -35t-64.5 -85t-39.5 -109t-21.5 -101.5t-5.5 -68.5q0 -152 105 -152
q62 0 117 63.5t78 167.5l19 89q8 38 8 79q0 152 -105 152z" />
    <glyph glyph-name="one" unicode="1" 
d="M451 612l-121 -571h139q23 0 23 -15q0 -10 -7.5 -18t-24.5 -8h-319q-24 0 -24 16q0 25 33 25h139l110 517l-137 -113q-10 -8 -23 -8q-15 0 -15 17q0 13 16 26l160 132h51z" />
    <glyph glyph-name="two" unicode="2" 
d="M203 466q0 14 16.5 38.5t43.5 50t70.5 44.5t90.5 19q61 0 104.5 -41t43.5 -98q0 -39 -17 -72t-59 -73q-29 -28 -170.5 -141t-193.5 -152h314q0 3 1.5 10.5t2 12t2.5 11.5t4 11.5t5.5 9t8 6.5t10.5 2q7 0 11.5 -4.5t4.5 -10.5q0 -4 -2 -12l-16 -77h-394l13 60l283 222
q95 77 122.5 111.5t27.5 77.5q0 44 -34 75t-82 31t-85 -19.5t-53.5 -43t-31.5 -43t-25 -19.5q-6 0 -11 4.5t-5 9.5z" />
    <glyph glyph-name="three" unicode="3" 
d="M237 525q0 12 25 33.5t73 40.5t98 19q65 0 105.5 -34.5t40.5 -90.5q0 -53 -36 -96.5t-99 -68.5q94 -42 94 -131q0 -81 -77.5 -146.5t-173.5 -65.5q-55 0 -116 28t-61 51q0 9 7.5 16.5t15.5 7.5q7 0 20 -9.5t28 -21.5t46 -21.5t70 -9.5q77 0 138 51t61 116q0 49 -44 84
t-106 35q-24 0 -24 16q0 15 13.5 20t44.5 5q64 0 110.5 39t46.5 93q0 41 -31.5 66.5t-81.5 25.5q-42 0 -74.5 -10.5t-47 -23.5t-28 -23.5t-21.5 -10.5q-16 0 -16 16z" />
    <glyph glyph-name="four" unicode="4" 
d="M412 169h-271l10 47l310 388h84l-84 -394h34q23 0 23 -16q0 -25 -31 -25h-34l-28 -128h34q24 0 24 -16q0 -11 -9 -18t-23 -7h-151q-23 0 -23 16q0 25 32 25h76zM420 210l75 353h-23l-283 -353h231z" />
    <glyph glyph-name="five" unicode="5" 
d="M392 354q-48 0 -102 -20.5t-55 -20.5q-13 0 -15 15q0 5 1 7l57 269h282q24 0 24 -16q0 -25 -32 -25h-242l-42 -198q80 30 137 30q65 0 104 -39.5t39 -105.5q0 -106 -76.5 -185.5t-179.5 -79.5q-49 0 -93 19.5t-65 41t-21 32.5q0 9 7.5 16.5t17.5 7.5q7 0 19 -12t26.5 -26
t45.5 -26t70 -12q46 0 84 18t60 44t37 57t20.5 55.5t5.5 41.5q0 52 -30.5 82t-83.5 30z" />
    <glyph glyph-name="six" unicode="6" 
d="M608 563q-4 0 -19.5 7t-42.5 7q-46 0 -95 -21t-95 -60t-81 -105.5t-47 -148.5q88 122 192 122q58 0 95 -40.5t37 -104.5q0 -90 -67.5 -162t-151.5 -72q-68 0 -108.5 52.5t-40.5 141.5q0 97 36 186t99 148q111 105 241 105q29 0 50 -9t21 -22q0 -9 -7 -16.5t-16 -7.5z
M412 323q-52 0 -96 -35t-94 -100q1 -24 3.5 -43.5t10.5 -43t20.5 -39t34.5 -26t52 -10.5q65 0 116 57t51 129q0 47 -28 79t-70 32z" />
    <glyph glyph-name="seven" unicode="7" 
d="M553 545l4 18h-292q-1 -4 -3 -15t-3.5 -17.5t-5 -14.5t-9 -12t-13.5 -4q-6 0 -11 4.5t-5 10.5q0 3 2 13l16 76h373l-14 -65l-273 -519q-11 -21 -25 -21q-7 0 -11.5 4.5t-4.5 10.5t6 18z" />
    <glyph glyph-name="eight" unicode="8" 
d="M576 483q0 -111 -135 -170q83 -42 83 -121t-70.5 -143t-157.5 -64q-67 0 -110 40.5t-43 102.5q0 59 39 107.5t109 77.5q-40 23 -57.5 49t-17.5 62q0 73 67 133.5t149 60.5q62 0 103 -38.5t41 -96.5zM422 577q-63 0 -114 -46t-51 -102q0 -41 32 -68.5t81 -27.5
q65 0 114.5 42t49.5 98q0 47 -31 75.5t-81 28.5zM361 293q-70 0 -123 -47.5t-53 -110.5q0 -48 33.5 -78.5t86.5 -30.5q68 0 122.5 48.5t54.5 109.5q0 49 -33 79t-88 30z" />
    <glyph glyph-name="nine" unicode="9" 
d="M165 40q3 0 19 -7t43 -7q46 0 95.5 21.5t95.5 61.5t81 106t46 146q-86 -122 -192 -122q-58 0 -95 40.5t-37 104.5q0 90 67.5 162t151.5 72q68 0 108.5 -52.5t40.5 -141.5q0 -97 -36 -186t-99 -148q-111 -105 -241 -105q-29 0 -50 9t-21 22q0 9 7 16.5t16 7.5zM361 280
q52 0 96 35t94 100q-1 25 -4 44t-10.5 42.5t-20 39t-34.5 26t-52 10.5q-65 0 -116 -57t-51 -129q0 -47 28 -79t70 -32z" />
    <glyph glyph-name="colon" unicode=":" 
d="M319 116h11q25 0 40.5 -14t15.5 -37q0 -32 -25.5 -56t-58.5 -24h-11q-25 0 -40.5 14.5t-15.5 37.5q0 31 25.5 55t58.5 24zM383 417h11q25 0 40.5 -14.5t15.5 -37.5q0 -31 -25.5 -55.5t-58.5 -24.5h-11q-25 0 -40.5 14.5t-15.5 37.5q0 31 25.5 55.5t58.5 24.5z" />
    <glyph glyph-name="semicolon" unicode=";" 
d="M242 145h133l-201 -265q-20 -25 -36 -25q-10 0 -17 6.5t-7 16.5q0 7 5 17zM359 417h11q25 0 40.5 -14.5t15.5 -37.5q0 -31 -25.5 -55.5t-58.5 -24.5h-11q-25 0 -40.5 14.5t-15.5 37.5q0 31 25.5 55.5t58.5 24.5z" />
    <glyph glyph-name="less" unicode="&#x3c;" 
d="M535 70q0 -6 -7 -16t-17 -10q-5 0 -13 5l-367 232l467 232q10 5 13 5q16 0 16 -19q0 -12 -17 -21l-397 -197l313 -197q9 -6 9 -14z" />
    <glyph glyph-name="equal" unicode="=" 
d="M593 334h-444q-23 0 -23 16q0 25 32 25h444q23 0 23 -16q0 -25 -32 -25zM562 190h-444q-23 0 -23 16q0 25 32 25h444q23 0 23 -16q0 -25 -32 -25z" />
    <glyph glyph-name="greater" unicode="&#x3e;" 
d="M184 492q0 9 8 17.5t16 8.5q5 0 13 -5l367 -232l-467 -232q-10 -5 -13 -5q-16 0 -16 19q0 12 17 21l397 197l-313 197q-9 6 -9 14z" />
    <glyph glyph-name="question" unicode="?" 
d="M581 455q0 -66 -46.5 -112t-159.5 -96l-9 -41q-4 -27 -26 -27q-7 0 -11.5 4.5t-4.5 10.5q0 18 7.5 47t8.5 33q106 40 152.5 80t46.5 90q0 42 -32.5 67t-87.5 25q-61 0 -137 -34q0 -1 -2 -15t-3.5 -19.5t-5 -15.5t-9.5 -14t-14 -4q-17 0 -17 16q0 1 2 11l14 68
q9 3 49.5 19.5t69 22.5t67.5 6q69 0 108.5 -32.5t39.5 -89.5zM305 85h28q47 0 47 -40q0 -25 -20 -42.5t-48 -17.5h-28q-22 0 -34.5 10.5t-12.5 28.5q0 25 20 43t48 18z" />
    <glyph glyph-name="at" unicode="@" 
d="M286 -62q-42 0 -72.5 17.5t-45.5 46.5t-22 58.5t-7 60.5q0 42 8 77l35 163q24 114 95 188.5t156 74.5q58 0 93 -34.5t35 -90.5q0 -20 -4 -36l-59 -277q16 -3 16 -16q0 -25 -32 -25h-33l1 5q-30 -3 -42 -3q-49 0 -80 27.5t-31 70.5q0 53 39.5 99t101.5 64q31 8 68 8
q13 62 13 74q0 43 -25.5 68t-68.5 25q-68 0 -125 -63t-78 -162l-34 -160q-7 -38 -7 -67q0 -27 5 -50.5t16.5 -48t37 -39t61.5 -14.5q44 0 71.5 10.5t40.5 20.5t21 10q7 0 11.5 -4.5t4.5 -10.5q0 -24 -52.5 -45.5t-111.5 -21.5zM459 192l39 184q-66 0 -112.5 -35.5
t-46.5 -85.5q0 -31 22 -49t59 -18q22 0 39 4z" />
    <glyph glyph-name="A" unicode="A" 
d="M468 188h-265l-86 -147h79q23 0 23 -16q0 -11 -9 -18t-23 -7h-151q-23 0 -23 17q0 24 32 24h31l281 481h-120q-23 0 -23 16q0 25 32 25h203l87 -522h37q23 0 23 -16q0 -25 -32 -25h-156q-23 0 -23 16q0 25 32 25h76zM462 229l-50 293h-15l-170 -293h235z" />
    <glyph glyph-name="B" unicode="B" 
d="M133 41l102 481h-54q-23 0 -23 17q0 24 32 24h258q64 0 103.5 -32.5t39.5 -85.5q0 -92 -114 -147q100 -37 100 -117q0 -70 -61.5 -125.5t-138.5 -55.5h-307q-23 0 -23 17q0 24 32 24h54zM549 437q0 36 -29.5 60.5t-79.5 24.5h-164l-44 -209h147q71 0 120.5 36t49.5 88z
M535 175q0 39 -35 68t-128 29h-149l-49 -231h208q61 0 107 40.5t46 93.5z" />
    <glyph glyph-name="C" unicode="C" 
d="M570 446q0 7 -9.5 21t-27 30t-48 27.5t-66.5 11.5q-83 0 -155.5 -64t-91.5 -153l-15 -71q-5 -25 -5 -45q0 -77 50 -127.5t126 -50.5q98 0 194 90q10 10 20 10q16 0 16 -14t-34 -44q-99 -83 -205 -83q-89 0 -149 61t-60 151q0 21 5 46l17 83q20 94 105.5 172.5t190.5 78.5
q101 0 158 -69q1 2 3 13.5t3.5 16t5 12.5t8.5 11t12 3q17 0 17 -15q0 -2 -2 -12l-24 -112q-5 -28 -26 -28q-9 0 -17 12z" />
    <glyph glyph-name="D" unicode="D" 
d="M113 41l102 481h-34q-23 0 -23 16q0 25 32 25h220q82 0 132 -54t50 -141q0 -30 -6 -58l-12 -56q-23 -107 -105 -180.5t-179 -73.5h-220q-23 0 -23 16q0 25 32 25h34zM551 357q0 27 -7 53.5t-23 52.5t-47.5 42.5t-74.5 16.5h-143l-102 -481h149q72 0 141.5 62t86.5 142
l16 73q4 28 4 39z" />
    <glyph glyph-name="E" unicode="E" 
d="M223 272l-49 -231h314l25 119q6 27 27 27q7 0 11.5 -4.5t4.5 -10.5q0 -2 -2 -12l-34 -160h-450q-23 0 -23 17q0 24 32 24h54l102 481h-54q-23 0 -23 17q0 24 32 24h429l-30 -139q-5 -27 -26 -27q-7 0 -11.5 4.5t-4.5 10.5q0 24 10 61.5t12 48.5h-293l-44 -209h145l9 45
q6 27 26 27q17 0 17 -15q0 -4 -2 -12l-28 -131q-5 -27 -26 -27q-7 0 -11.5 4.5t-4.5 10.5q0 12 5 32t6 25h-145z" />
    <glyph glyph-name="F" unicode="F" 
d="M223 272l-49 -231h138q24 0 24 -16q0 -11 -9 -18t-23 -7h-234q-23 0 -23 16q0 25 32 25h54l102 481h-54q-23 0 -23 16q0 25 32 25h450l-30 -139q-4 -27 -26 -27q-6 0 -11 4.5t-5 10.5q0 24 10 61.5t12 48.5h-314l-44 -209h145l9 45q6 27 26 27q17 0 17 -15q0 -4 -2 -12
l-28 -131q-5 -27 -26 -27q-7 0 -11.5 4.5t-4.5 10.5q0 12 5 32t6 25h-145z" />
    <glyph glyph-name="G" unicode="G" 
d="M575 465q0 9 -15 25t-51 31t-81 15q-86 0 -161.5 -64.5t-94.5 -154.5q-2 -8 -9 -37.5t-10 -50.5t-3 -42q0 -76 51 -119t140 -43q70 0 151 34l32 150h-139q-23 0 -23 16q0 25 32 25h194q24 0 24 -16q0 -25 -33 -25h-14l-37 -173q-101 -52 -198 -52q-103 0 -162.5 52.5
t-59.5 142.5q0 34 7 65l16 74q23 109 111 183.5t194 74.5q98 0 154 -54q8 41 29 41q17 0 17 -15q0 -4 -2 -12l-19 -91q-6 -28 -27 -28q-7 0 -16 12z" />
    <glyph glyph-name="H" unicode="H" 
d="M495 272h-270l-49 -231h54q23 0 23 -16q0 -11 -9 -18t-23 -7h-140q-24 0 -24 16q0 25 32 25h46l102 481h-25q-23 0 -23 16q0 25 32 25h120q23 0 23 -16q0 -25 -32 -25h-54l-44 -209h270l44 209h-54q-23 0 -23 16q0 25 32 25h120q23 0 23 -16q0 -25 -32 -25h-25l-102 -481
h45q24 0 24 -16q0 -11 -9 -18t-23 -7h-141q-23 0 -23 16q0 25 32 25h54z" />
    <glyph glyph-name="I" unicode="I" 
d="M431 522l-102 -481h139q24 0 24 -16q0 -11 -9 -18t-23 -7h-320q-23 0 -23 16q0 25 31 25h140l102 481h-139q-23 0 -23 16q0 25 31 25h320q24 0 24 -16q0 -11 -9 -18t-23 -7h-140z" />
    <glyph glyph-name="J" unicode="J" 
d="M571 522l-76 -357q-16 -74 -83 -127.5t-143 -53.5q-48 0 -87 20.5t-82 69.5l32 149q6 27 26 27q7 0 11.5 -4.5t4.5 -10.5q0 -30 -13.5 -79t-15.5 -63q61 -68 133 -68q61 0 112 40.5t64 99.5l76 357h-158q-24 0 -24 16q0 25 32 25h296q23 0 23 -16q0 -25 -32 -25h-96z" />
    <glyph glyph-name="K" unicode="K" 
d="M212 221l-38 -180h74q24 0 24 -16q0 -11 -9 -18t-23 -7h-170q-23 0 -23 17q0 24 32 24h54l102 481h-54q-23 0 -23 17q0 24 32 24h169q24 0 24 -16q0 -25 -32 -25h-75l-53 -249l333 249h-45q-24 0 -24 16q0 25 32 25h119q24 0 24 -16q0 -25 -32 -25h-17l-264 -198
q66 -30 95 -84.5t54 -198.5h56q23 0 23 -16q0 -11 -9 -18t-23 -7h-86q-23 152 -53.5 211.5t-96.5 82.5z" />
    <glyph glyph-name="L" unicode="L" 
d="M338 522l-102 -481h272l34 160q6 27 26 27q17 0 17 -14q0 -3 -2 -13l-42 -201h-451q-23 0 -23 16q0 25 32 25h96l102 481h-96q-23 0 -23 17q0 24 31 24h234q23 0 23 -16q0 -25 -32 -25h-96z" />
    <glyph glyph-name="M" unicode="M" 
d="M362 169h-46l-84 353h-8l-102 -481h74q24 0 24 -16q0 -11 -9 -18t-23 -7h-150q-23 0 -23 17q0 24 32 24h34l102 481h-25q-23 0 -23 17q0 24 32 24h99l83 -348l228 348h100q23 0 23 -16q0 -25 -32 -25h-25l-102 -481h34q23 0 23 -16q0 -11 -9 -18t-23 -7h-149
q-23 0 -23 17q0 24 31 24h75l102 481h-8z" />
    <glyph glyph-name="N" unicode="N" 
d="M501 0h-52l-198 504l-98 -463h74q24 0 24 -16q0 -11 -9 -18t-23 -7h-150q-23 0 -23 17q0 24 32 24h34l102 481h-54q-23 0 -23 17q0 24 32 24h106l198 -504l98 463h-74q-24 0 -24 16q0 25 32 25h150q23 0 23 -16q0 -25 -32 -25h-34z" />
    <glyph glyph-name="O" unicode="O" 
d="M422 576q86 0 140 -61t54 -158q0 -94 -45 -181t-119.5 -139.5t-155.5 -52.5q-86 0 -140 61.5t-54 161.5q0 93 45.5 178.5t120 138t154.5 52.5zM415 535q-103 0 -187 -98.5t-84 -220.5q0 -83 45 -137t113 -54q104 0 188 98.5t84 221.5q0 82 -45 136t-114 54z" />
    <glyph glyph-name="P" unicode="P" 
d="M214 231l-40 -190h138q24 0 24 -16q0 -25 -33 -25h-233q-23 0 -23 17q0 24 32 24h54l102 481h-54q-23 0 -23 17q0 24 32 24h240q69 0 113 -37t44 -95q0 -80 -72.5 -140t-168.5 -60h-132zM223 272h134q74 0 131 45.5t57 103.5q0 44 -34 72.5t-86 28.5h-149z" />
    <glyph glyph-name="Q" unicode="Q" 
d="M298 -89q-47 0 -97 -12.5t-58 -12.5q-16 0 -16 17q0 13 15 22l104 65q-64 15 -104 74.5t-40 141.5q0 142 98.5 256t221.5 114q86 0 140 -61.5t54 -160.5q0 -141 -96 -253.5t-219 -116.5l-63 -40q43 8 69 8q41 0 73.5 -13t48.5 -13q23 0 53.5 15.5t34.5 15.5q16 0 16 -16
q0 -21 -44.5 -38.5t-70.5 -17.5q-20 0 -53.5 13t-66.5 13zM415 535q-104 0 -187.5 -98.5t-83.5 -220.5q0 -83 45 -137t113 -54q104 0 188 98.5t84 222.5q0 82 -45 135.5t-114 53.5z" />
    <glyph glyph-name="R" unicode="R" 
d="M218 251l-44 -210h74q24 0 24 -16q0 -11 -9 -18t-23 -7h-170q-23 0 -23 17q0 24 32 24h54l102 481h-54q-23 0 -23 17q0 24 31 24h249q63 0 106 -37t43 -92q0 -116 -173 -172q41 -33 64.5 -74.5t61.5 -146.5h30q24 0 24 -16q0 -11 -9 -18t-23 -7h-57q-40 122 -71.5 173.5
t-82.5 77.5h-133zM227 292h114q80 0 142 40.5t62 92.5q0 40 -34 68.5t-82 28.5h-153z" />
    <glyph glyph-name="S" unicode="S" 
d="M500 177q0 39 -31 60t-75 28.5t-87.5 17t-74.5 36t-31 73.5q0 73 66.5 129t152.5 56q88 0 135 -60q3 15 5 22t8.5 15.5t17.5 8.5q7 0 11.5 -4.5t4.5 -10.5q0 -5 -2 -12l-22 -103q-5 -28 -25 -28q-9 0 -17 12l3 42q0 4 -12 22t-19 25q-13 13 -39.5 21.5t-52.5 8.5
q-67 0 -118.5 -41.5t-51.5 -95.5q0 -32 22 -51t55.5 -26t72 -16t72 -18.5t55.5 -35.5t22 -67q0 -46 -20 -83t-49 -58.5t-64.5 -36t-63 -19.5t-47.5 -5q-108 0 -156 73q0 -2 -2.5 -13.5t-4 -16t-5 -12.5t-9 -11t-12.5 -3t-11.5 4.5t-4.5 10.5q0 4 2 12l23 112q6 28 27 28
q8 0 16 -12l-4 -46q0 -5 16 -26t25 -28q16 -13 46 -22t60 -9q77 0 135 46t58 107z" />
    <glyph glyph-name="T" unicode="T" 
d="M330 41h105q23 0 23 -16q0 -11 -9 -18t-23 -7h-251q-23 0 -23 17q0 24 32 24h105l102 481h-167l-15 -73q-6 -27 -27 -27q-7 0 -11.5 4.5t-4.5 10.5q0 27 12 69.5t14 56.5h456l-24 -114q-6 -28 -26 -28q-5 0 -10 4.5t-6 9.5q0 12 1 14l15 73h-166z" />
    <glyph glyph-name="U" unicode="U" 
d="M610 522l-71 -337q-18 -85 -88 -143t-154 -58q-72 0 -116.5 43t-44.5 113q0 20 5 45l71 337h-33q-24 0 -24 16q0 25 32 25h150q22 0 22 -16q0 -25 -31 -25h-75l-71 -337q-4 -16 -4 -34q0 -56 35.5 -91t91.5 -35q67 0 123 46.5t70 113.5l71 337h-74q-23 0 -23 17
q0 24 32 24h149q23 0 23 -16q0 -25 -32 -25h-34z" />
    <glyph glyph-name="V" unicode="V" 
d="M268 0l-90 522h-31q-23 0 -23 16q0 25 32 25h150q24 0 24 -16q0 -25 -32 -25h-76l83 -481h2l297 481h-79q-23 0 -23 16q0 25 31 25h151q23 0 23 -16q0 -25 -32 -25h-31l-320 -522h-56z" />
    <glyph glyph-name="W" unicode="W" 
d="M122 0l51 522h-15q-23 0 -23 16q0 25 32 25h149q24 0 24 -16q0 -25 -32 -25h-94l-45 -476l195 392h62l26 -392l158 476h-96q-23 0 -23 16q0 25 32 25h150q23 0 23 -16q0 -25 -32 -25h-15l-173 -522h-64l-27 400l-200 -400h-63z" />
    <glyph glyph-name="X" unicode="X" 
d="M386 288l139 -247h17q23 0 23 -16q0 -11 -9 -18t-23 -7h-132q-23 0 -23 16q0 25 32 25h62l-120 214l-210 -214h65q23 0 23 -16q0 -25 -32 -25h-131q-23 0 -23 16q0 25 32 25h17l241 247l-130 234h-15q-23 0 -23 16q0 25 31 25h111q23 0 23 -16q0 -25 -32 -25h-43
l112 -201l197 201h-46q-23 0 -23 16q0 25 32 25h111q23 0 23 -16q0 -25 -32 -25h-15z" />
    <glyph glyph-name="Y" unicode="Y" 
d="M376 254l-45 -213h105q23 0 23 -16q0 -25 -32 -25h-251q-23 0 -23 16q0 25 32 25h105l45 213l-122 268h-24q-23 0 -23 16q0 25 32 25h111q23 0 23 -16q0 -25 -32 -25h-38l104 -227l198 227h-41q-24 0 -24 16q0 25 33 25h110q23 0 23 -17q0 -11 -9 -17.5t-23 -6.5h-23z
" />
    <glyph glyph-name="Z" unicode="Z" 
d="M497 0h-394l13 59l425 460l1 3h-269l-25 -118q-6 -28 -27 -28q-16 0 -16 16q0 4 2 12l34 159h349l-12 -58l-427 -460l-1 -4h315l30 141q6 27 26 27q17 0 17 -15q0 -6 -2 -12z" />
    <glyph glyph-name="bracketleft" unicode="[" 
d="M441 563l-137 -646h97q23 0 23 -16q0 -25 -32 -25h-138l155 728h138q23 0 23 -16q0 -25 -32 -25h-97z" />
    <glyph glyph-name="backslash" unicode="\" 
d="M292 650l180 -696q2 -8 2 -11q0 -9 -7.5 -16.5t-17.5 -7.5q-7 0 -10.5 3.5t-6.5 14.5l-180 696q-2 8 -2 11q0 9 7.5 16.5t17.5 7.5q7 0 10.5 -3.5t6.5 -14.5z" />
    <glyph glyph-name="bracketright" unicode="]" 
d="M262 -83l137 646h-97q-23 0 -23 16q0 25 32 25h138l-155 -728h-138q-23 0 -23 16q0 25 32 25h97z" />
    <glyph glyph-name="asciicircum" unicode="^" 
d="M430 615l132 -223q5 -8 5 -14q0 -9 -8 -16.5t-17 -7.5q-10 0 -18 13l-107 185l-186 -185q-13 -13 -23 -13q-16 0 -16 16q0 9 13 22z" />
    <glyph glyph-name="underscore" unicode="_" 
d="M584 -75l-11 -50h-600l11 50h600z" />
    <glyph glyph-name="grave" unicode="`" 
d="M309 630l92 -100q2 -1 5.5 -7.5t3.5 -8.5q0 -9 -8.5 -16.5t-17.5 -7.5q-7 0 -16 9l-93 100q-8 10 -8 15q0 10 8 17.5t18 7.5q7 0 16 -9z" />
    <glyph glyph-name="a" unicode="a" 
d="M205 374q0 24 73.5 40.5t112.5 16.5q61 0 99 -28t38 -72q0 -15 -2 -23l-57 -267h54q23 0 23 -16q0 -25 -32 -25h-95l14 67q-106 -83 -208 -83q-62 0 -97 27.5t-35 75.5q0 73 70.5 122t174.5 49q58 0 132 -21l15 71q1 5 1 14q0 31 -29 49.5t-78 18.5q-45 0 -98 -16
t-61 -16q-6 0 -10.5 4.5t-4.5 11.5zM443 112l19 90q-58 15 -125 15q-86 0 -144 -34.5t-58 -86.5q0 -34 25 -52.5t71 -18.5q54 0 102 19.5t110 67.5z" />
    <glyph glyph-name="b" unicode="b" 
d="M272 604l-58 -276q94 103 202 103q77 0 126 -48.5t49 -124.5q0 -106 -83.5 -190t-188.5 -84q-108 0 -156 104l-19 -88h-95q-23 0 -23 17q0 24 32 24h54l111 522h-54q-23 0 -23 17q0 24 31 24h95zM404 390q-85 0 -152.5 -68.5t-67.5 -154.5q0 -61 40.5 -101.5t101.5 -40.5
q86 0 154.5 68t68.5 154q0 62 -41 102.5t-104 40.5z" />
    <glyph glyph-name="c" unicode="c" 
d="M555 91q0 -10 -20 -27.5t-52.5 -35.5t-82 -31.5t-99.5 -13.5q-79 0 -129.5 47.5t-50.5 121.5q0 112 84.5 196t197.5 84q95 0 148 -56q3 14 5 20t8 13.5t16 7.5q7 0 11.5 -4.5t4.5 -10.5q0 -1 -2 -13l-19 -91q-6 -28 -26 -28q-10 0 -17 12l3 36q0 9 -14 25t-49 32t-79 16
q-64 0 -112.5 -27.5t-72 -67.5t-34.5 -74.5t-11 -59.5q0 -61 42 -99.5t107 -38.5q115 0 207 73q13 11 20 11q5 0 10.5 -5.5t5.5 -11.5z" />
    <glyph glyph-name="d" unicode="d" 
d="M630 604l-120 -563h55q22 0 22 -16q0 -25 -31 -25h-95l19 89q-93 -105 -206 -105q-74 0 -123 49.5t-49 123.5q0 106 82.5 190t186.5 84q109 0 159 -104l50 236h-54q-23 0 -23 17q0 24 32 24h95zM365 390q-86 0 -153.5 -67.5t-67.5 -153.5q0 -64 40 -104t103 -40
q87 0 154.5 68t67.5 155q0 62 -40 102t-104 40z" />
    <glyph glyph-name="e" unicode="e" 
d="M531 70q0 -26 -78.5 -56t-152.5 -30q-87 0 -141.5 52t-54.5 135q0 103 84 181.5t195 78.5q82 0 134.5 -47.5t52.5 -121.5q0 -23 -8 -63h-416q-1 -10 -1 -22q0 -67 46 -109.5t119 -42.5q47 0 99.5 15t88.5 39q13 7 18 7q15 0 15 -16zM155 240h374q1 5 1 12
q0 61 -43.5 99.5t-111.5 38.5q-73 0 -132.5 -40.5t-87.5 -109.5z" />
    <glyph glyph-name="f" unicode="f" 
d="M637 551q-3 0 -24.5 3t-52.5 6t-58 3q-50 0 -85.5 -23.5t-43.5 -61.5l-13 -61h189q23 0 23 -16q0 -25 -32 -25h-189l-71 -335h177q24 0 24 -16q0 -11 -9 -18t-23 -7h-317q-23 0 -23 17q0 24 32 24h98l71 335h-88q-23 0 -23 17q0 24 32 24h88l13 61q11 55 62 90.5
t118 35.5q46 0 98.5 -6t52.5 -22q0 -10 -7.5 -17.5t-18.5 -7.5z" />
    <glyph glyph-name="g" unicode="g" 
d="M511 334l18 83h95q23 0 23 -16q0 -25 -32 -25h-54l-86 -404q-4 -20 -18 -44.5t-37.5 -51t-61 -44.5t-81.5 -18h-115q-23 0 -23 16q0 25 32 25h116q51 0 94 36t54 87l28 129q-87 -97 -192 -97q-73 0 -119.5 47t-46.5 120q0 97 79 175.5t177 78.5q105 0 150 -97zM354 390
q-80 0 -143.5 -62.5t-63.5 -141.5q0 -60 37.5 -97.5t97.5 -37.5q82 0 145.5 63t63.5 144q0 59 -38 95.5t-99 36.5z" />
    <glyph glyph-name="h" unicode="h" 
d="M501 309q0 32 -24 56.5t-81 24.5q-41 0 -72.5 -16.5t-82.5 -64.5l-13 -13l-54 -255h45q24 0 24 -16q0 -25 -33 -25h-132q-23 0 -23 17q0 24 32 24h46l111 522h-55q-22 0 -22 17q0 24 31 24h95l-54 -257q48 46 87 65t85 19q60 0 96 -30.5t36 -81.5q0 -13 -3 -28l-53 -250
h45q24 0 24 -16q0 -11 -9 -18t-23 -7h-132q-23 0 -23 17q0 24 31 24h46l52 247q3 10 3 21z" />
    <glyph glyph-name="i" unicode="i" 
d="M444 624l-22 -104h-59l22 104h59zM409 417l-80 -376h160q24 0 24 -16q0 -11 -9 -18t-23 -7h-362q-23 0 -23 16q0 25 31 25h161l71 335h-118q-23 0 -23 17q0 24 32 24h159z" />
    <glyph glyph-name="j" unicode="j" 
d="M497 376h-240q-24 0 -24 16q0 25 33 25h281l-95 -445q-14 -70 -67 -114t-121 -44h-129q-23 0 -23 16q0 25 32 25h128q50 0 89.5 33t49.5 84zM547 624l-22 -104h-59l22 104h59z" />
    <glyph glyph-name="k" unicode="k" 
d="M223 180l-38 -180h-95q-23 0 -23 17q0 24 32 24h54l111 522h-54q-23 0 -23 17q0 24 31 24h96l-80 -375l204 147h-22q-23 0 -23 17q0 24 32 24h129q24 0 24 -17q0 -11 -9 -17.5t-23 -6.5h-47l-185 -131l164 -204h45q23 0 23 -16q0 -11 -9 -18t-23 -7h-131q-23 0 -23 17
q0 24 32 24h28l-142 178z" />
    <glyph glyph-name="l" unicode="l" 
d="M449 604l-120 -563h160q24 0 24 -16q0 -11 -9 -18t-23 -7h-362q-23 0 -23 16q0 25 31 25h161l111 522h-117q-23 0 -23 16q0 25 32 25h158z" />
    <glyph glyph-name="m" unicode="m" 
d="M201 417l-11 -52q60 66 119 66q64 0 82 -71q70 71 128 71q37 0 60.5 -24t23.5 -62q0 -10 -3 -22l-59 -282h34q23 0 23 -16q0 -11 -9 -18t-23 -7h-74l68 319q1 5 1 14q0 24 -15 40.5t-37 16.5q-51 0 -122 -82l-56 -267h34q23 0 23 -16q0 -25 -32 -25h-74l67 316q2 12 2 16
q0 24 -15 41t-36 17q-51 0 -122 -82l-57 -267h34q23 0 23 -16q0 -11 -9 -18t-23 -7h-109q-22 0 -22 16q0 25 32 25h34l71 335h-34q-23 0 -23 16q0 25 32 25h74z" />
    <glyph glyph-name="n" unicode="n" 
d="M502 308q0 30 -22.5 56t-76.5 26q-48 0 -81 -18.5t-92 -77.5l-54 -253h45q23 0 23 -16q0 -25 -32 -25h-131q-24 0 -24 16q0 25 32 25h46l71 335h-34q-23 0 -23 16q0 25 32 25h75l-15 -69q54 48 90.5 65.5t82.5 17.5q59 0 95 -30.5t36 -81.5q0 -16 -2 -24l-54 -254h34
q23 0 23 -16q0 -11 -9 -18t-23 -7h-109q-23 0 -23 16q0 25 32 25h34l52 247q2 7 2 20z" />
    <glyph glyph-name="o" unicode="o" 
d="M391 431q83 0 134.5 -50t51.5 -129q0 -104 -86 -186t-195 -82q-82 0 -133.5 50t-51.5 128q0 104 86 186.5t194 82.5zM382 390q-89 0 -159 -67t-70 -152q0 -64 42.5 -105t109.5 -41q89 0 159.5 67t70.5 152q0 65 -42.5 105.5t-110.5 40.5z" />
    <glyph glyph-name="p" unicode="p" 
d="M233 417l-17 -82q50 52 96 74t103 22q81 0 129.5 -45.5t48.5 -121.5q0 -100 -81 -177t-186 -77q-112 0 -159 96l-53 -251h97q24 0 24 -16q0 -25 -32 -25h-193q-23 0 -23 16q0 25 32 25h54l110 521h-54q-23 0 -23 16q0 25 32 25h95zM405 390q-85 0 -151 -62t-66 -141
q0 -60 40.5 -98t104.5 -38q85 0 151.5 62t66.5 142q0 60 -40.5 97.5t-105.5 37.5z" />
    <glyph glyph-name="q" unicode="q" 
d="M532 335l18 82h95q23 0 23 -16q0 -25 -32 -25h-54l-111 -521h54q24 0 24 -16q0 -11 -9 -18t-23 -7h-193q-24 0 -24 16q0 25 32 25h98l54 251q-89 -96 -200 -96q-80 0 -129.5 46.5t-49.5 121.5q0 100 81.5 176.5t187.5 76.5q111 0 158 -96zM365 390q-86 0 -152 -62
t-66 -142q0 -59 41 -97t105 -38q86 0 152.5 62t66.5 141q0 61 -41 98.5t-106 37.5z" />
    <glyph glyph-name="r" unicode="r" 
d="M592 344q-6 0 -26 21t-46 21q-34 0 -76 -24t-140 -100l-47 -221h179q23 0 23 -17q0 -11 -9 -17.5t-23 -6.5h-316q-23 0 -23 17q0 11 9 17.5t23 6.5h96l71 335h-74q-23 0 -23 17q0 10 8.5 17t22.5 7h116l-22 -102q84 64 131 88t86 24q37 0 62 -22.5t25 -35.5
q0 -9 -8.5 -17t-18.5 -8z" />
    <glyph glyph-name="s" unicode="s" 
d="M502 335q0 16 -34.5 36t-85.5 20q-58 0 -102.5 -25.5t-44.5 -58.5q0 -27 30 -41t69 -16.5t86 -13t71 -30.5q34 -27 34 -68q0 -63 -66.5 -109t-158.5 -46q-96 0 -147 55q-9 -31 -19 -36q-5 -2 -10 -2q-6 0 -11 4.5t-5 10.5t2 12l17 83q6 27 27 27q7 0 11.5 -4.5t4.5 -10.5
q0 -4 -1.5 -12.5t-1.5 -10.5q0 -32 39 -53t99 -21q72 0 123 31t51 74q0 62 -135 77q-28 3 -43 5.5t-39.5 9t-37.5 15t-23.5 24.5t-10.5 37q0 55 57 94t139 39q86 0 129 -46q6 32 27 32q7 0 11.5 -4.5t4.5 -10.5q0 -3 -2 -13l-14 -69q-6 -28 -27 -28q-9 0 -16 12z" />
    <glyph glyph-name="t" unicode="t" 
d="M511 54q0 -28 -81.5 -49t-133.5 -21q-59 0 -95 26t-36 69q0 13 3 28l57 269h-74q-24 0 -24 16q0 25 32 25h75l25 119q6 27 26 27q17 0 17 -15q0 -4 -2 -12l-25 -119h220q23 0 23 -16q0 -11 -9 -18t-23 -7h-220l-57 -267q-2 -14 -2 -18q0 -30 26 -48t70 -18
q42 0 92.5 11.5t82.5 28.5q12 6 18 6q15 0 15 -17z" />
    <glyph glyph-name="u" unicode="u" 
d="M439 0l14 66q-98 -82 -200 -82q-50 0 -79 26.5t-29 71.5q0 11 4 33l55 261h-54q-23 0 -23 16q0 25 32 25h95l-64 -302q-2 -6 -2 -18q0 -32 20.5 -52t52.5 -20q101 0 203 90l55 261h-74q-24 0 -24 16q0 25 33 25h115l-80 -376h34q23 0 23 -16q0 -25 -32 -25h-75z" />
    <glyph glyph-name="v" unicode="v" 
d="M336 0h-70l-88 376h-41q-23 0 -23 16q0 25 32 25h151q24 0 24 -16q0 -25 -32 -25h-66l79 -335h19l219 335h-69q-23 0 -23 16q0 25 32 25h152q23 0 23 -16q0 -25 -32 -25h-41z" />
    <glyph glyph-name="w" unicode="w" 
d="M442 0h-51l-35 259l-145 -259h-51l-4 376h-19q-23 0 -23 16q0 25 32 25h111q23 0 23 -16q0 -25 -32 -25h-53l4 -320l140 255h52l34 -255l137 320h-50q-23 0 -23 16q0 25 32 25h111q23 0 23 -16q0 -25 -32 -25h-19z" />
    <glyph glyph-name="x" unicode="x" 
d="M375 219l146 -178h10q23 0 23 -16q0 -11 -9 -18t-23 -7h-132q-23 0 -23 16q0 25 32 25h64l-123 149l-188 -149h68q23 0 23 -16q0 -11 -9 -18t-23 -7h-133q-23 0 -23 16q0 25 32 25h9l222 178l-130 157h-7q-23 0 -23 16q0 25 32 25h111q23 0 23 -16q0 -25 -32 -25h-46
l106 -130l165 130h-48q-23 0 -23 16q0 25 32 25h110q23 0 23 -16q0 -25 -32 -25h-6z" />
    <glyph glyph-name="y" unicode="y" 
d="M282 0l-107 376h-16q-24 0 -24 16q0 25 32 25h115q23 0 23 -16q0 -25 -32 -25h-52l94 -331l231 331h-54q-23 0 -23 17q0 24 32 24h110q23 0 23 -16q0 -25 -32 -25h-13l-367 -521h64q24 0 24 -16q0 -11 -9 -18t-23 -7h-233q-23 0 -23 16q0 25 32 25h126z" />
    <glyph glyph-name="z" unicode="z" 
d="M563 417l-8 -36l-375 -340h277l12 56q6 27 27 27q7 0 11.5 -4.5t4.5 -10.5q0 -4 -2 -12l-21 -97h-374l8 36l374 340h-252l-12 -55q-6 -27 -26 -27q-6 0 -11 4.5t-5 10.5q0 23 10 60t12 48h350z" />
    <glyph glyph-name="braceleft" unicode="{" 
d="M363 -124q-44 0 -66.5 20.5t-22.5 57.5q0 15 4 32l31 148q2 9 2 18q0 34 -27.5 51.5t-58.5 17.5q-18 0 -18 14q0 10 7.5 18t18.5 8q36 0 74.5 21.5t47.5 63.5l31 147q11 52 45 81.5t86 29.5q18 0 18 -16q0 -9 -7.5 -16.5t-19.5 -7.5q-25 0 -49 -16.5t-32 -54.5l-31 -147
q-17 -76 -101 -106q59 -20 59 -78q0 -13 -4 -28l-31 -148q-2 -10 -2 -20q0 -26 16.5 -38t37.5 -12q8 0 12.5 -4.5t4.5 -11.5q0 -11 -8 -17.5t-17 -6.5z" />
    <glyph glyph-name="bar" unicode="|" 
d="M442 577l-143 -674q-6 -27 -26 -27q-7 0 -11.5 4.5t-4.5 10.5q0 4 2 12l143 674q6 27 26 27q7 0 11.5 -4.5t4.5 -10.5q0 -4 -2 -12z" />
    <glyph glyph-name="braceright" unicode="}" 
d="M167 -109q0 9 7.5 17t18.5 8q26 0 50 16.5t32 53.5l31 148q18 82 101 106q-58 25 -58 81q0 12 3 25l31 147q2 11 2 20q0 27 -16.5 39t-37.5 12q-7 0 -12 4.5t-5 11.5q0 9 7 16.5t18 7.5q44 0 66 -20.5t22 -57.5q0 -16 -3 -33l-31 -147q-2 -9 -2 -17q0 -34 27.5 -51
t58.5 -17q18 0 18 -16q0 -9 -6 -16.5t-20 -7.5q-36 0 -74 -22t-48 -65l-31 -148q-11 -51 -45 -80.5t-86 -29.5q-18 0 -18 15z" />
    <glyph glyph-name="asciitilde" unicode="~" 
d="M440 253q24 0 48 19.5t42 38.5t28 19q7 0 12 -4.5t5 -10.5q0 -19 -51 -61t-91 -42q-30 0 -57.5 24t-51.5 47.5t-46 23.5q-23 0 -47 -19.5t-42 -38.5t-28 -19q-7 0 -11.5 4.5t-4.5 10.5q0 20 50 61.5t92 41.5q36 0 62 -25l42 -41q31 -29 49 -29z" />
    <glyph glyph-name="nonbreakingspace" unicode="&#xa0;" 
 />
    <glyph glyph-name="exclamdown" unicode="&#xa1;" 
d="M227 -145l88 326q7 28 27 28q6 0 10.5 -4.5t4.5 -10.5q0 -7 -1 -13l-51 -326q-9 -55 -51 -55q-13 0 -22.5 8.5t-9.5 20.5q0 6 5 26zM374 333h-12q-20 0 -33 11t-13 29q0 24 20 42t47 18h12q19 0 31.5 -11t12.5 -28q0 -25 -19.5 -43t-45.5 -18z" />
    <glyph glyph-name="cent" unicode="&#xa2;" 
d="M339 164q48 0 80.5 13t49.5 26t27 13q5 0 10.5 -4.5t5.5 -9.5q0 -28 -62 -50.5t-102 -24.5l-24 -113q-6 -27 -27 -27q-6 0 -11 4.5t-5 10.5t2 12l24 113q-60 8 -96 47.5t-36 98.5q0 72 52 136t158 87l23 107q6 27 26 27q17 0 17 -16q0 -3 -2 -11l-22 -106q63 0 96 -36
q9 17 23 17q17 0 17 -17q0 -5 -1 -8l-13 -61q-6 -29 -26 -29q-4 0 -10 4.5t-6 7.5l2 29q0 3 -2.5 8.5t-10 13.5t-18 15.5t-29.5 12.5t-42 5q-77 0 -134 -54.5t-57 -127.5q0 -48 35.5 -80.5t87.5 -32.5z" />
    <glyph glyph-name="sterling" unicode="&#xa3;" 
d="M413 537q-13 0 -31 -5.5t-41 -19.5t-38.5 -44t-15.5 -72q0 -7 5 -82h99q23 0 23 -16q0 -25 -32 -25h-90q-2 -63 -30 -127.5t-71 -104.5h252q19 0 32 11.5t18 25.5t13 25.5t19 11.5q7 0 11.5 -4.5t4.5 -10.5q0 -24 -29.5 -62t-75.5 -38h-323q-23 0 -23 17q0 10 7.5 16.5
t19.5 6.5q44 1 88 77t47 156h-104q-23 0 -23 17q0 24 32 24h94q-6 47 -6 79q0 75 52.5 130t123.5 55q46 0 79 -27.5t33 -51.5q0 -8 -8 -15.5t-17 -7.5q-7 0 -16.5 15t-28.5 30.5t-50 15.5z" />
    <glyph glyph-name="currency" unicode="&#xa4;" 
d="M233 162l-68 -56q-14 -11 -21 -11q-17 0 -17 16q0 10 15 24l68 56q-17 36 -17 68q0 34 16.5 71t43.5 64l-44 56q-7 8 -7 15q0 9 8 16.5t17 7.5q7 0 17 -11l44 -55q53 35 111 35q56 0 93 -35l67 55q12 11 21 11q17 0 17 -16q0 -12 -15 -23l-67 -56q17 -30 17 -67
q0 -75 -61 -136l44 -56q1 -1 6 -16q0 -8 -8 -16t-18 -8q-8 0 -16 11l-43 56q-52 -35 -110 -35q-53 0 -93 35zM388 417q-59 0 -106 -46t-47 -104q0 -43 28 -71t71 -28q60 0 107.5 46t47.5 104q0 43 -28.5 71t-72.5 28z" />
    <glyph glyph-name="yen" unicode="&#xa5;" 
d="M372 238l-13 -60h131q18 0 18 -11q0 -26 -26 -26h-131l-21 -100h86q23 0 23 -16q0 -11 -9 -18t-23 -7h-213q-23 0 -23 16q0 25 32 25h86l21 100h-130q-19 0 -19 12q0 25 26 25h131l13 60h-131q-18 0 -18 12q0 25 26 25h116l-111 247h-24q-23 0 -23 16q0 25 32 25h110
q23 0 23 -16q0 -25 -32 -25h-39l103 -227l199 227h-39q-23 0 -23 17q0 24 32 24h110q23 0 23 -17q0 -24 -32 -24h-24l-217 -247h118q19 0 19 -11q0 -26 -26 -26h-131z" />
    <glyph glyph-name="brokenbar" unicode="&#xa6;" 
d="M442 577l-57 -267q-6 -27 -25 -27q-7 0 -11.5 4.5t-4.5 10.5q9 54 30 148t28 131q6 27 26 27q7 0 11.5 -4.5t4.5 -10.5q0 -4 -2 -12zM357 182q-9 -54 -30 -148t-28 -131q-6 -27 -26 -27q-7 0 -11.5 4.5t-4.5 10.5q0 4 2 12l56 267q6 27 26 27q7 0 11.5 -4.5t4.5 -10.5z
" />
    <glyph glyph-name="section" unicode="&#xa7;" 
d="M575 202q0 -28 -14 -49t-37 -31t-38.5 -14.5t-32.5 -6.5q5 -13 5 -26q0 -55 -47.5 -96t-112.5 -41h-207l24 111q5 24 25 24q17 0 17 -15q0 -17 -7.5 -46.5t-8.5 -33.5h165q44 0 77 26.5t33 60.5q0 23 -25 48.5t-82 61.5l-57 36q-112 70 -112 134q0 37 35 64.5t87 31.5
q-5 13 -5 27q0 51 48 93t107 42h212l-23 -109q-6 -25 -26 -25q-17 0 -17 14q0 1 1 4t1 7l14 69h-168q-41 0 -74.5 -27.5t-33.5 -61.5q0 -23 26 -47.5t97 -68.5l49 -31q56 -34 80.5 -63.5t24.5 -61.5zM429 139q1 1 19 3t35.5 6t32.5 15.5t15 28.5q0 21 -23 47.5t-63 50.5
l-57 36q-74 46 -102 77q-4 -1 -11 -1h-7q-35 0 -59.5 -15t-24.5 -37q0 -43 101 -107l55 -35q67 -42 89 -69z" />
    <glyph glyph-name="dieresis" unicode="&#xa8;" 
d="M319 611q18 0 29.5 -11.5t11.5 -28.5q0 -23 -19 -41.5t-43 -18.5q-17 0 -28.5 11.5t-11.5 28.5q0 23 19 41.5t42 18.5zM540 611q18 0 29.5 -11.5t11.5 -28.5q0 -23 -19 -41.5t-43 -18.5q-17 0 -28.5 11.5t-11.5 28.5q0 23 19 41.5t42 18.5z" />
    <glyph glyph-name="copyright" unicode="&#xa9;" 
d="M465 189q0 -22 -48 -50t-91 -28q-51 0 -85.5 35t-34.5 86q0 24 8.5 57t27.5 71t57.5 64t89.5 26q42 0 82 -29q6 22 23 22q14 0 14 -14q0 -4 -1 -6l-13 -65q-6 -21 -22 -21q-9 0 -15 11l2 21q0 6 -8.5 16t-27.5 20t-42 10q-42 0 -79.5 -33.5t-47.5 -79.5l-8 -39
q-3 -12 -3 -24q0 -40 26 -66t65 -26q31 0 55.5 13.5t39 27.5t22.5 14q14 0 14 -13zM426 578q103 0 170 -66.5t67 -168.5q0 -139 -113 -248.5t-256 -109.5q-103 0 -170 67t-67 168q0 139 113 248.5t256 109.5zM416 537q-123 0 -220 -94.5t-97 -213.5q0 -88 58 -145.5
t146 -57.5q124 0 221 94.5t97 213.5q0 88 -58 145.5t-147 57.5z" />
    <glyph glyph-name="ordfeminine" unicode="&#xaa;" 
d="M301 528q0 19 41.5 32.5t77.5 13.5q38 0 61 -18.5t23 -49.5q0 -4 -2 -16l-36 -171h26q19 0 19 -14q0 -23 -27 -23h-63l5 26q-59 -29 -113 -29q-39 0 -61.5 17t-22.5 47q0 46 46 79t110 33q27 0 71 -9l9 44q1 4 1 10q0 16 -15.5 26.5t-40.5 10.5q-22 0 -56 -11.5
t-39 -11.5q-6 0 -10 4.5t-4 9.5zM435 350l13 59q-26 11 -69 11q-46 0 -79.5 -21.5t-33.5 -50.5q0 -14 14.5 -23t39.5 -9q57 0 115 34z" />
    <glyph glyph-name="guillemotleft" unicode="&#xab;" 
d="M108 209l250 197q14 11 23 11q16 0 16 -16q0 -10 -15 -24l-179 -168l107 -169q7 -9 7 -15q0 -10 -7.5 -17.5t-17.5 -7.5q-9 0 -18 11zM337 209l249 197q15 11 24 11q16 0 16 -16q0 -10 -15 -24l-179 -168l107 -169q7 -9 7 -15q0 -10 -7.5 -17.5t-17.5 -7.5q-9 0 -18 11z
" />
    <glyph glyph-name="logicalnot" unicode="&#xac;" 
d="M526 183q0 1 1 6t1 6l43 202h-388q-23 0 -23 16q0 25 32 25h429l-52 -243q-5 -27 -27 -27q-6 0 -11 4.5t-5 10.5z" />
    <glyph glyph-name="softhyphen" unicode="&#xad;" 
d="M556 258h-402q-23 0 -23 16q0 25 32 25h402q23 0 23 -16q0 -25 -32 -25z" />
    <glyph glyph-name="registered" unicode="&#xae;" 
d="M288 258l-21 -102h35q17 0 17 -14q0 -9 -7 -15.5t-17 -6.5h-96q-17 0 -17 14q0 9 7 15.5t17 6.5h25l53 251h-24q-17 0 -17 14q0 10 7 16t18 6h137q40 0 64 -20t24 -54t-24.5 -61.5t-64.5 -38.5q21 -21 31 -39.5t30 -73.5h15q16 0 16 -14q0 -9 -7 -15.5t-17 -6.5h-39
q-31 120 -81 138h-64zM296 294h56q46 0 75 19t29 49q0 21 -16 33t-43 12h-77zM426 578q103 0 170 -66.5t67 -168.5q0 -139 -113 -248.5t-256 -109.5q-103 0 -170 67t-67 168q0 139 113 248.5t256 109.5zM416 537q-123 0 -220 -94.5t-97 -213.5q0 -88 58 -145.5t146 -57.5
q124 0 221 94.5t97 213.5q0 88 -58 145.5t-147 57.5z" />
    <glyph glyph-name="macron" unicode="&#xaf;" 
d="M532 536h-236q-23 0 -23 16q0 24 32 24h236q23 0 23 -16q0 -24 -32 -24z" />
    <glyph glyph-name="degree" unicode="&#xb0;" 
d="M437 636q50 0 83 -32.5t33 -82.5q0 -67 -55 -121t-123 -54q-52 0 -85 32.5t-33 83.5q0 67 55 120.5t125 53.5zM428 595q-50 0 -89.5 -38t-39.5 -87q0 -37 23.5 -60t60.5 -23q50 0 89 38.5t39 87.5q0 35 -23.5 58.5t-59.5 23.5z" />
    <glyph glyph-name="plusminus" unicode="&#xb1;" 
d="M384 301l-34 -162q-6 -27 -26 -27q-7 0 -12 4.5t-5 10.5q0 4 2 12l34 162h-180q-23 0 -23 16q0 24 31 24h181l34 161q6 27 27 27q6 0 11 -4.5t5 -10.5t-2 -12l-34 -161h180q24 0 24 -16q0 -24 -32 -24h-181zM108 40h402q23 0 23 -16q0 -24 -32 -24h-402q-23 0 -23 16
q0 24 32 24z" />
    <glyph glyph-name="twosuperior" unicode="&#xb2;" 
d="M297 521q0 21 39 56t91 35q36 0 61.5 -24t25.5 -58q0 -28 -15 -50.5t-58 -59t-159 -125.5h150q8 23 23 23q14 0 14 -14q0 -10 -4 -24.5t-5 -20.5h-230l9 43l158 123q51 42 65.5 59.5t14.5 38.5q0 22 -17.5 37.5t-41.5 15.5q-25 0 -44 -10.5t-28 -23.5t-18.5 -23.5
t-16.5 -10.5q-5 0 -9.5 4t-4.5 9z" />
    <glyph glyph-name="threesuperior" unicode="&#xb3;" 
d="M516 538q0 -56 -64 -92q42 -28 42 -70q0 -48 -45 -86.5t-101 -38.5q-35 0 -69 16.5t-34 32.5q0 8 6.5 14.5t14.5 6.5q5 0 15.5 -8.5t29 -17t45.5 -8.5q39 0 70 26t31 58q0 26 -21.5 42.5t-55.5 17.5q-18 1 -18 15q0 9 7 15t18 6h15q32 0 54.5 19t22.5 45q0 20 -15.5 32.5
t-41.5 12.5q-27 0 -46 -9t-29.5 -18.5t-17.5 -9.5q-14 0 -14 14q0 19 39 39t76 20q38 0 62 -20.5t24 -53.5z" />
    <glyph glyph-name="acute" unicode="&#xb4;" 
d="M560 599l-135 -100q-13 -9 -20 -9q-17 0 -17 16q0 11 17 24l135 100q13 9 21 9q16 0 16 -16q0 -12 -17 -24z" />
    <glyph glyph-name="micro" unicode="&#xb5;" 
d="M169 16l-40 -189q-6 -27 -27 -27q-7 0 -11.5 4.5t-4.5 10.5q0 2 2 12l117 550h-55q-23 0 -23 16q0 24 32 24h95l-64 -302q-3 -12 -3 -21q0 -33 19.5 -51.5t53.5 -18.5q103 0 204 91l56 262h-75q-24 0 -24 16q0 24 33 24h115l-80 -377h34q23 0 23 -16q0 -24 -32 -24h-75
l13 59q-96 -75 -198 -75q-54 0 -85 32z" />
    <glyph glyph-name="paragraph" unicode="&#xb6;" 
d="M340 260q-81 5 -129 37.5t-48 88.5q0 10 3 20l10 47q14 67 83.5 109t167.5 42h200q21 0 21 -16q0 -25 -30 -25h-61l-124 -584h62q22 0 22 -16q0 -25 -30 -25h-99q-21 0 -21 17q0 9 7.5 16t18.5 8l124 584h-72l-124 -584q17 -2 17 -16q0 -25 -30 -25h-134q-22 0 -22 16
q0 25 30 25h98zM403 558q-50 -3 -85.5 -22.5t-52 -46.5t-23.5 -49t-7 -40v-4q0 -33 33 -58.5t82 -30.5z" />
    <glyph glyph-name="middot" unicode="&#xb7;" 
d="M360 287q18 0 29.5 -11.5t11.5 -28.5q0 -23 -19 -41.5t-43 -18.5q-17 0 -28.5 11.5t-11.5 28.5q0 23 19 41.5t42 18.5z" />
    <glyph glyph-name="cedilla" unicode="&#xb8;" 
d="M205 -114q4 0 25 -10.5t38 -10.5q22 0 36.5 9.5t14.5 24.5q0 20 -41 20h-21l17 81h38l-10 -47q54 -1 54 -46q0 -34 -27 -57t-67 -23q-28 0 -54.5 11.5t-26.5 23.5q0 10 7 17t17 7z" />
    <glyph glyph-name="onesuperior" unicode="&#xb9;" 
d="M449 612l-68 -317h71q17 0 17 -14q0 -9 -7 -15.5t-17 -6.5h-179q-17 0 -17 14q0 22 36 22h60l57 268l-69 -21q-3 -1 -10 -1q-5 0 -9 4.5t-4 9.5q0 13 16 20t77 24q29 8 46 13z" />
    <glyph glyph-name="ordmasculine" unicode="&#xba;" 
d="M424 577q53 0 86 -32.5t33 -84.5q0 -68 -56 -122t-127 -54q-50 0 -83.5 33t-33.5 83q0 68 55.5 122.5t125.5 54.5zM416 540q-52 0 -93.5 -40.5t-41.5 -91.5q0 -38 25 -62.5t63 -24.5q53 0 94.5 40.5t41.5 91.5q0 38 -25 62.5t-64 24.5z" />
    <glyph glyph-name="guillemotright" unicode="&#xbb;" 
d="M355 208l-248 -197q-14 -11 -24 -11q-16 0 -16 16q0 10 15 24l178 168l-106 169q-7 11 -7 15q0 10 7.5 17.5t17.5 7.5q9 0 18 -11zM585 208l-249 -197q-14 -11 -23 -11q-16 0 -16 16q0 9 15 24l178 168l-106 169q-7 9 -7 15q0 10 7.5 17.5t17.5 7.5q9 0 18 -11z" />
    <glyph glyph-name="onequarter" unicode="&#xbc;" 
d="M274 612l-68 -317h71q18 0 18 -14q0 -9 -7.5 -15.5t-17.5 -6.5h-179q-17 0 -17 14q0 23 35 23q38 0 61 -1l57 268l-69 -21q-4 -1 -10 -1q-5 0 -9 4.5t-4 9.5q0 13 17.5 20t121.5 37zM593 477l-439 -414q-12 -12 -21 -12q-16 0 -16 16q0 9 13 21l439 414q13 12 20 12
q16 0 16 -16q0 -10 -12 -21zM529 93h-149l8 34l174 218h57l-46 -216h13q18 0 18 -14q0 -22 -39 -22l-12 -57h14q17 0 17 -14q0 -9 -7.5 -15.5t-17.5 -6.5h-86q-17 0 -17 14q0 22 42 22h19zM537 129l38 180l-146 -180h108z" />
    <glyph glyph-name="onehalf" unicode="&#xbd;" 
d="M587 477l-439 -414q-12 -12 -21 -12q-16 0 -16 16q0 9 13 21l438 414q14 12 21 12q16 0 16 -16q0 -9 -12 -21zM281 612l-67 -317h71q17 0 17 -14q0 -9 -7 -15.5t-17 -6.5h-179q-17 0 -17 14q0 23 35 23q38 0 61 -1l57 268l-69 -21q-4 -1 -10 -1q-5 0 -9 4.5t-4 9.5
q0 13 17.5 20t120.5 37zM410 262q0 20 39.5 55.5t90.5 35.5q36 0 61.5 -24t25.5 -58q0 -28 -15 -50.5t-58 -59t-159 -125.5h150q8 23 23 23q14 0 14 -16v-4l-9 -39h-230l10 43l157 123q51 42 65.5 59.5t14.5 38.5q0 22 -17.5 37.5t-41.5 15.5q-25 0 -44 -10.5t-28 -23.5
t-18.5 -23.5t-16.5 -10.5q-5 0 -9.5 4t-4.5 9z" />
    <glyph glyph-name="threequarters" unicode="&#xbe;" 
d="M91 321q5 0 15.5 -8.5t29 -17t45.5 -8.5q39 0 70 26t31 58q0 26 -21.5 42.5t-55.5 17.5q-18 1 -18 15q0 9 7 15t18 6h16q31 0 53.5 19t22.5 45q0 20 -15.5 32.5t-41.5 12.5q-27 0 -46 -9t-29.5 -18.5t-17.5 -9.5q-14 0 -14 14q0 19 39 39t76 20q38 0 62 -20.5t24 -53.5
q0 -54 -64 -92q42 -28 42 -70q0 -48 -45 -86.5t-101 -38.5q-35 0 -69 16.5t-34 32.5q0 8 6.5 14.5t14.5 6.5zM592 477l-439 -414q-12 -12 -21 -12q-16 0 -16 16q0 8 13 21l439 414q13 12 20 12q16 0 16 -16q0 -10 -12 -21zM530 93h-149l7 34l174 218h57l-46 -216h13
q18 0 18 -14q0 -22 -39 -22l-12 -57h14q17 0 17 -14q0 -9 -7.5 -15.5t-17.5 -6.5h-86q-17 0 -17 14q0 22 42 22h19zM537 129l38 180l-146 -180h108z" />
    <glyph glyph-name="questiondown" unicode="&#xbf;" 
d="M105 -53q0 66 46.5 112t159.5 96l9 41q6 27 26 27q7 0 11.5 -4.5t4.5 -10.5q0 -18 -7.5 -47t-8.5 -33q-107 -41 -153 -80.5t-46 -89.5q0 -42 32.5 -67t87.5 -25q60 0 137 34q0 1 2 15t3.5 19.5t5 15.5t9.5 14t14 4q17 0 17 -16q0 -1 -2 -11l-14 -67q-76 -32 -112.5 -40.5
t-73.5 -8.5q-69 0 -108.5 32.5t-39.5 89.5zM381 317h-28q-47 0 -47 40q0 25 20 42.5t48 17.5h28q22 0 34.5 -10.5t12.5 -29.5q0 -25 -20 -42.5t-48 -17.5z" />
    <glyph glyph-name="Agrave" unicode="&#xc0;" 
d="M345 763l92 -100q2 -1 5.5 -7.5t3.5 -8.5q0 -9 -8.5 -16.5t-17.5 -7.5q-7 0 -16 9l-93 100q-8 10 -8 15q0 10 8 17.5t18 7.5q7 0 16 -9zM468 188h-265l-86 -147h79q23 0 23 -16q0 -11 -9 -18t-23 -7h-151q-23 0 -23 17q0 24 32 24h31l281 481h-120q-23 0 -23 16
q0 25 32 25h203l87 -522h37q23 0 23 -16q0 -25 -32 -25h-156q-23 0 -23 16q0 25 32 25h76zM462 229l-50 293h-15l-170 -293h235z" />
    <glyph glyph-name="Aacute" unicode="&#xc1;" 
d="M533 734l-135 -100q-13 -9 -20 -9q-17 0 -17 16q0 11 17 24l135 100q13 9 21 9q16 0 16 -16q0 -12 -17 -24zM468 188h-265l-86 -147h79q23 0 23 -16q0 -11 -9 -18t-23 -7h-151q-23 0 -23 17q0 24 32 24h31l281 481h-120q-23 0 -23 16q0 25 32 25h203l87 -522h37
q23 0 23 -16q0 -25 -32 -25h-156q-23 0 -23 16q0 25 32 25h76zM462 229l-50 293h-15l-170 -293h235z" />
    <glyph glyph-name="Acircumflex" unicode="&#xc2;" 
d="M436 744l109 -108q9 -10 9 -16q0 -10 -7.5 -17.5t-17.5 -7.5q-6 0 -16 8l-88 88l-127 -88q-11 -8 -19 -8q-16 0 -16 16q0 10 18 24zM468 188h-265l-86 -147h79q23 0 23 -16q0 -11 -9 -18t-23 -7h-151q-23 0 -23 17q0 24 32 24h31l281 481h-120q-23 0 -23 16q0 25 32 25
h203l87 -522h37q23 0 23 -16q0 -25 -32 -25h-156q-23 0 -23 16q0 25 32 25h76zM462 229l-50 293h-15l-170 -293h235z" />
    <glyph glyph-name="Atilde" unicode="&#xc3;" 
d="M480 656q19 0 46.5 23t35.5 23q7 0 12 -4.5t5 -11.5q0 -13 -37 -42t-69 -29q-25 0 -64 24t-50 24q-24 0 -49 -22.5t-36 -22.5q-16 0 -16 15t37.5 43t70.5 28q22 0 62 -24t52 -24zM468 188h-265l-86 -147h79q23 0 23 -16q0 -11 -9 -18t-23 -7h-151q-23 0 -23 17
q0 24 32 24h31l281 481h-120q-23 0 -23 16q0 25 32 25h203l87 -522h37q23 0 23 -16q0 -25 -32 -25h-156q-23 0 -23 16q0 25 32 25h76zM462 229l-50 293h-15l-170 -293h235z" />
    <glyph glyph-name="Adieresis" unicode="&#xc4;" 
d="M319 714q18 0 29.5 -11.5t11.5 -28.5q0 -23 -19 -41.5t-43 -18.5q-17 0 -28.5 11.5t-11.5 28.5q0 23 19 41.5t42 18.5zM540 714q18 0 29.5 -11.5t11.5 -28.5q0 -23 -19 -41.5t-43 -18.5q-17 0 -28.5 11.5t-11.5 28.5q0 23 19 41.5t42 18.5zM468 188h-265l-86 -147h79
q23 0 23 -16q0 -11 -9 -18t-23 -7h-151q-23 0 -23 17q0 24 32 24h31l281 481h-120q-23 0 -23 16q0 25 32 25h203l87 -522h37q23 0 23 -16q0 -25 -32 -25h-156q-23 0 -23 16q0 25 32 25h76zM462 229l-50 293h-15l-170 -293h235z" />
    <glyph glyph-name="Aring" unicode="&#xc5;" 
d="M450 783q33 0 54.5 -20.5t21.5 -51.5q0 -42 -35 -75.5t-79 -33.5q-33 0 -54.5 20.5t-21.5 51.5q0 42 35 75.5t79 33.5zM443 750q-28 0 -50.5 -21.5t-22.5 -47.5q0 -20 14 -33t35 -13q29 0 51 21t22 48q0 20 -14 33t-35 13zM468 188h-265l-86 -147h79q23 0 23 -16
q0 -11 -9 -18t-23 -7h-151q-23 0 -23 17q0 24 32 24h31l281 481h-120q-23 0 -23 16q0 25 32 25h203l87 -522h37q23 0 23 -16q0 -25 -32 -25h-156q-23 0 -23 16q0 25 32 25h76zM462 229l-50 293h-15l-170 -293h235z" />
    <glyph glyph-name="AE" unicode="&#xc6;" 
d="M337 189h-141l-72 -148h26q23 0 23 -16q0 -25 -32 -25h-104q-23 0 -23 16q0 25 32 25h37l235 481h-63q-23 0 -23 16q0 25 32 25h426l-32 -152q-6 -27 -27 -27q-7 0 -11.5 4.5t-4.5 10.5q0 4 2 12l23 111h-191l-44 -208h78q1 3 3 13.5t3.5 15.5t5 12.5t8.5 10.5t12 3
t11.5 -4.5t4.5 -10.5q0 -4 -2 -12l-20 -96q-6 -27 -26 -27q-16 0 -16 16q0 5 1 11.5t3 14.5l3 12h-78l-49 -232h211l20 93q3 26 26 26q16 0 16 -16q0 -30 -13.5 -79t-16.5 -65h-345q-23 0 -23 17q0 24 32 24h52zM346 230l62 292h-50l-142 -292h130z" />
    <glyph glyph-name="Ccedilla" unicode="&#xc7;" 
d="M558 111q0 -15 -34.5 -45t-91 -56t-105.5 -26h-13l-7 -31q54 -1 54 -46q0 -34 -27 -57t-67 -23q-28 0 -54.5 11.5t-26.5 23.5q0 10 7.5 17t16.5 7q4 0 25 -10.5t38 -10.5q22 0 36.5 9.5t14.5 24.5q0 20 -41 20h-21l15 69q-86 23 -126.5 81t-40.5 127q0 21 5 46l17 83
q20 94 105.5 172.5t190.5 78.5q101 0 158 -69q1 2 3 13.5t3.5 16t5 12.5t8.5 11t12 3q17 0 17 -15q0 -2 -2 -12l-24 -112q-5 -28 -26 -28q-9 0 -17 12l4 38q0 7 -9.5 21t-27 30t-48 27.5t-66.5 11.5q-83 0 -155.5 -64t-91.5 -153l-15 -71q-5 -25 -5 -45q0 -77 50 -127.5
t126 -50.5q98 0 194 90q10 10 20 10q16 0 16 -14z" />
    <glyph glyph-name="Egrave" unicode="&#xc8;" 
d="M345 763l92 -100q2 -1 5.5 -7.5t3.5 -8.5q0 -9 -8.5 -16.5t-17.5 -7.5q-7 0 -16 9l-93 100q-8 10 -8 15q0 10 8 17.5t18 7.5q7 0 16 -9zM223 272l-49 -231h314l25 119q6 27 27 27q7 0 11.5 -4.5t4.5 -10.5q0 -2 -2 -12l-34 -160h-450q-23 0 -23 17q0 24 32 24h54l102 481
h-54q-23 0 -23 17q0 24 32 24h429l-30 -139q-5 -27 -26 -27q-7 0 -11.5 4.5t-4.5 10.5q0 24 10 61.5t12 48.5h-293l-44 -209h145l9 45q6 27 26 27q17 0 17 -15q0 -4 -2 -12l-28 -131q-5 -27 -26 -27q-7 0 -11.5 4.5t-4.5 10.5q0 12 5 32t6 25h-145z" />
    <glyph glyph-name="Eacute" unicode="&#xc9;" 
d="M533 734l-135 -100q-13 -9 -20 -9q-17 0 -17 16q0 11 17 24l135 100q13 9 21 9q16 0 16 -16q0 -12 -17 -24zM223 272l-49 -231h314l25 119q6 27 27 27q7 0 11.5 -4.5t4.5 -10.5q0 -2 -2 -12l-34 -160h-450q-23 0 -23 17q0 24 32 24h54l102 481h-54q-23 0 -23 17
q0 24 32 24h429l-30 -139q-5 -27 -26 -27q-7 0 -11.5 4.5t-4.5 10.5q0 24 10 61.5t12 48.5h-293l-44 -209h145l9 45q6 27 26 27q17 0 17 -15q0 -4 -2 -12l-28 -131q-5 -27 -26 -27q-7 0 -11.5 4.5t-4.5 10.5q0 12 5 32t6 25h-145z" />
    <glyph glyph-name="Ecircumflex" unicode="&#xca;" 
d="M436 744l109 -108q9 -10 9 -16q0 -10 -7.5 -17.5t-17.5 -7.5q-6 0 -16 8l-88 88l-127 -88q-11 -8 -19 -8q-16 0 -16 16q0 10 18 24zM223 272l-49 -231h314l25 119q6 27 27 27q7 0 11.5 -4.5t4.5 -10.5q0 -2 -2 -12l-34 -160h-450q-23 0 -23 17q0 24 32 24h54l102 481h-54
q-23 0 -23 17q0 24 32 24h429l-30 -139q-5 -27 -26 -27q-7 0 -11.5 4.5t-4.5 10.5q0 24 10 61.5t12 48.5h-293l-44 -209h145l9 45q6 27 26 27q17 0 17 -15q0 -4 -2 -12l-28 -131q-5 -27 -26 -27q-7 0 -11.5 4.5t-4.5 10.5q0 12 5 32t6 25h-145z" />
    <glyph glyph-name="Edieresis" unicode="&#xcb;" 
d="M319 714q18 0 29.5 -11.5t11.5 -28.5q0 -23 -19 -41.5t-43 -18.5q-17 0 -28.5 11.5t-11.5 28.5q0 23 19 41.5t42 18.5zM540 714q18 0 29.5 -11.5t11.5 -28.5q0 -23 -19 -41.5t-43 -18.5q-17 0 -28.5 11.5t-11.5 28.5q0 23 19 41.5t42 18.5zM223 272l-49 -231h314l25 119
q6 27 27 27q7 0 11.5 -4.5t4.5 -10.5q0 -2 -2 -12l-34 -160h-450q-23 0 -23 17q0 24 32 24h54l102 481h-54q-23 0 -23 17q0 24 32 24h429l-30 -139q-5 -27 -26 -27q-7 0 -11.5 4.5t-4.5 10.5q0 24 10 61.5t12 48.5h-293l-44 -209h145l9 45q6 27 26 27q17 0 17 -15
q0 -4 -2 -12l-28 -131q-5 -27 -26 -27q-7 0 -11.5 4.5t-4.5 10.5q0 12 5 32t6 25h-145z" />
    <glyph glyph-name="Igrave" unicode="&#xcc;" 
d="M345 763l92 -100q2 -1 5.5 -7.5t3.5 -8.5q0 -9 -8.5 -16.5t-17.5 -7.5q-7 0 -16 9l-93 100q-8 10 -8 15q0 10 8 17.5t18 7.5q7 0 16 -9zM431 522l-102 -481h139q24 0 24 -16q0 -11 -9 -18t-23 -7h-320q-23 0 -23 16q0 25 31 25h140l102 481h-139q-23 0 -23 16q0 25 31 25
h320q24 0 24 -16q0 -11 -9 -18t-23 -7h-140z" />
    <glyph glyph-name="Iacute" unicode="&#xcd;" 
d="M533 734l-135 -100q-13 -9 -20 -9q-17 0 -17 16q0 11 17 24l135 100q13 9 21 9q16 0 16 -16q0 -12 -17 -24zM431 522l-102 -481h139q24 0 24 -16q0 -11 -9 -18t-23 -7h-320q-23 0 -23 16q0 25 31 25h140l102 481h-139q-23 0 -23 16q0 25 31 25h320q24 0 24 -16
q0 -11 -9 -18t-23 -7h-140z" />
    <glyph glyph-name="Icircumflex" unicode="&#xce;" 
d="M468 744l109 -108q9 -10 9 -16q0 -10 -7.5 -17.5t-17.5 -7.5q-6 0 -16 8l-88 88l-127 -88q-11 -8 -19 -8q-16 0 -16 16q0 10 18 24zM431 522l-102 -481h139q24 0 24 -16q0 -11 -9 -18t-23 -7h-320q-23 0 -23 16q0 25 31 25h140l102 481h-139q-23 0 -23 16q0 25 31 25h320
q24 0 24 -16q0 -11 -9 -18t-23 -7h-140z" />
    <glyph glyph-name="Idieresis" unicode="&#xcf;" 
d="M343 714q18 0 29.5 -11.5t11.5 -28.5q0 -23 -19 -41.5t-43 -18.5q-17 0 -28.5 11.5t-11.5 28.5q0 23 19 41.5t42 18.5zM564 714q18 0 29.5 -11.5t11.5 -28.5q0 -23 -19 -41.5t-43 -18.5q-17 0 -28.5 11.5t-11.5 28.5q0 23 19 41.5t42 18.5zM431 522l-102 -481h139
q24 0 24 -16q0 -11 -9 -18t-23 -7h-320q-23 0 -23 16q0 25 31 25h140l102 481h-139q-23 0 -23 16q0 25 31 25h320q24 0 24 -16q0 -11 -9 -18t-23 -7h-140z" />
    <glyph glyph-name="Eth" unicode="&#xd0;" 
d="M162 272h-77q-23 0 -23 16q0 25 32 25h77l44 209h-34q-23 0 -23 16q0 25 32 25h220q80 0 131 -55.5t51 -141.5q0 -28 -6 -56l-12 -56q-23 -104 -106.5 -179t-177.5 -75h-220q-23 0 -23 16q0 25 32 25h34zM551 357q0 27 -7 53.5t-23 52.5t-47.5 42.5t-74.5 16.5h-143
l-44 -209h162q23 0 23 -16q0 -25 -32 -25h-162l-49 -231h149q71 0 141.5 62.5t86.5 141.5l16 74q4 16 4 38z" />
    <glyph glyph-name="Ntilde" unicode="&#xd1;" 
d="M480 656q19 0 46.5 23t35.5 23q7 0 12 -4.5t5 -11.5q0 -13 -37 -42t-69 -29q-25 0 -64 24t-50 24q-24 0 -49 -22.5t-36 -22.5q-16 0 -16 15t37.5 43t70.5 28q22 0 62 -24t52 -24zM501 0h-52l-198 504l-98 -463h74q24 0 24 -16q0 -11 -9 -18t-23 -7h-150q-23 0 -23 17
q0 24 32 24h34l102 481h-54q-23 0 -23 17q0 24 32 24h106l198 -504l98 463h-74q-24 0 -24 16q0 25 32 25h150q23 0 23 -16q0 -25 -32 -25h-34z" />
    <glyph glyph-name="Ograve" unicode="&#xd2;" 
d="M345 763l92 -100q2 -1 5.5 -7.5t3.5 -8.5q0 -9 -8.5 -16.5t-17.5 -7.5q-7 0 -16 9l-93 100q-8 10 -8 15q0 10 8 17.5t18 7.5q7 0 16 -9zM422 576q86 0 140 -61t54 -158q0 -94 -45 -181t-119.5 -139.5t-155.5 -52.5q-86 0 -140 61.5t-54 161.5q0 93 45.5 178.5t120 138
t154.5 52.5zM415 535q-103 0 -187 -98.5t-84 -220.5q0 -83 45 -137t113 -54q104 0 188 98.5t84 221.5q0 82 -45 136t-114 54z" />
    <glyph glyph-name="Oacute" unicode="&#xd3;" 
d="M533 734l-135 -100q-13 -9 -20 -9q-17 0 -17 16q0 11 17 24l135 100q13 9 21 9q16 0 16 -16q0 -12 -17 -24zM422 576q86 0 140 -61t54 -158q0 -94 -45 -181t-119.5 -139.5t-155.5 -52.5q-86 0 -140 61.5t-54 161.5q0 93 45.5 178.5t120 138t154.5 52.5zM415 535
q-103 0 -187 -98.5t-84 -220.5q0 -83 45 -137t113 -54q104 0 188 98.5t84 221.5q0 82 -45 136t-114 54z" />
    <glyph glyph-name="Ocircumflex" unicode="&#xd4;" 
d="M454 744l109 -108q9 -10 9 -16q0 -10 -7.5 -17.5t-17.5 -7.5q-6 0 -16 8l-88 88l-127 -88q-11 -8 -19 -8q-16 0 -16 16q0 10 18 24zM422 576q86 0 140 -61t54 -158q0 -94 -45 -181t-119.5 -139.5t-155.5 -52.5q-86 0 -140 61.5t-54 161.5q0 93 45.5 178.5t120 138
t154.5 52.5zM415 535q-103 0 -187 -98.5t-84 -220.5q0 -83 45 -137t113 -54q104 0 188 98.5t84 221.5q0 82 -45 136t-114 54z" />
    <glyph glyph-name="Otilde" unicode="&#xd5;" 
d="M507 656q19 0 46.5 23t35.5 23q7 0 12 -4.5t5 -11.5q0 -13 -37 -42t-69 -29q-25 0 -64 24t-50 24q-24 0 -49 -22.5t-36 -22.5q-16 0 -16 15t37.5 43t70.5 28q22 0 62 -24t52 -24zM422 576q86 0 140 -61t54 -158q0 -94 -45 -181t-119.5 -139.5t-155.5 -52.5
q-86 0 -140 61.5t-54 161.5q0 93 45.5 178.5t120 138t154.5 52.5zM415 535q-103 0 -187 -98.5t-84 -220.5q0 -83 45 -137t113 -54q104 0 188 98.5t84 221.5q0 82 -45 136t-114 54z" />
    <glyph glyph-name="Odieresis" unicode="&#xd6;" 
d="M355 714q18 0 29.5 -11.5t11.5 -28.5q0 -23 -19 -41.5t-43 -18.5q-17 0 -28.5 11.5t-11.5 28.5q0 23 19 41.5t42 18.5zM576 714q18 0 29.5 -11.5t11.5 -28.5q0 -23 -19 -41.5t-43 -18.5q-17 0 -28.5 11.5t-11.5 28.5q0 23 19 41.5t42 18.5zM422 576q86 0 140 -61t54 -158
q0 -94 -45 -181t-119.5 -139.5t-155.5 -52.5q-86 0 -140 61.5t-54 161.5q0 93 45.5 178.5t120 138t154.5 52.5zM415 535q-103 0 -187 -98.5t-84 -220.5q0 -83 45 -137t113 -54q104 0 188 98.5t84 221.5q0 82 -45 136t-114 54z" />
    <glyph glyph-name="multiply" unicode="&#xd7;" 
d="M366 311l173 142q14 11 21 11q17 0 17 -17q0 -11 -15 -23l-173 -142l112 -143q7 -9 7 -15q0 -9 -8 -16.5t-18 -7.5q-7 0 -16 10l-112 143l-173 -143q-13 -10 -22 -10q-16 0 -16 16q0 10 15 23l173 143l-112 142q-7 9 -7 16q0 9 8 16.5t18 7.5q8 0 16 -11z" />
    <glyph glyph-name="Oslash" unicode="&#xd8;" 
d="M152 51l-83 -82q-12 -12 -21 -12q-14 0 -14 14q0 8 12 20l88 87q-32 58 -32 129q0 142 99 255.5t222 113.5q86 0 143 -66l84 83q12 12 20 12q15 0 15 -14q0 -8 -12 -20l-88 -88q31 -56 31 -129q0 -142 -98.5 -256t-221.5 -114q-91 0 -144 67zM167 112l366 364
q-47 59 -117 59q-103 0 -187.5 -98.5t-84.5 -219.5q0 -58 23 -105zM551 449l-366 -365q47 -59 117 -59q104 0 188 98.5t84 220.5q0 57 -23 105z" />
    <glyph glyph-name="Ugrave" unicode="&#xd9;" 
d="M345 763l92 -100q2 -1 5.5 -7.5t3.5 -8.5q0 -9 -8.5 -16.5t-17.5 -7.5q-7 0 -16 9l-93 100q-8 10 -8 15q0 10 8 17.5t18 7.5q7 0 16 -9zM610 522l-71 -337q-18 -85 -88 -143t-154 -58q-72 0 -116.5 43t-44.5 113q0 20 5 45l71 337h-33q-24 0 -24 16q0 25 32 25h150
q22 0 22 -16q0 -25 -31 -25h-75l-71 -337q-4 -16 -4 -34q0 -56 35.5 -91t91.5 -35q67 0 123 46.5t70 113.5l71 337h-74q-23 0 -23 17q0 24 32 24h149q23 0 23 -16q0 -25 -32 -25h-34z" />
    <glyph glyph-name="Uacute" unicode="&#xda;" 
d="M533 734l-135 -100q-13 -9 -20 -9q-17 0 -17 16q0 11 17 24l135 100q13 9 21 9q16 0 16 -16q0 -12 -17 -24zM610 522l-71 -337q-18 -85 -88 -143t-154 -58q-72 0 -116.5 43t-44.5 113q0 20 5 45l71 337h-33q-24 0 -24 16q0 25 32 25h150q22 0 22 -16q0 -25 -31 -25h-75
l-71 -337q-4 -16 -4 -34q0 -56 35.5 -91t91.5 -35q67 0 123 46.5t70 113.5l71 337h-74q-23 0 -23 17q0 24 32 24h149q23 0 23 -16q0 -25 -32 -25h-34z" />
    <glyph glyph-name="Ucircumflex" unicode="&#xdb;" 
d="M436 744l109 -108q9 -10 9 -16q0 -10 -7.5 -17.5t-17.5 -7.5q-6 0 -16 8l-88 88l-127 -88q-11 -8 -19 -8q-16 0 -16 16q0 10 18 24zM610 522l-71 -337q-18 -85 -88 -143t-154 -58q-72 0 -116.5 43t-44.5 113q0 20 5 45l71 337h-33q-24 0 -24 16q0 25 32 25h150
q22 0 22 -16q0 -25 -31 -25h-75l-71 -337q-4 -16 -4 -34q0 -56 35.5 -91t91.5 -35q67 0 123 46.5t70 113.5l71 337h-74q-23 0 -23 17q0 24 32 24h149q23 0 23 -16q0 -25 -32 -25h-34z" />
    <glyph glyph-name="Udieresis" unicode="&#xdc;" 
d="M319 714q18 0 29.5 -11.5t11.5 -28.5q0 -23 -19 -41.5t-43 -18.5q-17 0 -28.5 11.5t-11.5 28.5q0 23 19 41.5t42 18.5zM540 714q18 0 29.5 -11.5t11.5 -28.5q0 -23 -19 -41.5t-43 -18.5q-17 0 -28.5 11.5t-11.5 28.5q0 23 19 41.5t42 18.5zM610 522l-71 -337
q-18 -85 -88 -143t-154 -58q-72 0 -116.5 43t-44.5 113q0 20 5 45l71 337h-33q-24 0 -24 16q0 25 32 25h150q22 0 22 -16q0 -25 -31 -25h-75l-71 -337q-4 -16 -4 -34q0 -56 35.5 -91t91.5 -35q67 0 123 46.5t70 113.5l71 337h-74q-23 0 -23 17q0 24 32 24h149q23 0 23 -16
q0 -25 -32 -25h-34z" />
    <glyph glyph-name="Yacute" unicode="&#xdd;" 
d="M533 734l-135 -100q-13 -9 -20 -9q-17 0 -17 16q0 11 17 24l135 100q13 9 21 9q16 0 16 -16q0 -12 -17 -24zM376 254l-45 -213h105q23 0 23 -16q0 -25 -32 -25h-251q-23 0 -23 16q0 25 32 25h105l45 213l-122 268h-24q-23 0 -23 16q0 25 32 25h111q23 0 23 -16
q0 -25 -32 -25h-38l104 -227l198 227h-41q-24 0 -24 16q0 25 33 25h110q23 0 23 -17q0 -11 -9 -17.5t-23 -6.5h-23z" />
    <glyph glyph-name="Thorn" unicode="&#xde;" 
d="M193 131l-19 -90h138q24 0 24 -16q0 -11 -9 -18t-23 -7h-234q-23 0 -23 17q0 24 32 24h54l102 481h-54q-23 0 -23 17q0 24 32 24h233q24 0 24 -16q0 -25 -32 -25h-139l-13 -59h145q69 0 113.5 -37t44.5 -95q0 -80 -72.5 -140t-169.5 -60h-131zM202 172h134q74 0 131 45.5
t57 103.5q0 44 -34 72.5t-86 28.5h-149z" />
    <glyph glyph-name="germandbls" unicode="&#xdf;" 
d="M355 375q17 0 41.5 8t49.5 33.5t25 63.5q0 36 -24 59.5t-61 23.5q-43 0 -77.5 -25t-41.5 -62l-93 -435h15q23 0 23 -16q0 -11 -9 -18t-23 -7h-110q-23 0 -23 16q0 25 32 25h54l92 435q11 53 61.5 90.5t109.5 37.5q52 0 84.5 -32.5t32.5 -84.5q0 -80 -82 -128
q108 -49 108 -153q0 -76 -51.5 -149t-126.5 -73q-40 0 -61.5 24.5t-21.5 70.5q0 45 28 45q16 0 16 -15q0 -3 -1 -12t-1 -14q0 -58 51 -58q47 0 86.5 55t39.5 120q0 55 -43 94.5t-104 39.5h-4q-24 0 -24 16q0 11 8 18t20 7h5z" />
    <glyph glyph-name="agrave" unicode="&#xe0;" 
d="M345 641l92 -100q2 -1 5.5 -7.5t3.5 -8.5q0 -9 -8.5 -16.5t-17.5 -7.5q-7 0 -16 9l-93 100q-8 10 -8 15q0 10 8 17.5t18 7.5q7 0 16 -9zM205 374q0 24 73.5 40.5t112.5 16.5q61 0 99 -28t38 -72q0 -15 -2 -23l-57 -267h54q23 0 23 -16q0 -25 -32 -25h-95l14 67
q-106 -83 -208 -83q-62 0 -97 27.5t-35 75.5q0 73 70.5 122t174.5 49q58 0 132 -21l15 71q1 5 1 14q0 31 -29 49.5t-78 18.5q-45 0 -98 -16t-61 -16q-6 0 -10.5 4.5t-4.5 11.5zM443 112l19 90q-58 15 -125 15q-86 0 -144 -34.5t-58 -86.5q0 -34 25 -52.5t71 -18.5
q54 0 102 19.5t110 67.5z" />
    <glyph glyph-name="aacute" unicode="&#xe1;" 
d="M508 589l-135 -100q-13 -9 -20 -9q-17 0 -17 16q0 11 17 24l135 100q13 9 21 9q16 0 16 -16q0 -12 -17 -24zM205 374q0 24 73.5 40.5t112.5 16.5q61 0 99 -28t38 -72q0 -15 -2 -23l-57 -267h54q23 0 23 -16q0 -25 -32 -25h-95l14 67q-106 -83 -208 -83q-62 0 -97 27.5
t-35 75.5q0 73 70.5 122t174.5 49q58 0 132 -21l15 71q1 5 1 14q0 31 -29 49.5t-78 18.5q-45 0 -98 -16t-61 -16q-6 0 -10.5 4.5t-4.5 11.5zM443 112l19 90q-58 15 -125 15q-86 0 -144 -34.5t-58 -86.5q0 -34 25 -52.5t71 -18.5q54 0 102 19.5t110 67.5z" />
    <glyph glyph-name="acircumflex" unicode="&#xe2;" 
d="M436 623l109 -108q9 -10 9 -16q0 -10 -7.5 -17.5t-17.5 -7.5q-6 0 -16 8l-88 88l-127 -88q-11 -8 -19 -8q-16 0 -16 16q0 10 18 24zM205 374q0 24 73.5 40.5t112.5 16.5q61 0 99 -28t38 -72q0 -15 -2 -23l-57 -267h54q23 0 23 -16q0 -25 -32 -25h-95l14 67
q-106 -83 -208 -83q-62 0 -97 27.5t-35 75.5q0 73 70.5 122t174.5 49q58 0 132 -21l15 71q1 5 1 14q0 31 -29 49.5t-78 18.5q-45 0 -98 -16t-61 -16q-6 0 -10.5 4.5t-4.5 11.5zM443 112l19 90q-58 15 -125 15q-86 0 -144 -34.5t-58 -86.5q0 -34 25 -52.5t71 -18.5
q54 0 102 19.5t110 67.5z" />
    <glyph glyph-name="atilde" unicode="&#xe3;" 
d="M480 557q19 0 46.5 23t35.5 23q7 0 12 -4.5t5 -11.5q0 -13 -37 -42t-69 -29q-25 0 -64 24t-50 24q-24 0 -49 -22.5t-36 -22.5q-16 0 -16 15t37.5 43t70.5 28q22 0 62 -24t52 -24zM205 374q0 24 73.5 40.5t112.5 16.5q61 0 99 -28t38 -72q0 -15 -2 -23l-57 -267h54
q23 0 23 -16q0 -25 -32 -25h-95l14 67q-106 -83 -208 -83q-62 0 -97 27.5t-35 75.5q0 73 70.5 122t174.5 49q58 0 132 -21l15 71q1 5 1 14q0 31 -29 49.5t-78 18.5q-45 0 -98 -16t-61 -16q-6 0 -10.5 4.5t-4.5 11.5zM443 112l19 90q-58 15 -125 15q-86 0 -144 -34.5
t-58 -86.5q0 -34 25 -52.5t71 -18.5q54 0 102 19.5t110 67.5z" />
    <glyph glyph-name="adieresis" unicode="&#xe4;" 
d="M307 588q18 0 29.5 -11.5t11.5 -28.5q0 -23 -19 -41.5t-43 -18.5q-17 0 -28.5 11.5t-11.5 28.5q0 23 19 41.5t42 18.5zM528 588q18 0 29.5 -11.5t11.5 -28.5q0 -23 -19 -41.5t-43 -18.5q-17 0 -28.5 11.5t-11.5 28.5q0 23 19 41.5t42 18.5zM205 374q0 24 73.5 40.5
t112.5 16.5q61 0 99 -28t38 -72q0 -15 -2 -23l-57 -267h54q23 0 23 -16q0 -25 -32 -25h-95l14 67q-106 -83 -208 -83q-62 0 -97 27.5t-35 75.5q0 73 70.5 122t174.5 49q58 0 132 -21l15 71q1 5 1 14q0 31 -29 49.5t-78 18.5q-45 0 -98 -16t-61 -16q-6 0 -10.5 4.5t-4.5 11.5
zM443 112l19 90q-58 15 -125 15q-86 0 -144 -34.5t-58 -86.5q0 -34 25 -52.5t71 -18.5q54 0 102 19.5t110 67.5z" />
    <glyph glyph-name="aring" unicode="&#xe5;" 
d="M440 660q33 0 54.5 -20.5t21.5 -51.5q0 -42 -35 -75.5t-79 -33.5q-33 0 -54.5 20.5t-21.5 51.5q0 42 35 75.5t79 33.5zM433 627q-28 0 -50.5 -21.5t-22.5 -47.5q0 -20 14 -33t35 -13q29 0 51 21t22 48q0 20 -14 33t-35 13zM205 374q0 24 73.5 40.5t112.5 16.5
q61 0 99 -28t38 -72q0 -15 -2 -23l-57 -267h54q23 0 23 -16q0 -25 -32 -25h-95l14 67q-106 -83 -208 -83q-62 0 -97 27.5t-35 75.5q0 73 70.5 122t174.5 49q58 0 132 -21l15 71q1 5 1 14q0 31 -29 49.5t-78 18.5q-45 0 -98 -16t-61 -16q-6 0 -10.5 4.5t-4.5 11.5zM443 112
l19 90q-58 15 -125 15q-86 0 -144 -34.5t-58 -86.5q0 -34 25 -52.5t71 -18.5q54 0 102 19.5t110 67.5z" />
    <glyph glyph-name="ae" unicode="&#xe6;" 
d="M150 374q0 24 54.5 40.5t85.5 16.5q37 0 63.5 -23t31.5 -61q27 39 63.5 61.5t72.5 22.5q52 0 80.5 -36t28.5 -99q0 -41 -11 -97h-258q-3 -27 -3 -45q0 -56 26 -92.5t67 -36.5q33 0 76 31t50 31q16 0 16 -17t-55 -51.5t-97 -34.5q-73 0 -108 77q-1 -3 -3 -13.5t-3.5 -17
t-5 -14.5t-9 -12t-12.5 -4t-11.5 4.5t-4.5 10.5q0 9 7 37q-71 -68 -135 -68q-55 0 -87.5 31.5t-32.5 83.5q0 68 62.5 113t150.5 45q43 0 83 -12l13 60q2 12 2 17q0 30 -20 49t-52 19q-37 0 -71 -16t-39 -16t-10 5t-5 11zM303 110l20 93q-42 13 -77 13q-42 0 -86 -17t-62 -40
q-18 -25 -18 -59t23.5 -54.5t61.5 -20.5q54 0 138 85zM370 240h216q3 33 3 48q0 102 -77 102q-90 0 -142 -150z" />
    <glyph glyph-name="ccedilla" unicode="&#xe7;" 
d="M393 391q-52 0 -93.5 -19t-66 -46t-41 -60t-22.5 -59t-6 -45q0 -61 42 -99.5t107 -38.5q114 0 206 73q13 11 20 11q5 0 10.5 -5.5t5.5 -11.5q0 -13 -28.5 -36t-88 -45t-127.5 -26l-6 -31q54 -2 54 -46q0 -34 -27 -57t-67 -23q-28 0 -54.5 11.5t-26.5 23.5q0 10 7.5 17
t16.5 7q4 0 25 -10.5t38 -10.5q22 0 36.5 9.5t14.5 24.5q0 20 -42 20h-20l14 67q-152 24 -152 168q0 112 84.5 194.5t199.5 82.5q92 0 145 -55q3 14 5 20t8 13.5t16 7.5q7 0 11.5 -4.5t4.5 -10.5q0 -1 -2 -13l-19 -91q-6 -28 -26 -28q-10 0 -17 12l3 36q0 9 -14.5 25.5
t-49 32t-78.5 15.5z" />
    <glyph glyph-name="egrave" unicode="&#xe8;" 
d="M345 636l92 -100q2 -1 5.5 -7.5t3.5 -8.5q0 -9 -8.5 -16.5t-17.5 -7.5q-7 0 -16 9l-93 100q-8 10 -8 15q0 10 8 17.5t18 7.5q7 0 16 -9zM531 70q0 -26 -78.5 -56t-152.5 -30q-87 0 -141.5 52t-54.5 135q0 103 84 181.5t195 78.5q82 0 134.5 -47.5t52.5 -121.5
q0 -23 -8 -63h-416q-1 -10 -1 -22q0 -67 46 -109.5t119 -42.5q47 0 99.5 15t88.5 39q13 7 18 7q15 0 15 -16zM155 240h374q1 5 1 12q0 61 -43.5 99.5t-111.5 38.5q-73 0 -132.5 -40.5t-87.5 -109.5z" />
    <glyph glyph-name="eacute" unicode="&#xe9;" 
d="M508 589l-135 -100q-13 -9 -20 -9q-17 0 -17 16q0 11 17 24l135 100q13 9 21 9q16 0 16 -16q0 -12 -17 -24zM531 70q0 -26 -78.5 -56t-152.5 -30q-87 0 -141.5 52t-54.5 135q0 103 84 181.5t195 78.5q82 0 134.5 -47.5t52.5 -121.5q0 -23 -8 -63h-416q-1 -10 -1 -22
q0 -67 46 -109.5t119 -42.5q47 0 99.5 15t88.5 39q13 7 18 7q15 0 15 -16zM155 240h374q1 5 1 12q0 61 -43.5 99.5t-111.5 38.5q-73 0 -132.5 -40.5t-87.5 -109.5z" />
    <glyph glyph-name="ecircumflex" unicode="&#xea;" 
d="M436 622l109 -108q9 -10 9 -16q0 -10 -7.5 -17.5t-17.5 -7.5q-6 0 -16 8l-88 88l-127 -88q-11 -8 -19 -8q-16 0 -16 16q0 10 18 24zM531 70q0 -26 -78.5 -56t-152.5 -30q-87 0 -141.5 52t-54.5 135q0 103 84 181.5t195 78.5q82 0 134.5 -47.5t52.5 -121.5q0 -23 -8 -63
h-416q-1 -10 -1 -22q0 -67 46 -109.5t119 -42.5q47 0 99.5 15t88.5 39q13 7 18 7q15 0 15 -16zM155 240h374q1 5 1 12q0 61 -43.5 99.5t-111.5 38.5q-73 0 -132.5 -40.5t-87.5 -109.5z" />
    <glyph glyph-name="edieresis" unicode="&#xeb;" 
d="M307 588q18 0 29.5 -11.5t11.5 -28.5q0 -23 -19 -41.5t-43 -18.5q-17 0 -28.5 11.5t-11.5 28.5q0 23 19 41.5t42 18.5zM528 588q18 0 29.5 -11.5t11.5 -28.5q0 -23 -19 -41.5t-43 -18.5q-17 0 -28.5 11.5t-11.5 28.5q0 23 19 41.5t42 18.5zM531 70q0 -26 -78.5 -56
t-152.5 -30q-87 0 -141.5 52t-54.5 135q0 103 84 181.5t195 78.5q82 0 134.5 -47.5t52.5 -121.5q0 -23 -8 -63h-416q-1 -10 -1 -22q0 -67 46 -109.5t119 -42.5q47 0 99.5 15t88.5 39q13 7 18 7q15 0 15 -16zM155 240h374q1 5 1 12q0 61 -43.5 99.5t-111.5 38.5
q-73 0 -132.5 -40.5t-87.5 -109.5z" />
    <glyph glyph-name="igrave" unicode="&#xec;" 
d="M335 631l92 -100q2 -1 5.5 -7.5t3.5 -8.5q0 -9 -8.5 -16.5t-17.5 -7.5q-7 0 -16 9l-93 100q-8 10 -8 15q0 10 8 17.5t18 7.5q7 0 16 -9zM409 417l-80 -376h160q24 0 24 -16q0 -11 -9 -18t-23 -7h-362q-23 0 -23 16q0 25 31 25h161l71 335h-118q-23 0 -23 17q0 24 32 24
h159z" />
    <glyph glyph-name="iacute" unicode="&#xed;" 
d="M508 589l-135 -100q-13 -9 -20 -9q-17 0 -17 16q0 11 17 24l135 100q13 9 21 9q16 0 16 -16q0 -12 -17 -24zM409 417l-80 -376h160q24 0 24 -16q0 -11 -9 -18t-23 -7h-362q-23 0 -23 16q0 25 31 25h161l71 335h-118q-23 0 -23 17q0 24 32 24h159z" />
    <glyph glyph-name="icircumflex" unicode="&#xee;" 
d="M415 623l109 -108q9 -10 9 -16q0 -10 -7.5 -17.5t-17.5 -7.5q-6 0 -16 8l-88 88l-127 -88q-11 -8 -19 -8q-16 0 -16 16q0 10 18 24zM409 417l-80 -376h160q24 0 24 -16q0 -11 -9 -18t-23 -7h-362q-23 0 -23 16q0 25 31 25h161l71 335h-118q-23 0 -23 17q0 24 32 24h159z
" />
    <glyph glyph-name="idieresis" unicode="&#xef;" 
d="M307 588q18 0 29.5 -11.5t11.5 -28.5q0 -23 -19 -41.5t-43 -18.5q-17 0 -28.5 11.5t-11.5 28.5q0 23 19 41.5t42 18.5zM528 588q18 0 29.5 -11.5t11.5 -28.5q0 -23 -19 -41.5t-43 -18.5q-17 0 -28.5 11.5t-11.5 28.5q0 23 19 41.5t42 18.5zM409 417l-80 -376h160
q24 0 24 -16q0 -11 -9 -18t-23 -7h-362q-23 0 -23 16q0 25 31 25h161l71 335h-118q-23 0 -23 17q0 24 32 24h159z" />
    <glyph glyph-name="eth" unicode="&#xf0;" 
d="M393 549q-20 10 -39.5 17t-31 9.5t-20.5 4.5t-12.5 5t-3.5 9q0 10 8 18t18 8q47 0 138 -48l103 42l7 1q6 0 10.5 -4.5t4.5 -11.5q0 -17 -13 -22l-82 -34q102 -108 102 -257q0 -69 -23.5 -124t-57.5 -87.5t-75.5 -54t-74 -29.5t-55.5 -8q-82 0 -133.5 50t-51.5 128
q0 104 85.5 186.5t193.5 82.5q40 0 69.5 -12t64.5 -41q-33 100 -90 148l-99 -42l-7 -1q-16 0 -16 18q0 16 12 21zM383 390q-89 0 -159 -67t-70 -152q0 -64 42.5 -105t109.5 -41q89 0 159.5 67t70.5 152q0 65 -42.5 105.5t-110.5 40.5z" />
    <glyph glyph-name="ntilde" unicode="&#xf1;" 
d="M480 556q19 0 46.5 23t35.5 23q7 0 12 -4.5t5 -11.5q0 -13 -37 -42t-69 -29q-25 0 -64 24t-50 24q-24 0 -49 -22.5t-36 -22.5q-16 0 -16 15t37.5 43t70.5 28q22 0 62 -24t52 -24zM502 308q0 30 -22.5 56t-76.5 26q-48 0 -81 -18.5t-92 -77.5l-54 -253h45q23 0 23 -16
q0 -25 -32 -25h-131q-24 0 -24 16q0 25 32 25h46l71 335h-34q-23 0 -23 16q0 25 32 25h75l-15 -69q54 48 90.5 65.5t82.5 17.5q59 0 95 -30.5t36 -81.5q0 -16 -2 -24l-54 -254h34q23 0 23 -16q0 -11 -9 -18t-23 -7h-109q-23 0 -23 16q0 25 32 25h34l52 247q2 7 2 20z" />
    <glyph glyph-name="ograve" unicode="&#xf2;" 
d="M345 634l92 -100q2 -1 5.5 -7.5t3.5 -8.5q0 -9 -8.5 -16.5t-17.5 -7.5q-7 0 -16 9l-93 100q-8 10 -8 15q0 10 8 17.5t18 7.5q7 0 16 -9zM391 431q83 0 134.5 -50t51.5 -129q0 -104 -86 -186t-195 -82q-82 0 -133.5 50t-51.5 128q0 104 86 186.5t194 82.5zM382 390
q-89 0 -159 -67t-70 -152q0 -64 42.5 -105t109.5 -41q89 0 159.5 67t70.5 152q0 65 -42.5 105.5t-110.5 40.5z" />
    <glyph glyph-name="oacute" unicode="&#xf3;" 
d="M508 589l-135 -100q-13 -9 -20 -9q-17 0 -17 16q0 11 17 24l135 100q13 9 21 9q16 0 16 -16q0 -12 -17 -24zM391 431q83 0 134.5 -50t51.5 -129q0 -104 -86 -186t-195 -82q-82 0 -133.5 50t-51.5 128q0 104 86 186.5t194 82.5zM382 390q-89 0 -159 -67t-70 -152
q0 -64 42.5 -105t109.5 -41q89 0 159.5 67t70.5 152q0 65 -42.5 105.5t-110.5 40.5z" />
    <glyph glyph-name="ocircumflex" unicode="&#xf4;" 
d="M430 623l109 -108q9 -10 9 -16q0 -10 -7.5 -17.5t-17.5 -7.5q-6 0 -16 8l-88 88l-127 -88q-11 -8 -19 -8q-16 0 -16 16q0 10 18 24zM391 431q83 0 134.5 -50t51.5 -129q0 -104 -86 -186t-195 -82q-82 0 -133.5 50t-51.5 128q0 104 86 186.5t194 82.5zM382 390
q-89 0 -159 -67t-70 -152q0 -64 42.5 -105t109.5 -41q89 0 159.5 67t70.5 152q0 65 -42.5 105.5t-110.5 40.5z" />
    <glyph glyph-name="otilde" unicode="&#xf5;" 
d="M480 529q19 0 46.5 23t35.5 23q7 0 12 -4.5t5 -11.5q0 -13 -37 -42t-69 -29q-25 0 -64 24t-50 24q-24 0 -49 -22.5t-36 -22.5q-16 0 -16 15t37.5 43t70.5 28q22 0 62 -24t52 -24zM391 431q83 0 134.5 -50t51.5 -129q0 -104 -86 -186t-195 -82q-82 0 -133.5 50t-51.5 128
q0 104 86 186.5t194 82.5zM382 390q-89 0 -159 -67t-70 -152q0 -64 42.5 -105t109.5 -41q89 0 159.5 67t70.5 152q0 65 -42.5 105.5t-110.5 40.5z" />
    <glyph glyph-name="odieresis" unicode="&#xf6;" 
d="M307 588q18 0 29.5 -11.5t11.5 -28.5q0 -23 -19 -41.5t-43 -18.5q-17 0 -28.5 11.5t-11.5 28.5q0 23 19 41.5t42 18.5zM528 588q18 0 29.5 -11.5t11.5 -28.5q0 -23 -19 -41.5t-43 -18.5q-17 0 -28.5 11.5t-11.5 28.5q0 23 19 41.5t42 18.5zM391 431q83 0 134.5 -50
t51.5 -129q0 -104 -86 -186t-195 -82q-82 0 -133.5 50t-51.5 128q0 104 86 186.5t194 82.5zM382 390q-89 0 -159 -67t-70 -152q0 -64 42.5 -105t109.5 -41q89 0 159.5 67t70.5 152q0 65 -42.5 105.5t-110.5 40.5z" />
    <glyph glyph-name="divide" unicode="&#xf7;" 
d="M556 262h-402q-23 0 -23 16q0 24 32 24h402q23 0 23 -16q0 -24 -32 -24zM326 124q18 0 29.5 -11t11.5 -29q0 -23 -19 -41t-43 -18q-17 0 -28.5 11t-11.5 28q0 23 19 41.5t42 18.5zM415 540q17 0 28.5 -11t11.5 -29q0 -23 -19 -41t-43 -18q-17 0 -28 11.5t-11 27.5
q0 23 19 41.5t42 18.5z" />
    <glyph glyph-name="oslash" unicode="&#xf8;" 
d="M161 35l-81 -68q-11 -10 -19 -10q-14 0 -14 14q0 8 14 21l80 67q-30 47 -30 103q0 105 85.5 187t195.5 82q81 0 133 -49l78 66q13 10 20 10q14 0 14 -14q0 -8 -14 -21l-78 -65q32 -47 32 -104q0 -106 -85.5 -188t-195.5 -82q-81 0 -135 51zM511 329l-314 -264
q42 -40 108 -40q90 0 160 67t70 153q0 47 -24 84zM176 89l314 263q-42 38 -107 38q-90 0 -160 -66.5t-70 -152.5q0 -45 23 -82z" />
    <glyph glyph-name="ugrave" unicode="&#xf9;" 
d="M345 634l92 -100q2 -1 5.5 -7.5t3.5 -8.5q0 -9 -8.5 -16.5t-17.5 -7.5q-7 0 -16 9l-93 100q-8 10 -8 15q0 10 8 17.5t18 7.5q7 0 16 -9zM439 0l14 66q-98 -82 -200 -82q-50 0 -79 26.5t-29 71.5q0 11 4 33l55 261h-54q-23 0 -23 16q0 25 32 25h95l-64 -302q-2 -6 -2 -18
q0 -32 20.5 -52t52.5 -20q101 0 203 90l55 261h-74q-24 0 -24 16q0 25 33 25h115l-80 -376h34q23 0 23 -16q0 -25 -32 -25h-75z" />
    <glyph glyph-name="uacute" unicode="&#xfa;" 
d="M508 589l-135 -100q-13 -9 -20 -9q-17 0 -17 16q0 11 17 24l135 100q13 9 21 9q16 0 16 -16q0 -12 -17 -24zM439 0l14 66q-98 -82 -200 -82q-50 0 -79 26.5t-29 71.5q0 11 4 33l55 261h-54q-23 0 -23 16q0 25 32 25h95l-64 -302q-2 -6 -2 -18q0 -32 20.5 -52t52.5 -20
q101 0 203 90l55 261h-74q-24 0 -24 16q0 25 33 25h115l-80 -376h34q23 0 23 -16q0 -25 -32 -25h-75z" />
    <glyph glyph-name="ucircumflex" unicode="&#xfb;" 
d="M425 626l109 -108q9 -10 9 -16q0 -10 -7.5 -17.5t-17.5 -7.5q-6 0 -16 8l-88 88l-127 -88q-11 -8 -19 -8q-16 0 -16 16q0 10 18 24zM439 0l14 66q-98 -82 -200 -82q-50 0 -79 26.5t-29 71.5q0 11 4 33l55 261h-54q-23 0 -23 16q0 25 32 25h95l-64 -302q-2 -6 -2 -18
q0 -32 20.5 -52t52.5 -20q101 0 203 90l55 261h-74q-24 0 -24 16q0 25 33 25h115l-80 -376h34q23 0 23 -16q0 -25 -32 -25h-75z" />
    <glyph glyph-name="udieresis" unicode="&#xfc;" 
d="M307 588q18 0 29.5 -11.5t11.5 -28.5q0 -23 -19 -41.5t-43 -18.5q-17 0 -28.5 11.5t-11.5 28.5q0 23 19 41.5t42 18.5zM528 588q18 0 29.5 -11.5t11.5 -28.5q0 -23 -19 -41.5t-43 -18.5q-17 0 -28.5 11.5t-11.5 28.5q0 23 19 41.5t42 18.5zM439 0l14 66q-98 -82 -200 -82
q-50 0 -79 26.5t-29 71.5q0 11 4 33l55 261h-54q-23 0 -23 16q0 25 32 25h95l-64 -302q-2 -6 -2 -18q0 -32 20.5 -52t52.5 -20q101 0 203 90l55 261h-74q-24 0 -24 16q0 25 33 25h115l-80 -376h34q23 0 23 -16q0 -25 -32 -25h-75z" />
    <glyph glyph-name="yacute" unicode="&#xfd;" 
d="M508 589l-135 -100q-13 -9 -20 -9q-17 0 -17 16q0 11 17 24l135 100q13 9 21 9q16 0 16 -16q0 -12 -17 -24zM282 0l-107 376h-16q-24 0 -24 16q0 25 32 25h115q23 0 23 -16q0 -25 -32 -25h-52l94 -331l231 331h-54q-23 0 -23 17q0 24 32 24h110q23 0 23 -16
q0 -25 -32 -25h-13l-367 -521h64q24 0 24 -16q0 -11 -9 -18t-23 -7h-233q-23 0 -23 16q0 25 32 25h126z" />
    <glyph glyph-name="thorn" unicode="&#xfe;" 
d="M270 590l-54 -255q50 52 96 74t103 22q81 0 129.5 -45.5t48.5 -121.5q0 -100 -81 -177t-186 -77q-112 0 -159 96l-53 -251h97q24 0 24 -16q0 -25 -32 -25h-193q-23 0 -23 16q0 25 32 25h54l147 694h-54q-23 0 -23 16q0 25 32 25h95zM405 390q-85 0 -151 -62t-66 -141
q0 -60 40.5 -98t104.5 -38q85 0 151.5 62t66.5 142q0 60 -40.5 97.5t-105.5 37.5z" />
    <glyph glyph-name="ydieresis" unicode="&#xff;" 
d="M307 588q18 0 29.5 -11.5t11.5 -28.5q0 -23 -19 -41.5t-43 -18.5q-17 0 -28.5 11.5t-11.5 28.5q0 23 19 41.5t42 18.5zM528 588q18 0 29.5 -11.5t11.5 -28.5q0 -23 -19 -41.5t-43 -18.5q-17 0 -28.5 11.5t-11.5 28.5q0 23 19 41.5t42 18.5zM282 0l-107 376h-16
q-24 0 -24 16q0 25 32 25h115q23 0 23 -16q0 -25 -32 -25h-52l94 -331l231 331h-54q-23 0 -23 17q0 24 32 24h110q23 0 23 -16q0 -25 -32 -25h-13l-367 -521h64q24 0 24 -16q0 -11 -9 -18t-23 -7h-233q-23 0 -23 16q0 25 32 25h126z" />
    <glyph glyph-name="Amacron" unicode="&#x100;" 
d="M525 627h-236q-23 0 -23 16q0 24 32 24h236q23 0 23 -16q0 -24 -32 -24zM468 188h-265l-86 -147h79q23 0 23 -16q0 -11 -9 -18t-23 -7h-151q-23 0 -23 17q0 24 32 24h31l281 481h-120q-23 0 -23 16q0 25 32 25h203l87 -522h37q23 0 23 -16q0 -25 -32 -25h-156
q-23 0 -23 16q0 25 32 25h76zM462 229l-50 293h-15l-170 -293h235z" />
    <glyph glyph-name="amacron" unicode="&#x101;" 
d="M525 523h-236q-23 0 -23 16q0 24 32 24h236q23 0 23 -16q0 -24 -32 -24zM205 374q0 24 73.5 40.5t112.5 16.5q61 0 99 -28t38 -72q0 -15 -2 -23l-57 -267h54q23 0 23 -16q0 -25 -32 -25h-95l14 67q-106 -83 -208 -83q-62 0 -97 27.5t-35 75.5q0 73 70.5 122t174.5 49
q58 0 132 -21l15 71q1 5 1 14q0 31 -29 49.5t-78 18.5q-45 0 -98 -16t-61 -16q-6 0 -10.5 4.5t-4.5 11.5zM443 112l19 90q-58 15 -125 15q-86 0 -144 -34.5t-58 -86.5q0 -34 25 -52.5t71 -18.5q54 0 102 19.5t110 67.5z" />
    <glyph glyph-name="Abreve" unicode="&#x102;" 
d="M574 725q0 -35 -49 -75.5t-121 -40.5q-54 0 -89 26.5t-35 68.5q0 15 8 26t19 11q8 0 17 -11l-2 -29q0 -6 9 -17.5t31.5 -22.5t51.5 -11q40 0 74.5 20t43.5 48q8 23 25 23q6 0 11.5 -5.5t5.5 -10.5zM468 188h-265l-86 -147h79q23 0 23 -16q0 -11 -9 -18t-23 -7h-151
q-23 0 -23 17q0 24 32 24h31l281 481h-120q-23 0 -23 16q0 25 32 25h203l87 -522h37q23 0 23 -16q0 -25 -32 -25h-156q-23 0 -23 16q0 25 32 25h76zM462 229l-50 293h-15l-170 -293h235z" />
    <glyph glyph-name="abreve" unicode="&#x103;" 
d="M574 606q0 -35 -49 -75.5t-121 -40.5q-54 0 -89 26.5t-35 68.5q0 15 8 26t19 11q8 0 17 -11l-2 -29q0 -6 9 -17.5t31.5 -22.5t51.5 -11q40 0 74.5 20t43.5 48q8 23 25 23q6 0 11.5 -5.5t5.5 -10.5zM205 374q0 24 73.5 40.5t112.5 16.5q61 0 99 -28t38 -72q0 -15 -2 -23
l-57 -267h54q23 0 23 -16q0 -25 -32 -25h-95l14 67q-106 -83 -208 -83q-62 0 -97 27.5t-35 75.5q0 73 70.5 122t174.5 49q58 0 132 -21l15 71q1 5 1 14q0 31 -29 49.5t-78 18.5q-45 0 -98 -16t-61 -16q-6 0 -10.5 4.5t-4.5 11.5zM443 112l19 90q-58 15 -125 15
q-86 0 -144 -34.5t-58 -86.5q0 -34 25 -52.5t71 -18.5q54 0 102 19.5t110 67.5z" />
    <glyph glyph-name="Aogonek" unicode="&#x104;" 
d="M403 -108q0 13 4 25t13 22.5t16.5 18t21 15.5t19.5 11.5t19 9.5l13 6h-101q-23 0 -23 16q0 25 32 25h76l-25 147h-265l-86 -147h79q23 0 23 -16q0 -11 -9 -18t-23 -7h-151q-23 0 -23 17q0 24 32 24h31l281 481h-120q-23 0 -23 16q0 25 32 25h203l87 -522h37q23 0 23 -16
q0 -11 -5 -16t-14.5 -7t-32.5 -10.5t-49 -23.5q-50 -31 -50 -68q0 -25 32 -25q30 0 43.5 10.5t21.5 10.5q4 0 7.5 -4t3.5 -8q0 -14 -26.5 -26.5t-56.5 -12.5q-67 0 -67 47zM462 229l-50 293h-15l-170 -293h235z" />
    <glyph glyph-name="aogonek" unicode="&#x105;" 
d="M205 374q0 24 73.5 40.5t112.5 16.5q61 0 99 -28t38 -72q0 -15 -2 -23l-57 -267h54q23 0 23 -16t-23 -26q-105 -44 -105 -98q0 -24 38 -24q22 0 40 9.5t21 9.5q11 0 11 -12q0 -14 -27.5 -26.5t-57.5 -12.5q-65 0 -65 46q0 18 8.5 35t18 27.5t26.5 21.5t24 14.5t22 10.5
h-58l14 67q-106 -83 -208 -83q-62 0 -97 27.5t-35 75.5q0 73 70.5 122t174.5 49q58 0 132 -21l15 71q1 5 1 14q0 31 -29 49.5t-78 18.5q-45 0 -98 -16t-61 -16q-6 0 -10.5 4.5t-4.5 11.5zM443 112l19 90q-58 15 -125 15q-86 0 -144 -34.5t-58 -86.5q0 -34 25 -52.5t71 -18.5
q54 0 102 19.5t110 67.5z" />
    <glyph glyph-name="Cacute" unicode="&#x106;" 
d="M508 714l-135 -100q-13 -9 -20 -9q-17 0 -17 16q0 11 17 24l135 100q13 9 21 9q16 0 16 -16q0 -12 -17 -24zM570 446q0 7 -9.5 21t-27 30t-48 27.5t-66.5 11.5q-83 0 -155.5 -64t-91.5 -153l-15 -71q-5 -25 -5 -45q0 -77 50 -127.5t126 -50.5q98 0 194 90q10 10 20 10
q16 0 16 -14t-34 -44q-99 -83 -205 -83q-89 0 -149 61t-60 151q0 21 5 46l17 83q20 94 105.5 172.5t190.5 78.5q101 0 158 -69q1 2 3 13.5t3.5 16t5 12.5t8.5 11t12 3q17 0 17 -15q0 -2 -2 -12l-24 -112q-5 -28 -26 -28q-9 0 -17 12z" />
    <glyph glyph-name="cacute" unicode="&#x107;" 
d="M508 589l-135 -100q-13 -9 -20 -9q-17 0 -17 16q0 11 17 24l135 100q13 9 21 9q16 0 16 -16q0 -12 -17 -24zM555 91q0 -10 -20 -27.5t-52.5 -35.5t-82 -31.5t-99.5 -13.5q-79 0 -129.5 47.5t-50.5 121.5q0 112 84.5 196t197.5 84q95 0 148 -56q3 14 5 20t8 13.5t16 7.5
q7 0 11.5 -4.5t4.5 -10.5q0 -1 -2 -13l-19 -91q-6 -28 -26 -28q-10 0 -17 12l3 36q0 9 -14 25t-49 32t-79 16q-64 0 -112.5 -27.5t-72 -67.5t-34.5 -74.5t-11 -59.5q0 -61 42 -99.5t107 -38.5q115 0 207 73q13 11 20 11q5 0 10.5 -5.5t5.5 -11.5z" />
    <glyph glyph-name="Ccircumflex" unicode="&#x108;" 
d="M459 752l109 -108q9 -10 9 -16q0 -10 -7.5 -17.5t-17.5 -7.5q-6 0 -16 8l-88 88l-127 -88q-11 -8 -19 -8q-16 0 -16 16q0 10 18 24zM570 446q0 7 -9.5 21t-27 30t-48 27.5t-66.5 11.5q-83 0 -155.5 -64t-91.5 -153l-15 -71q-5 -25 -5 -45q0 -77 50 -127.5t126 -50.5
q98 0 194 90q10 10 20 10q16 0 16 -14t-34 -44q-99 -83 -205 -83q-89 0 -149 61t-60 151q0 21 5 46l17 83q20 94 105.5 172.5t190.5 78.5q101 0 158 -69q1 2 3 13.5t3.5 16t5 12.5t8.5 11t12 3q17 0 17 -15q0 -2 -2 -12l-24 -112q-5 -28 -26 -28q-9 0 -17 12z" />
    <glyph glyph-name="ccircumflex" unicode="&#x109;" 
d="M441 606l109 -108q9 -10 9 -16q0 -10 -7.5 -17.5t-17.5 -7.5q-6 0 -16 8l-88 88l-127 -88q-11 -8 -19 -8q-16 0 -16 16q0 10 18 24zM555 91q0 -10 -20 -27.5t-52.5 -35.5t-82 -31.5t-99.5 -13.5q-79 0 -129.5 47.5t-50.5 121.5q0 112 84.5 196t197.5 84q95 0 148 -56
q3 14 5 20t8 13.5t16 7.5q7 0 11.5 -4.5t4.5 -10.5q0 -1 -2 -13l-19 -91q-6 -28 -26 -28q-10 0 -17 12l3 36q0 9 -14 25t-49 32t-79 16q-64 0 -112.5 -27.5t-72 -67.5t-34.5 -74.5t-11 -59.5q0 -61 42 -99.5t107 -38.5q115 0 207 73q13 11 20 11q5 0 10.5 -5.5t5.5 -11.5z
" />
    <glyph glyph-name="Cdotaccent" unicode="&#x10a;" 
d="M448 715q18 0 29.5 -11.5t11.5 -28.5q0 -23 -19 -41.5t-43 -18.5q-17 0 -28.5 11.5t-11.5 28.5q0 23 19 41.5t42 18.5zM570 446q0 7 -9.5 21t-27 30t-48 27.5t-66.5 11.5q-83 0 -155.5 -64t-91.5 -153l-15 -71q-5 -25 -5 -45q0 -77 50 -127.5t126 -50.5q98 0 194 90
q10 10 20 10q16 0 16 -14t-34 -44q-99 -83 -205 -83q-89 0 -149 61t-60 151q0 21 5 46l17 83q20 94 105.5 172.5t190.5 78.5q101 0 158 -69q1 2 3 13.5t3.5 16t5 12.5t8.5 11t12 3q17 0 17 -15q0 -2 -2 -12l-24 -112q-5 -28 -26 -28q-9 0 -17 12z" />
    <glyph glyph-name="cdotaccent" unicode="&#x10b;" 
d="M430 587q18 0 29.5 -11.5t11.5 -28.5q0 -23 -19 -41.5t-43 -18.5q-17 0 -28.5 11.5t-11.5 28.5q0 23 19 41.5t42 18.5zM555 91q0 -10 -20 -27.5t-52.5 -35.5t-82 -31.5t-99.5 -13.5q-79 0 -129.5 47.5t-50.5 121.5q0 112 84.5 196t197.5 84q95 0 148 -56q3 14 5 20
t8 13.5t16 7.5q7 0 11.5 -4.5t4.5 -10.5q0 -1 -2 -13l-19 -91q-6 -28 -26 -28q-10 0 -17 12l3 36q0 9 -14 25t-49 32t-79 16q-64 0 -112.5 -27.5t-72 -67.5t-34.5 -74.5t-11 -59.5q0 -61 42 -99.5t107 -38.5q115 0 207 73q13 11 20 11q5 0 10.5 -5.5t5.5 -11.5z" />
    <glyph glyph-name="Ccaron" unicode="&#x10c;" 
d="M454 609l-108 109q-10 7 -10 15q0 10 7.5 17.5t17.5 7.5q6 0 16 -8l88 -88l127 88q11 8 19 8q16 0 16 -16q0 -12 -18 -25zM570 446q0 7 -9.5 21t-27 30t-48 27.5t-66.5 11.5q-83 0 -155.5 -64t-91.5 -153l-15 -71q-5 -25 -5 -45q0 -77 50 -127.5t126 -50.5q98 0 194 90
q10 10 20 10q16 0 16 -14t-34 -44q-99 -83 -205 -83q-89 0 -149 61t-60 151q0 21 5 46l17 83q20 94 105.5 172.5t190.5 78.5q101 0 158 -69q1 2 3 13.5t3.5 16t5 12.5t8.5 11t12 3q17 0 17 -15q0 -2 -2 -12l-24 -112q-5 -28 -26 -28q-9 0 -17 12z" />
    <glyph glyph-name="ccaron" unicode="&#x10d;" 
d="M423 486l-108 109q-10 7 -10 15q0 10 7.5 17.5t17.5 7.5q6 0 16 -8l88 -88l127 88q11 8 19 8q16 0 16 -16q0 -12 -18 -25zM555 91q0 -10 -20 -27.5t-52.5 -35.5t-82 -31.5t-99.5 -13.5q-79 0 -129.5 47.5t-50.5 121.5q0 112 84.5 196t197.5 84q95 0 148 -56q3 14 5 20
t8 13.5t16 7.5q7 0 11.5 -4.5t4.5 -10.5q0 -1 -2 -13l-19 -91q-6 -28 -26 -28q-10 0 -17 12l3 36q0 9 -14 25t-49 32t-79 16q-64 0 -112.5 -27.5t-72 -67.5t-34.5 -74.5t-11 -59.5q0 -61 42 -99.5t107 -38.5q115 0 207 73q13 11 20 11q5 0 10.5 -5.5t5.5 -11.5z" />
    <glyph glyph-name="Dcaron" unicode="&#x10e;" 
d="M423 609l-108 109q-10 7 -10 15q0 10 7.5 17.5t17.5 7.5q6 0 16 -8l88 -88l127 88q11 8 19 8q16 0 16 -16q0 -12 -18 -25zM113 41l102 481h-34q-23 0 -23 16q0 25 32 25h220q82 0 132 -54t50 -141q0 -30 -6 -58l-12 -56q-23 -107 -105 -180.5t-179 -73.5h-220
q-23 0 -23 16q0 25 32 25h34zM551 357q0 27 -7 53.5t-23 52.5t-47.5 42.5t-74.5 16.5h-143l-102 -481h149q72 0 141.5 62t86.5 142l16 73q4 28 4 39z" />
    <glyph glyph-name="dcaron" unicode="&#x10f;" 
d="M676 603h80l-120 -159q-12 -15 -22 -15q-14 0 -14 14q0 4 3 10zM579 604l-120 -563h55q22 0 22 -16q0 -25 -31 -25h-95l19 89q-93 -105 -206 -105q-74 0 -123 49.5t-49 123.5q0 106 82.5 190t186.5 84q109 0 159 -104l50 236h-54q-23 0 -23 17q0 24 32 24h95zM314 390
q-86 0 -153.5 -67.5t-67.5 -153.5q0 -64 40 -104t103 -40q87 0 154.5 68t67.5 155q0 62 -40 102t-104 40z" />
    <glyph glyph-name="Dcroat" unicode="&#x110;" 
d="M162 272h-77q-23 0 -23 16q0 25 32 25h77l44 209h-34q-23 0 -23 16q0 25 32 25h220q80 0 131 -55.5t51 -141.5q0 -28 -6 -56l-12 -56q-23 -104 -106.5 -179t-177.5 -75h-220q-23 0 -23 16q0 25 32 25h34zM551 357q0 27 -7 53.5t-23 52.5t-47.5 42.5t-74.5 16.5h-143
l-44 -209h162q23 0 23 -16q0 -25 -32 -25h-162l-49 -231h149q71 0 141.5 62.5t86.5 141.5l16 74q4 16 4 38z" />
    <glyph glyph-name="dcroat" unicode="&#x111;" 
d="M612 520h54q24 0 24 -16q0 -25 -33 -25h-54l-93 -438h55q22 0 22 -16q0 -25 -31 -25h-95l19 89q-93 -105 -206 -105q-74 0 -123 49.5t-49 123.5q0 106 82.5 190t186.5 84q109 0 159 -104l32 152h-137q-24 0 -24 15q0 26 33 26h137l9 43h-54q-23 0 -23 17q0 24 32 24h95z
M365 390q-86 0 -153.5 -67.5t-67.5 -153.5q0 -64 40 -104t103 -40q87 0 154.5 68t67.5 155q0 62 -40 102t-104 40z" />
    <glyph glyph-name="Emacron" unicode="&#x112;" 
d="M545 609h-236q-23 0 -23 16q0 24 32 24h236q23 0 23 -16q0 -24 -32 -24zM223 272l-49 -231h314l25 119q6 27 27 27q7 0 11.5 -4.5t4.5 -10.5q0 -2 -2 -12l-34 -160h-450q-23 0 -23 17q0 24 32 24h54l102 481h-54q-23 0 -23 17q0 24 32 24h429l-30 -139q-5 -27 -26 -27
q-7 0 -11.5 4.5t-4.5 10.5q0 24 10 61.5t12 48.5h-293l-44 -209h145l9 45q6 27 26 27q17 0 17 -15q0 -4 -2 -12l-28 -131q-5 -27 -26 -27q-7 0 -11.5 4.5t-4.5 10.5q0 12 5 32t6 25h-145z" />
    <glyph glyph-name="emacron" unicode="&#x113;" 
d="M525 523h-236q-23 0 -23 16q0 24 32 24h236q23 0 23 -16q0 -24 -32 -24zM531 70q0 -26 -78.5 -56t-152.5 -30q-87 0 -141.5 52t-54.5 135q0 103 84 181.5t195 78.5q82 0 134.5 -47.5t52.5 -121.5q0 -23 -8 -63h-416q-1 -10 -1 -22q0 -67 46 -109.5t119 -42.5
q47 0 99.5 15t88.5 39q13 7 18 7q15 0 15 -16zM155 240h374q1 5 1 12q0 61 -43.5 99.5t-111.5 38.5q-73 0 -132.5 -40.5t-87.5 -109.5z" />
    <glyph glyph-name="Ebreve" unicode="&#x114;" 
d="M580 719q0 -35 -49 -75.5t-121 -40.5q-54 0 -89 26.5t-35 68.5q0 15 8 26t19 11q8 0 17 -11l-2 -29q0 -6 9 -17.5t31.5 -22.5t51.5 -11q40 0 74.5 20t43.5 48q8 23 25 23q6 0 11.5 -5.5t5.5 -10.5zM223 272l-49 -231h314l25 119q6 27 27 27q7 0 11.5 -4.5t4.5 -10.5
q0 -2 -2 -12l-34 -160h-450q-23 0 -23 17q0 24 32 24h54l102 481h-54q-23 0 -23 17q0 24 32 24h429l-30 -139q-5 -27 -26 -27q-7 0 -11.5 4.5t-4.5 10.5q0 24 10 61.5t12 48.5h-293l-44 -209h145l9 45q6 27 26 27q17 0 17 -15q0 -4 -2 -12l-28 -131q-5 -27 -26 -27
q-7 0 -11.5 4.5t-4.5 10.5q0 12 5 32t6 25h-145z" />
    <glyph glyph-name="ebreve" unicode="&#x115;" 
d="M560 573q0 -35 -49 -75.5t-121 -40.5q-54 0 -89 26.5t-35 68.5q0 15 8 26t19 11q8 0 17 -11l-2 -29q0 -6 9 -17.5t31.5 -22.5t51.5 -11q40 0 74.5 20t43.5 48q8 23 25 23q6 0 11.5 -5.5t5.5 -10.5zM531 70q0 -26 -78.5 -56t-152.5 -30q-87 0 -141.5 52t-54.5 135
q0 103 84 181.5t195 78.5q82 0 134.5 -47.5t52.5 -121.5q0 -23 -8 -63h-416q-1 -10 -1 -22q0 -67 46 -109.5t119 -42.5q47 0 99.5 15t88.5 39q13 7 18 7q15 0 15 -16zM155 240h374q1 5 1 12q0 61 -43.5 99.5t-111.5 38.5q-73 0 -132.5 -40.5t-87.5 -109.5z" />
    <glyph glyph-name="Edotaccent" unicode="&#x116;" 
d="M223 272l-49 -231h314l25 119q6 27 27 27q7 0 11.5 -4.5t4.5 -10.5q0 -2 -2 -12l-34 -160h-450q-23 0 -23 17q0 24 32 24h54l102 481h-54q-23 0 -23 17q0 24 32 24h429l-30 -139q-5 -27 -26 -27q-7 0 -11.5 4.5t-4.5 10.5q0 24 10 61.5t12 48.5h-293l-44 -209h145l9 45
q6 27 26 27q17 0 17 -15q0 -4 -2 -12l-28 -131q-5 -27 -26 -27q-7 0 -11.5 4.5t-4.5 10.5q0 12 5 32t6 25h-145zM446 727q18 0 29.5 -11.5t11.5 -28.5q0 -23 -19 -41.5t-43 -18.5q-17 0 -28.5 11.5t-11.5 28.5q0 23 19 41.5t42 18.5z" />
    <glyph glyph-name="edotaccent" unicode="&#x117;" 
d="M406 587q18 0 29.5 -11.5t11.5 -28.5q0 -23 -19 -41.5t-43 -18.5q-17 0 -28.5 11.5t-11.5 28.5q0 23 19 41.5t42 18.5zM531 70q0 -26 -78.5 -56t-152.5 -30q-87 0 -141.5 52t-54.5 135q0 103 84 181.5t195 78.5q82 0 134.5 -47.5t52.5 -121.5q0 -23 -8 -63h-416
q-1 -10 -1 -22q0 -67 46 -109.5t119 -42.5q47 0 99.5 15t88.5 39q13 7 18 7q15 0 15 -16zM155 240h374q1 5 1 12q0 61 -43.5 99.5t-111.5 38.5q-73 0 -132.5 -40.5t-87.5 -109.5z" />
    <glyph glyph-name="Eogonek" unicode="&#x118;" 
d="M425 -125q30 0 43.5 10.5t21.5 10.5q4 0 7.5 -4t3.5 -8q0 -14 -26.5 -26.5t-56.5 -12.5q-67 0 -67 47q0 36 26.5 59t80.5 49h-388q-23 0 -23 17q0 24 32 24h54l102 481h-54q-23 0 -23 17q0 24 32 24h429l-30 -139q-5 -27 -26 -27q-7 0 -11.5 4.5t-4.5 10.5q0 24 10 61.5
t12 48.5h-293l-44 -209h145l9 45q6 27 26 27q17 0 17 -15q0 -4 -2 -12l-28 -131q-5 -27 -26 -27q-7 0 -11.5 4.5t-4.5 10.5q0 12 5 32t6 25h-145l-49 -231h314l25 119q6 27 27 27q7 0 11.5 -4.5t4.5 -10.5q0 -2 -2 -12l-34 -160q-60 -17 -93.5 -43.5t-33.5 -56.5
q0 -25 32 -25z" />
    <glyph glyph-name="eogonek" unicode="&#x119;" 
d="M363 -123q22 0 40 9.5t21 9.5q11 0 11 -12q0 -14 -27.5 -26.5t-57.5 -12.5q-65 0 -65 46q0 28 19.5 54.5t54.5 43.5q-33 -5 -58 -5q-88 0 -142.5 52t-54.5 135q0 103 84 181.5t195 78.5q82 0 134.5 -47.5t52.5 -121.5q0 -23 -8 -63h-416q-1 -10 -1 -22q0 -67 46 -109.5
t119 -42.5q47 0 99.5 15t88.5 39q13 7 18 7q15 0 15 -16q0 -20 -58 -48q-89 -43 -118.5 -67t-29.5 -54q0 -24 38 -24zM155 240h374q1 5 1 12q0 61 -43.5 99.5t-111.5 38.5q-73 0 -132.5 -40.5t-87.5 -109.5z" />
    <glyph glyph-name="Ecaron" unicode="&#x11a;" 
d="M423 609l-108 109q-10 7 -10 15q0 10 7.5 17.5t17.5 7.5q6 0 16 -8l88 -88l127 88q11 8 19 8q16 0 16 -16q0 -12 -18 -25zM223 272l-49 -231h314l25 119q6 27 27 27q7 0 11.5 -4.5t4.5 -10.5q0 -2 -2 -12l-34 -160h-450q-23 0 -23 17q0 24 32 24h54l102 481h-54
q-23 0 -23 17q0 24 32 24h429l-30 -139q-5 -27 -26 -27q-7 0 -11.5 4.5t-4.5 10.5q0 24 10 61.5t12 48.5h-293l-44 -209h145l9 45q6 27 26 27q17 0 17 -15q0 -4 -2 -12l-28 -131q-5 -27 -26 -27q-7 0 -11.5 4.5t-4.5 10.5q0 12 5 32t6 25h-145z" />
    <glyph glyph-name="ecaron" unicode="&#x11b;" 
d="M423 492l-108 109q-10 7 -10 15q0 10 7.5 17.5t17.5 7.5q6 0 16 -8l88 -88l127 88q11 8 19 8q16 0 16 -16q0 -12 -18 -25zM531 70q0 -26 -78.5 -56t-152.5 -30q-87 0 -141.5 52t-54.5 135q0 103 84 181.5t195 78.5q82 0 134.5 -47.5t52.5 -121.5q0 -23 -8 -63h-416
q-1 -10 -1 -22q0 -67 46 -109.5t119 -42.5q47 0 99.5 15t88.5 39q13 7 18 7q15 0 15 -16zM155 240h374q1 5 1 12q0 61 -43.5 99.5t-111.5 38.5q-73 0 -132.5 -40.5t-87.5 -109.5z" />
    <glyph glyph-name="Gcircumflex" unicode="&#x11c;" 
d="M473 752l109 -108q9 -10 9 -16q0 -10 -7.5 -17.5t-17.5 -7.5q-6 0 -16 8l-88 88l-127 -88q-11 -8 -19 -8q-16 0 -16 16q0 10 18 24zM575 465q0 9 -15 25t-51 31t-81 15q-86 0 -161.5 -64.5t-94.5 -154.5q-2 -8 -9 -37.5t-10 -50.5t-3 -42q0 -76 51 -119t140 -43
q70 0 151 34l32 150h-139q-23 0 -23 16q0 25 32 25h194q24 0 24 -16q0 -25 -33 -25h-14l-37 -173q-101 -52 -198 -52q-103 0 -162.5 52.5t-59.5 142.5q0 34 7 65l16 74q23 109 111 183.5t194 74.5q98 0 154 -54q8 41 29 41q17 0 17 -15q0 -4 -2 -12l-19 -91q-6 -28 -27 -28
q-7 0 -16 12z" />
    <glyph glyph-name="gcircumflex" unicode="&#x11d;" 
d="M444 606l109 -108q9 -10 9 -16q0 -10 -7.5 -17.5t-17.5 -7.5q-6 0 -16 8l-88 88l-127 -88q-11 -8 -19 -8q-16 0 -16 16q0 10 18 24zM511 334l18 83h95q23 0 23 -16q0 -25 -32 -25h-54l-86 -404q-4 -20 -18 -44.5t-37.5 -51t-61 -44.5t-81.5 -18h-115q-23 0 -23 16
q0 25 32 25h116q51 0 94 36t54 87l28 129q-87 -97 -192 -97q-73 0 -119.5 47t-46.5 120q0 97 79 175.5t177 78.5q105 0 150 -97zM354 390q-80 0 -143.5 -62.5t-63.5 -141.5q0 -60 37.5 -97.5t97.5 -37.5q82 0 145.5 63t63.5 144q0 59 -38 95.5t-99 36.5z" />
    <glyph glyph-name="Gbreve" unicode="&#x11e;" 
d="M636 725q0 -35 -49 -75.5t-121 -40.5q-54 0 -89 26.5t-35 68.5q0 15 8 26t19 11q8 0 17 -11l-2 -29q0 -6 9 -17.5t31.5 -22.5t51.5 -11q40 0 74.5 20t43.5 48q8 23 25 23q6 0 11.5 -5.5t5.5 -10.5zM575 465q0 9 -15 25t-51 31t-81 15q-86 0 -161.5 -64.5t-94.5 -154.5
q-2 -8 -9 -37.5t-10 -50.5t-3 -42q0 -76 51 -119t140 -43q70 0 151 34l32 150h-139q-23 0 -23 16q0 25 32 25h194q24 0 24 -16q0 -25 -33 -25h-14l-37 -173q-101 -52 -198 -52q-103 0 -162.5 52.5t-59.5 142.5q0 34 7 65l16 74q23 109 111 183.5t194 74.5q98 0 154 -54
q8 41 29 41q17 0 17 -15q0 -4 -2 -12l-19 -91q-6 -28 -27 -28q-7 0 -16 12z" />
    <glyph glyph-name="gbreve" unicode="&#x11f;" 
d="M574 606q0 -35 -49 -75.5t-121 -40.5q-54 0 -89 26.5t-35 68.5q0 15 8 26t19 11q8 0 17 -11l-2 -29q0 -6 9 -17.5t31.5 -22.5t51.5 -11q40 0 74.5 20t43.5 48q8 23 25 23q6 0 11.5 -5.5t5.5 -10.5zM511 334l18 83h95q23 0 23 -16q0 -25 -32 -25h-54l-86 -404
q-4 -20 -18 -44.5t-37.5 -51t-61 -44.5t-81.5 -18h-115q-23 0 -23 16q0 25 32 25h116q51 0 94 36t54 87l28 129q-87 -97 -192 -97q-73 0 -119.5 47t-46.5 120q0 97 79 175.5t177 78.5q105 0 150 -97zM354 390q-80 0 -143.5 -62.5t-63.5 -141.5q0 -60 37.5 -97.5t97.5 -37.5
q82 0 145.5 63t63.5 144q0 59 -38 95.5t-99 36.5z" />
    <glyph glyph-name="Gdotaccent" unicode="&#x120;" 
d="M463 713q18 0 29.5 -11.5t11.5 -28.5q0 -23 -19 -41.5t-43 -18.5q-17 0 -28.5 11.5t-11.5 28.5q0 23 19 41.5t42 18.5zM575 465q0 9 -15 25t-51 31t-81 15q-86 0 -161.5 -64.5t-94.5 -154.5q-2 -8 -9 -37.5t-10 -50.5t-3 -42q0 -76 51 -119t140 -43q70 0 151 34l32 150
h-139q-23 0 -23 16q0 25 32 25h194q24 0 24 -16q0 -25 -33 -25h-14l-37 -173q-101 -52 -198 -52q-103 0 -162.5 52.5t-59.5 142.5q0 34 7 65l16 74q23 109 111 183.5t194 74.5q98 0 154 -54q8 41 29 41q17 0 17 -15q0 -4 -2 -12l-19 -91q-6 -28 -27 -28q-7 0 -16 12z" />
    <glyph glyph-name="gdotaccent" unicode="&#x121;" 
d="M433 568q18 0 29.5 -11.5t11.5 -28.5q0 -23 -19 -41.5t-43 -18.5q-17 0 -28.5 11.5t-11.5 28.5q0 23 19 41.5t42 18.5zM511 334l18 83h95q23 0 23 -16q0 -25 -32 -25h-54l-86 -404q-4 -20 -18 -44.5t-37.5 -51t-61 -44.5t-81.5 -18h-115q-23 0 -23 16q0 25 32 25h116
q51 0 94 36t54 87l28 129q-87 -97 -192 -97q-73 0 -119.5 47t-46.5 120q0 97 79 175.5t177 78.5q105 0 150 -97zM354 390q-80 0 -143.5 -62.5t-63.5 -141.5q0 -60 37.5 -97.5t97.5 -37.5q82 0 145.5 63t63.5 144q0 59 -38 95.5t-99 36.5z" />
    <glyph glyph-name="Gcommaaccent" unicode="&#x122;" 
d="M292 -54h67l-101 -133q-10 -13 -18 -13q-12 0 -12 12q0 5 3 8zM575 465q0 9 -15 25t-51 31t-81 15q-86 0 -161.5 -64.5t-94.5 -154.5q-2 -8 -9 -37.5t-10 -50.5t-3 -42q0 -76 51 -119t140 -43q70 0 151 34l32 150h-139q-23 0 -23 16q0 25 32 25h194q24 0 24 -16
q0 -25 -33 -25h-14l-37 -173q-101 -52 -198 -52q-103 0 -162.5 52.5t-59.5 142.5q0 34 7 65l16 74q23 109 111 183.5t194 74.5q98 0 154 -54q8 41 29 41q17 0 17 -15q0 -4 -2 -12l-19 -91q-6 -28 -27 -28q-7 0 -16 12z" />
    <glyph glyph-name="gcommaaccent" unicode="&#x123;" 
d="M409 474h-80l120 159q12 15 22 15q14 0 14 -14q0 -4 -3 -10zM511 334l18 83h95q23 0 23 -16q0 -25 -32 -25h-54l-86 -404q-4 -20 -18 -44.5t-37.5 -51t-61 -44.5t-81.5 -18h-115q-23 0 -23 16q0 25 32 25h116q51 0 94 36t54 87l28 129q-87 -97 -192 -97q-73 0 -119.5 47
t-46.5 120q0 97 79 175.5t177 78.5q105 0 150 -97zM354 390q-80 0 -143.5 -62.5t-63.5 -141.5q0 -60 37.5 -97.5t97.5 -37.5q82 0 145.5 63t63.5 144q0 59 -38 95.5t-99 36.5z" />
    <glyph glyph-name="Hcircumflex" unicode="&#x124;" 
d="M462 752l109 -108q9 -10 9 -16q0 -10 -7.5 -17.5t-17.5 -7.5q-6 0 -16 8l-88 88l-127 -88q-11 -8 -19 -8q-16 0 -16 16q0 10 18 24zM495 272h-270l-49 -231h54q23 0 23 -16q0 -11 -9 -18t-23 -7h-140q-24 0 -24 16q0 25 32 25h46l102 481h-25q-23 0 -23 16q0 25 32 25
h120q23 0 23 -16q0 -25 -32 -25h-54l-44 -209h270l44 209h-54q-23 0 -23 16q0 25 32 25h120q23 0 23 -16q0 -25 -32 -25h-25l-102 -481h45q24 0 24 -16q0 -11 -9 -18t-23 -7h-141q-23 0 -23 16q0 25 32 25h54z" />
    <glyph glyph-name="hcircumflex" unicode="&#x125;" 
d="M466 793l109 -108q9 -10 9 -16q0 -10 -7.5 -17.5t-17.5 -7.5q-6 0 -16 8l-88 88l-127 -88q-11 -8 -19 -8q-16 0 -16 16q0 10 18 24zM501 309q0 32 -24 56.5t-81 24.5q-41 0 -72.5 -16.5t-82.5 -64.5l-13 -13l-54 -255h45q24 0 24 -16q0 -25 -33 -25h-132q-23 0 -23 17
q0 24 32 24h46l111 522h-55q-22 0 -22 17q0 24 31 24h95l-54 -257q48 46 87 65t85 19q60 0 96 -30.5t36 -81.5q0 -13 -3 -28l-53 -250h45q24 0 24 -16q0 -11 -9 -18t-23 -7h-132q-23 0 -23 17q0 24 31 24h46l52 247q3 10 3 21z" />
    <glyph glyph-name="Hbar" unicode="&#x126;" 
d="M573 445h9q36 0 36 -16q0 -24 -51 -24h-3l-77 -364h45q24 0 24 -16q0 -11 -9 -18t-23 -7h-141q-23 0 -23 16q0 25 32 25h54l49 231h-270l-49 -231h54q23 0 23 -16q0 -11 -9 -18t-23 -7h-140q-24 0 -24 16q0 25 32 25h46l77 364h-18q-37 0 -37 16q0 24 51 24h13l16 77h-25
q-23 0 -23 16q0 25 32 25h120q23 0 23 -16q0 -25 -32 -25h-54l-16 -77h270l16 77h-54q-23 0 -23 16q0 25 32 25h120q23 0 23 -16q0 -25 -32 -25h-25zM523 405h-270l-19 -92h270z" />
    <glyph glyph-name="hbar" unicode="&#x127;" 
d="M501 309q0 32 -24 56.5t-81 24.5q-41 0 -72.5 -16.5t-82.5 -64.5l-13 -13l-54 -255h45q24 0 24 -16q0 -25 -33 -25h-132q-23 0 -23 17q0 24 32 24h46l92 432h-70q-19 0 -19 16q0 24 26 24h71l11 50h-55q-22 0 -22 17q0 24 31 24h95l-19 -91h77q18 0 18 -16q0 -24 -26 -24
h-78l-26 -126q48 46 87 65t85 19q60 0 96 -30.5t36 -81.5q0 -13 -3 -28l-53 -250h45q24 0 24 -16q0 -11 -9 -18t-23 -7h-132q-23 0 -23 17q0 24 31 24h46l52 247q3 10 3 21z" />
    <glyph glyph-name="Itilde" unicode="&#x128;" 
d="M503 657q19 0 46.5 23t35.5 23q7 0 12 -4.5t5 -11.5q0 -13 -37 -42t-69 -29q-25 0 -64 24t-50 24q-24 0 -49 -22.5t-36 -22.5q-16 0 -16 15t37.5 43t70.5 28q22 0 62 -24t52 -24zM431 522l-102 -481h139q24 0 24 -16q0 -11 -9 -18t-23 -7h-320q-23 0 -23 16q0 25 31 25
h140l102 481h-139q-23 0 -23 16q0 25 31 25h320q24 0 24 -16q0 -11 -9 -18t-23 -7h-140z" />
    <glyph glyph-name="itilde" unicode="&#x129;" 
d="M468 498q19 0 46.5 23t35.5 23q7 0 12 -4.5t5 -11.5q0 -13 -37 -42t-69 -29q-25 0 -64 24t-50 24q-24 0 -49 -22.5t-36 -22.5q-16 0 -16 15t37.5 43t70.5 28q22 0 62 -24t52 -24zM409 417l-80 -376h160q24 0 24 -16q0 -11 -9 -18t-23 -7h-362q-23 0 -23 16q0 25 31 25
h161l71 335h-118q-23 0 -23 17q0 24 32 24h159z" />
    <glyph glyph-name="Imacron" unicode="&#x12a;" 
d="M552 627h-236q-23 0 -23 16q0 24 32 24h236q23 0 23 -16q0 -24 -32 -24zM431 522l-102 -481h139q24 0 24 -16q0 -11 -9 -18t-23 -7h-320q-23 0 -23 16q0 25 31 25h140l102 481h-139q-23 0 -23 16q0 25 31 25h320q24 0 24 -16q0 -11 -9 -18t-23 -7h-140z" />
    <glyph glyph-name="imacron" unicode="&#x12b;" 
d="M525 531h-236q-23 0 -23 16q0 24 32 24h236q23 0 23 -16q0 -24 -32 -24zM409 417l-80 -376h160q24 0 24 -16q0 -11 -9 -18t-23 -7h-362q-23 0 -23 16q0 25 31 25h161l71 335h-118q-23 0 -23 17q0 24 32 24h159z" />
    <glyph glyph-name="Ibreve" unicode="&#x12c;" 
d="M598 719q0 -35 -49 -75.5t-121 -40.5q-54 0 -89 26.5t-35 68.5q0 15 8 26t19 11q8 0 17 -11l-2 -29q0 -6 9 -17.5t31.5 -22.5t51.5 -11q40 0 74.5 20t43.5 48q8 23 25 23q6 0 11.5 -5.5t5.5 -10.5zM431 522l-102 -481h139q24 0 24 -16q0 -11 -9 -18t-23 -7h-320
q-23 0 -23 16q0 25 31 25h140l102 481h-139q-23 0 -23 16q0 25 31 25h320q24 0 24 -16q0 -11 -9 -18t-23 -7h-140z" />
    <glyph glyph-name="ibreve" unicode="&#x12d;" 
d="M567 573q0 -35 -49 -75.5t-121 -40.5q-54 0 -89 26.5t-35 68.5q0 15 8 26t19 11q8 0 17 -11l-2 -29q0 -6 9 -17.5t31.5 -22.5t51.5 -11q40 0 74.5 20t43.5 48q8 23 25 23q6 0 11.5 -5.5t5.5 -10.5zM409 417l-80 -376h160q24 0 24 -16q0 -11 -9 -18t-23 -7h-362
q-23 0 -23 16q0 25 31 25h161l71 335h-118q-23 0 -23 17q0 24 32 24h159z" />
    <glyph glyph-name="Iogonek" unicode="&#x12e;" 
d="M303 -108q0 13 4 25t13 22.5t16.5 18t21 15.5t19.5 11.5t19 9.5l13 6h-269q-23 0 -23 16q0 25 31 25h140l102 481h-139q-23 0 -23 16q0 25 31 25h320q24 0 24 -16q0 -11 -9 -18t-23 -7h-140l-102 -481h139q24 0 24 -16q0 -4 -1 -7t-2.5 -5.5t-5 -5t-6 -4t-8.5 -4
t-10 -3.5t-12.5 -4t-13.5 -5q-35 -11 -61.5 -37.5t-26.5 -49.5q0 -25 32 -25q30 0 43.5 10.5t21.5 10.5q4 0 7.5 -4t3.5 -8q0 -14 -26.5 -26.5t-56.5 -12.5q-67 0 -67 47z" />
    <glyph glyph-name="iogonek" unicode="&#x12f;" 
d="M345 -109q0 65 99 109h-325q-23 0 -23 16q0 25 31 25h161l71 335h-118q-23 0 -23 17q0 24 32 24h159l-80 -376h160q24 0 24 -16q0 -13 -32 -29t-64 -40t-32 -55q0 -24 38 -24q22 0 40 9.5t21 9.5q11 0 11 -12q0 -14 -27.5 -26.5t-57.5 -12.5q-65 0 -65 46zM451 624
l-22 -104h-59l22 104h59z" />
    <glyph glyph-name="Idotaccent" unicode="&#x130;" 
d="M449 725q18 0 29.5 -11.5t11.5 -28.5q0 -23 -19 -41.5t-43 -18.5q-17 0 -28.5 11.5t-11.5 28.5q0 23 19 41.5t42 18.5zM431 522l-102 -481h139q24 0 24 -16q0 -11 -9 -18t-23 -7h-320q-23 0 -23 16q0 25 31 25h140l102 481h-139q-23 0 -23 16q0 25 31 25h320q24 0 24 -16
q0 -11 -9 -18t-23 -7h-140z" />
    <glyph glyph-name="dotlessi" unicode="&#x131;" 
d="M409 417l-80 -376h160q24 0 24 -16q0 -11 -9 -18t-23 -7h-362q-23 0 -23 16q0 25 31 25h161l71 335h-118q-23 0 -23 17q0 24 32 24h159z" />
    <glyph glyph-name="IJ" unicode="&#x132;" 
d="M251 522l-102 -481h49q24 0 24 -16q0 -11 -9 -18t-23 -7h-140q-23 0 -23 16q0 25 31 25h50l102 481h-49q-23 0 -23 16q0 25 31 25h140q24 0 24 -16q0 -11 -9 -18t-23 -7h-50zM590 522l-76 -357q-17 -81 -60.5 -131t-115.5 -50q-46 0 -66.5 16t-52.5 74l32 149q6 27 26 27
q7 0 11.5 -4.5t4.5 -10.5q0 -30 -13.5 -79t-15.5 -63q17 -32 23 -41.5t21 -18t39 -8.5q57 0 84 36t42 104l76 357h-107q-24 0 -24 16q0 25 32 25h199q23 0 23 -16q0 -25 -32 -25h-50z" />
    <glyph glyph-name="ij" unicode="&#x133;" 
d="M344 624l-22 -104h-59l22 104h59zM309 417l-80 -376h123q24 0 24 -16q0 -11 -9 -18t-23 -7h-287q-23 0 -23 16q0 25 31 25h123l71 335h-118q-23 0 -23 17q0 24 32 24h159zM597 376h-140q-24 0 -24 16q0 25 33 25h181l-95 -445q-14 -70 -67 -114t-121 -44h-129
q-23 0 -23 16q0 25 32 25h128q50 0 89.5 33t49.5 84zM647 624l-22 -104h-59l22 104h59z" />
    <glyph glyph-name="Jcircumflex" unicode="&#x134;" 
d="M592 752l109 -108q9 -10 9 -16q0 -10 -7.5 -17.5t-17.5 -7.5q-6 0 -16 8l-88 88l-127 -88q-11 -8 -19 -8q-16 0 -16 16q0 10 18 24zM571 522l-76 -357q-16 -74 -83 -127.5t-143 -53.5q-48 0 -87 20.5t-82 69.5l32 149q6 27 26 27q7 0 11.5 -4.5t4.5 -10.5
q0 -30 -13.5 -79t-15.5 -63q61 -68 133 -68q61 0 112 40.5t64 99.5l76 357h-158q-24 0 -24 16q0 25 32 25h296q23 0 23 -16q0 -25 -32 -25h-96z" />
    <glyph glyph-name="jcircumflex" unicode="&#x135;" 
d="M497 376h-240q-24 0 -24 16q0 25 33 25h281l-95 -445q-14 -70 -67 -114t-121 -44h-129q-23 0 -23 16q0 25 32 25h128q50 0 89.5 33t49.5 84zM451 626l109 -108q9 -10 9 -16q0 -10 -7.5 -17.5t-17.5 -7.5q-6 0 -16 8l-88 88l-127 -88q-11 -8 -19 -8q-16 0 -16 16
q0 10 18 24z" />
    <glyph glyph-name="Kcommaaccent" unicode="&#x136;" 
d="M292 -54h67l-101 -133q-10 -13 -18 -13q-12 0 -12 12q0 5 3 8zM212 221l-38 -180h74q24 0 24 -16q0 -11 -9 -18t-23 -7h-170q-23 0 -23 17q0 24 32 24h54l102 481h-54q-23 0 -23 17q0 24 32 24h169q24 0 24 -16q0 -25 -32 -25h-75l-53 -249l333 249h-45q-24 0 -24 16
q0 25 32 25h119q24 0 24 -16q0 -25 -32 -25h-17l-264 -198q66 -30 95 -84.5t54 -198.5h56q23 0 23 -16q0 -11 -9 -18t-23 -7h-86q-23 152 -53.5 211.5t-96.5 82.5z" />
    <glyph glyph-name="kcommaaccent" unicode="&#x137;" 
d="M258 -54h67l-101 -133q-10 -13 -18 -13q-12 0 -12 12q0 5 3 8zM223 180l-38 -180h-95q-23 0 -23 17q0 24 32 24h54l111 522h-54q-23 0 -23 17q0 24 31 24h96l-80 -375l204 147h-22q-23 0 -23 17q0 24 32 24h129q24 0 24 -17q0 -11 -9 -17.5t-23 -6.5h-47l-185 -131
l164 -204h45q23 0 23 -16q0 -11 -9 -18t-23 -7h-131q-23 0 -23 17q0 24 32 24h28l-142 178z" />
    <glyph glyph-name="kgreenlandic" unicode="&#x138;" 
d="M357 16q0 9 7.5 17t24.5 8h28l-176 150l-40 -191h-95q-24 0 -24 16q0 9 7.5 17t24.5 8h54l72 335h-54q-24 0 -24 16q0 9 7.5 17t24.5 8h95l-37 -177l202 136h-22q-24 0 -24 16q0 9 7.5 17t24.5 8h130q24 0 24 -15q0 -26 -32 -26h-47l-237 -159l197 -176h45q24 0 24 -15
q0 -26 -32 -26h-131q-24 0 -24 16z" />
    <glyph glyph-name="Lacute" unicode="&#x139;" 
d="M456 716l-135 -100q-13 -9 -20 -9q-17 0 -17 16q0 11 17 24l135 100q13 9 21 9q16 0 16 -16q0 -12 -17 -24zM338 522l-102 -481h272l34 160q6 27 26 27q17 0 17 -14q0 -3 -2 -13l-42 -201h-451q-23 0 -23 16q0 25 32 25h96l102 481h-96q-23 0 -23 17q0 24 31 24h234
q23 0 23 -16q0 -25 -32 -25h-96z" />
    <glyph glyph-name="lacute" unicode="&#x13a;" 
d="M531 751l-135 -100q-13 -9 -20 -9q-17 0 -17 16q0 11 17 24l135 100q13 9 21 9q16 0 16 -16q0 -12 -17 -24zM449 604l-120 -563h160q24 0 24 -16q0 -11 -9 -18t-23 -7h-362q-23 0 -23 16q0 25 31 25h161l111 522h-117q-23 0 -23 16q0 25 32 25h158z" />
    <glyph glyph-name="Lcommaaccent" unicode="&#x13b;" 
d="M292 -54h67l-101 -133q-10 -13 -18 -13q-12 0 -12 12q0 5 3 8zM338 522l-102 -481h272l34 160q6 27 26 27q17 0 17 -14q0 -3 -2 -13l-42 -201h-451q-23 0 -23 16q0 25 32 25h96l102 481h-96q-23 0 -23 17q0 24 31 24h234q23 0 23 -16q0 -25 -32 -25h-96z" />
    <glyph glyph-name="lcommaaccent" unicode="&#x13c;" 
d="M280 -54h67l-101 -133q-10 -13 -18 -13q-12 0 -12 12q0 5 3 8zM449 604l-120 -563h160q24 0 24 -16q0 -11 -9 -18t-23 -7h-362q-23 0 -23 16q0 25 31 25h161l111 522h-117q-23 0 -23 16q0 25 32 25h158z" />
    <glyph glyph-name="Lcaron" unicode="&#x13d;" 
d="M563 603h80l-120 -159q-12 -15 -22 -15q-14 0 -14 14q0 4 3 10zM338 522l-102 -481h272l34 160q6 27 26 27q17 0 17 -14q0 -3 -2 -13l-42 -201h-451q-23 0 -23 16q0 25 32 25h96l102 481h-96q-23 0 -23 17q0 24 31 24h234q23 0 23 -16q0 -25 -32 -25h-96z" />
    <glyph glyph-name="lcaron" unicode="&#x13e;" 
d="M543 600h80l-120 -159q-12 -15 -22 -15q-14 0 -14 14q0 4 3 10zM428 604l-120 -563h160q24 0 24 -16q0 -11 -9 -18t-23 -7h-362q-23 0 -23 16q0 25 31 25h161l111 522h-117q-23 0 -23 16q0 25 32 25h158z" />
    <glyph glyph-name="Ldot" unicode="&#x13f;" 
d="M506 415q18 0 29.5 -11.5t11.5 -28.5q0 -23 -19 -41.5t-43 -18.5q-17 0 -28.5 11.5t-11.5 28.5q0 23 19 41.5t42 18.5zM338 522l-102 -481h272l34 160q6 27 26 27q17 0 17 -14q0 -3 -2 -13l-42 -201h-451q-23 0 -23 16q0 25 32 25h96l102 481h-96q-23 0 -23 17
q0 24 31 24h234q23 0 23 -16q0 -25 -32 -25h-96z" />
    <glyph glyph-name="ldot" unicode="&#x140;" 
d="M528 415q18 0 29.5 -11.5t11.5 -28.5q0 -23 -19 -41.5t-43 -18.5q-17 0 -28.5 11.5t-11.5 28.5q0 23 19 41.5t42 18.5zM401 604l-120 -563h160q24 0 24 -16q0 -11 -9 -18t-23 -7h-362q-23 0 -23 16q0 25 31 25h161l111 522h-117q-23 0 -23 16q0 25 32 25h158z" />
    <glyph glyph-name="Lslash" unicode="&#x141;" 
d="M337 522l-45 -212l151 80q13 5 19 5q16 0 16 -16q0 -13 -22 -24l-174 -92l-47 -222h274l34 161q6 27 27 27q7 0 11.5 -4.5t4.5 -10.5q0 -4 -2 -12l-43 -202h-452q-23 0 -23 16q0 25 32 25h96l44 205l-120 -62q-14 -6 -18 -6q-6 0 -10.5 5t-4.5 12q0 15 20 24l143 74
l48 229h-96q-23 0 -23 16q0 25 32 25h233q23 0 23 -16q0 -25 -31 -25h-97z" />
    <glyph glyph-name="lslash" unicode="&#x142;" 
d="M447 604l-55 -261l98 51q14 6 19 6q6 0 10.5 -4.5t4.5 -11.5q0 -15 -21 -25l-121 -62l-54 -256h162q23 0 23 -16q0 -11 -9 -18t-23 -7h-362q-23 0 -23 16q0 25 32 25h159l50 239l-97 -50q-12 -6 -19 -6q-6 0 -10.5 4.5t-4.5 11.5q0 15 21 26l120 61l50 236h-116
q-23 0 -23 17q0 24 32 24h157z" />
    <glyph glyph-name="Nacute" unicode="&#x143;" 
d="M533 734l-135 -100q-13 -9 -20 -9q-17 0 -17 16q0 11 17 24l135 100q13 9 21 9q16 0 16 -16q0 -12 -17 -24zM501 0h-52l-198 504l-98 -463h74q24 0 24 -16q0 -11 -9 -18t-23 -7h-150q-23 0 -23 17q0 24 32 24h34l102 481h-54q-23 0 -23 17q0 24 32 24h106l198 -504
l98 463h-74q-24 0 -24 16q0 25 32 25h150q23 0 23 -16q0 -25 -32 -25h-34z" />
    <glyph glyph-name="nacute" unicode="&#x144;" 
d="M533 601l-135 -100q-13 -9 -20 -9q-17 0 -17 16q0 11 17 24l135 100q13 9 21 9q16 0 16 -16q0 -12 -17 -24zM502 308q0 30 -22.5 56t-76.5 26q-48 0 -81 -18.5t-92 -77.5l-54 -253h45q23 0 23 -16q0 -25 -32 -25h-131q-24 0 -24 16q0 25 32 25h46l71 335h-34
q-23 0 -23 16q0 25 32 25h75l-15 -69q54 48 90.5 65.5t82.5 17.5q59 0 95 -30.5t36 -81.5q0 -16 -2 -24l-54 -254h34q23 0 23 -16q0 -11 -9 -18t-23 -7h-109q-23 0 -23 16q0 25 32 25h34l52 247q2 7 2 20z" />
    <glyph glyph-name="Ncommaaccent" unicode="&#x145;" 
d="M292 -54h67l-101 -133q-10 -13 -18 -13q-12 0 -12 12q0 5 3 8zM501 0h-52l-198 504l-98 -463h74q24 0 24 -16q0 -11 -9 -18t-23 -7h-150q-23 0 -23 17q0 24 32 24h34l102 481h-54q-23 0 -23 17q0 24 32 24h106l198 -504l98 463h-74q-24 0 -24 16q0 25 32 25h150
q23 0 23 -16q0 -25 -32 -25h-34z" />
    <glyph glyph-name="ncommaaccent" unicode="&#x146;" 
d="M292 -54h67l-101 -133q-10 -13 -18 -13q-12 0 -12 12q0 5 3 8zM502 308q0 30 -22.5 56t-76.5 26q-48 0 -81 -18.5t-92 -77.5l-54 -253h45q23 0 23 -16q0 -25 -32 -25h-131q-24 0 -24 16q0 25 32 25h46l71 335h-34q-23 0 -23 16q0 25 32 25h75l-15 -69q54 48 90.5 65.5
t82.5 17.5q59 0 95 -30.5t36 -81.5q0 -16 -2 -24l-54 -254h34q23 0 23 -16q0 -11 -9 -18t-23 -7h-109q-23 0 -23 16q0 25 32 25h34l52 247q2 7 2 20z" />
    <glyph glyph-name="Ncaron" unicode="&#x147;" 
d="M423 609l-108 109q-10 7 -10 15q0 10 7.5 17.5t17.5 7.5q6 0 16 -8l88 -88l127 88q11 8 19 8q16 0 16 -16q0 -12 -18 -25zM501 0h-52l-198 504l-98 -463h74q24 0 24 -16q0 -11 -9 -18t-23 -7h-150q-23 0 -23 17q0 24 32 24h34l102 481h-54q-23 0 -23 17q0 24 32 24h106
l198 -504l98 463h-74q-24 0 -24 16q0 25 32 25h150q23 0 23 -16q0 -25 -32 -25h-34z" />
    <glyph glyph-name="ncaron" unicode="&#x148;" 
d="M423 474l-108 109q-10 7 -10 15q0 10 7.5 17.5t17.5 7.5q6 0 16 -8l88 -88l127 88q11 8 19 8q16 0 16 -16q0 -12 -18 -25zM502 308q0 30 -22.5 56t-76.5 26q-48 0 -81 -18.5t-92 -77.5l-54 -253h45q23 0 23 -16q0 -25 -32 -25h-131q-24 0 -24 16q0 25 32 25h46l71 335
h-34q-23 0 -23 16q0 25 32 25h75l-15 -69q54 48 90.5 65.5t82.5 17.5q59 0 95 -30.5t36 -81.5q0 -16 -2 -24l-54 -254h34q23 0 23 -16q0 -11 -9 -18t-23 -7h-109q-23 0 -23 16q0 25 32 25h34l52 247q2 7 2 20z" />
    <glyph glyph-name="napostrophe" unicode="&#x149;" 
d="M187 664h80l-120 -159q-12 -15 -22 -15q-14 0 -14 14q0 4 3 10zM502 308q0 30 -22.5 56t-76.5 26q-48 0 -81 -18.5t-92 -77.5l-54 -253h45q23 0 23 -16q0 -25 -32 -25h-131q-24 0 -24 16q0 25 32 25h46l71 335h-34q-23 0 -23 16q0 25 32 25h75l-15 -69q54 48 90.5 65.5
t82.5 17.5q59 0 95 -30.5t36 -81.5q0 -16 -2 -24l-54 -254h34q23 0 23 -16q0 -11 -9 -18t-23 -7h-109q-23 0 -23 16q0 25 32 25h34l52 247q2 7 2 20z" />
    <glyph glyph-name="Eng" unicode="&#x14a;" 
d="M180 537q0 26 32 26h75l-15 -69q93 83 194 83q57 0 94 -44t37 -129q0 -47 -11 -98q-67 -317 -214 -317q-22 0 -51 7.5t-29 23.5q0 9 7 16t15 7q4 0 25 -6.5t42 -6.5q105 0 163 269q11 48 11 94q0 69 -28 106t-74 37q-96 0 -192 -96l-85 -399h45q23 0 23 -15
q0 -26 -32 -26h-131q-24 0 -24 15q0 26 33 26h45l102 481h-34q-23 0 -23 15z" />
    <glyph glyph-name="eng" unicode="&#x14b;" 
d="M486 35q-33 -149 -146 -151q-21 0 -50.5 7.5t-29.5 22.5q0 9 7 16.5t16 7.5q3 0 24 -6.5t43 -6.5q33 0 60 32.5t38 83.5l52 247q2 7 2 20q0 30 -22.5 56t-76.5 26q-48 0 -81 -18.5t-92 -77.5l-54 -253h45q23 0 23 -16q0 -25 -32 -25h-131q-24 0 -24 16q0 25 32 25h46
l71 335h-34q-23 0 -23 16q0 25 32 25h75l-15 -69q54 48 90.5 65.5t82.5 17.5q53 0 92 -27.5t39 -92.5q0 -3 -1 -7z" />
    <glyph glyph-name="Omacron" unicode="&#x14c;" 
d="M564 625h-236q-23 0 -23 16q0 24 32 24h236q23 0 23 -16q0 -24 -32 -24zM422 576q86 0 140 -61t54 -158q0 -94 -45 -181t-119.5 -139.5t-155.5 -52.5q-86 0 -140 61.5t-54 161.5q0 93 45.5 178.5t120 138t154.5 52.5zM415 535q-103 0 -187 -98.5t-84 -220.5
q0 -83 45 -137t113 -54q104 0 188 98.5t84 221.5q0 82 -45 136t-114 54z" />
    <glyph glyph-name="omacron" unicode="&#x14d;" 
d="M525 522h-236q-23 0 -23 16q0 24 32 24h236q23 0 23 -16q0 -24 -32 -24zM391 431q83 0 134.5 -50t51.5 -129q0 -104 -86 -186t-195 -82q-82 0 -133.5 50t-51.5 128q0 104 86 186.5t194 82.5zM382 390q-89 0 -159 -67t-70 -152q0 -64 42.5 -105t109.5 -41q89 0 159.5 67
t70.5 152q0 65 -42.5 105.5t-110.5 40.5z" />
    <glyph glyph-name="Obreve" unicode="&#x14e;" 
d="M597 719q0 -35 -49 -75.5t-121 -40.5q-54 0 -89 26.5t-35 68.5q0 15 8 26t19 11q8 0 17 -11l-2 -29q0 -6 9 -17.5t31.5 -22.5t51.5 -11q40 0 74.5 20t43.5 48q8 23 25 23q6 0 11.5 -5.5t5.5 -10.5zM422 576q86 0 140 -61t54 -158q0 -94 -45 -181t-119.5 -139.5
t-155.5 -52.5q-86 0 -140 61.5t-54 161.5q0 93 45.5 178.5t120 138t154.5 52.5zM415 535q-103 0 -187 -98.5t-84 -220.5q0 -83 45 -137t113 -54q104 0 188 98.5t84 221.5q0 82 -45 136t-114 54z" />
    <glyph glyph-name="obreve" unicode="&#x14f;" 
d="M567 573q0 -35 -49 -75.5t-121 -40.5q-54 0 -89 26.5t-35 68.5q0 15 8 26t19 11q8 0 17 -11l-2 -29q0 -6 9 -17.5t31.5 -22.5t51.5 -11q40 0 74.5 20t43.5 48q8 23 25 23q6 0 11.5 -5.5t5.5 -10.5zM391 431q83 0 134.5 -50t51.5 -129q0 -104 -86 -186t-195 -82
q-82 0 -133.5 50t-51.5 128q0 104 86 186.5t194 82.5zM382 390q-89 0 -159 -67t-70 -152q0 -64 42.5 -105t109.5 -41q89 0 159.5 67t70.5 152q0 65 -42.5 105.5t-110.5 40.5z" />
    <glyph glyph-name="Ohungarumlaut" unicode="&#x150;" 
d="M509 719l-117 -94q-12 -9 -21 -9q-16 0 -16 16q0 11 17 24l117 94q12 9 21 9q16 0 16 -16q0 -11 -17 -24zM651 719l-118 -94q-12 -9 -21 -9q-16 0 -16 16q0 11 17 24l118 94q12 9 21 9q16 0 16 -16q0 -11 -17 -24zM422 576q86 0 140 -61t54 -158q0 -94 -45 -181
t-119.5 -139.5t-155.5 -52.5q-86 0 -140 61.5t-54 161.5q0 93 45.5 178.5t120 138t154.5 52.5zM415 535q-103 0 -187 -98.5t-84 -220.5q0 -83 45 -137t113 -54q104 0 188 98.5t84 221.5q0 82 -45 136t-114 54z" />
    <glyph glyph-name="ohungarumlaut" unicode="&#x151;" 
d="M391 431q83 0 134.5 -50t51.5 -129q0 -104 -86 -186t-195 -82q-82 0 -133.5 50t-51.5 128q0 104 86 186.5t194 82.5zM382 390q-89 0 -159 -67t-70 -152q0 -64 42.5 -105t109.5 -41q89 0 159.5 67t70.5 152q0 65 -42.5 105.5t-110.5 40.5zM489 623l-117 -94q-12 -9 -21 -9
q-16 0 -16 16q0 11 17 24l117 94q12 9 21 9q16 0 16 -16q0 -11 -17 -24zM631 623l-118 -94q-12 -9 -21 -9q-16 0 -16 16q0 11 17 24l118 94q12 9 21 9q16 0 16 -16q0 -11 -17 -24z" />
    <glyph glyph-name="OE" unicode="&#x152;" 
d="M264 0q-58 0 -99.5 19t-62.5 51t-30.5 65t-9.5 68q0 148 92.5 254t221.5 106h314l-33 -154q-6 -27 -26 -27q-7 0 -11.5 4.5t-4.5 10.5q0 27 11.5 70t13.5 55h-191l-44 -209h78q1 2 3 13t3.5 15.5t5 12t8.5 10.5t12 3q17 0 17 -15q0 -4 -2 -12l-21 -96q-6 -27 -26 -27
q-7 0 -11.5 4.5t-4.5 10.5q0 10 7 40h-78l-49 -231h211l20 92q4 27 26 27q16 0 16 -16q0 -30 -13.5 -79t-16.5 -65h-326zM104 210q0 -23 3.5 -44t15 -44.5t29.5 -40.5t49.5 -28.5t72.5 -11.5h32l102 481h-32q-117 0 -194.5 -90.5t-77.5 -221.5z" />
    <glyph glyph-name="oe" unicode="&#x153;" 
d="M521 431q18 0 35 -5.5t35 -18.5t28.5 -42t10.5 -70q0 -40 -11 -96h-257q-3 -24 -3 -36q0 -61 25.5 -99.5t66.5 -38.5q24 0 51 15.5t46.5 31t27.5 15.5q16 0 16 -17t-55 -51.5t-97 -34.5q-44 0 -76.5 32t-42.5 87q-72 -119 -159 -119q-49 0 -80.5 45.5t-31.5 115.5
q0 107 65 196.5t143 89.5q40 0 69.5 -31t39.5 -83q68 114 154 114zM371 240h215q3 33 3 47q0 103 -77 103q-90 0 -141 -150zM330 267q0 55 -24 89t-60 34q-49 0 -102 -73t-53 -167q0 -52 23 -88.5t56 -36.5q59 0 109.5 77t50.5 165z" />
    <glyph glyph-name="Racute" unicode="&#x154;" 
d="M497 727l-135 -100q-13 -9 -20 -9q-17 0 -17 16q0 11 17 24l135 100q13 9 21 9q16 0 16 -16q0 -12 -17 -24zM218 251l-44 -210h74q24 0 24 -16q0 -11 -9 -18t-23 -7h-170q-23 0 -23 17q0 24 32 24h54l102 481h-54q-23 0 -23 17q0 24 31 24h249q63 0 106 -37t43 -92
q0 -116 -173 -172q41 -33 64.5 -74.5t61.5 -146.5h30q24 0 24 -16q0 -11 -9 -18t-23 -7h-57q-40 122 -71.5 173.5t-82.5 77.5h-133zM227 292h114q80 0 142 40.5t62 92.5q0 40 -34 68.5t-82 28.5h-153z" />
    <glyph glyph-name="racute" unicode="&#x155;" 
d="M533 594l-135 -100q-13 -9 -20 -9q-17 0 -17 16q0 11 17 24l135 100q13 9 21 9q16 0 16 -16q0 -12 -17 -24zM592 344q-6 0 -26 21t-46 21q-34 0 -76 -24t-140 -100l-47 -221h179q23 0 23 -17q0 -11 -9 -17.5t-23 -6.5h-316q-23 0 -23 17q0 11 9 17.5t23 6.5h96l71 335
h-74q-23 0 -23 17q0 10 8.5 17t22.5 7h116l-22 -102q84 64 131 88t86 24q37 0 62 -22.5t25 -35.5q0 -9 -8.5 -17t-18.5 -8z" />
    <glyph glyph-name="Rcommaaccent" unicode="&#x156;" 
d="M280 -54h67l-101 -133q-10 -13 -18 -13q-12 0 -12 12q0 5 3 8zM218 251l-44 -210h74q24 0 24 -16q0 -11 -9 -18t-23 -7h-170q-23 0 -23 17q0 24 32 24h54l102 481h-54q-23 0 -23 17q0 24 31 24h249q63 0 106 -37t43 -92q0 -116 -173 -172q41 -33 64.5 -74.5t61.5 -146.5
h30q24 0 24 -16q0 -11 -9 -18t-23 -7h-57q-40 122 -71.5 173.5t-82.5 77.5h-133zM227 292h114q80 0 142 40.5t62 92.5q0 40 -34 68.5t-82 28.5h-153z" />
    <glyph glyph-name="rcommaaccent" unicode="&#x157;" 
d="M280 -54h67l-101 -133q-10 -13 -18 -13q-12 0 -12 12q0 5 3 8zM592 344q-6 0 -26 21t-46 21q-34 0 -76 -24t-140 -100l-47 -221h179q23 0 23 -17q0 -11 -9 -17.5t-23 -6.5h-316q-23 0 -23 17q0 11 9 17.5t23 6.5h96l71 335h-74q-23 0 -23 17q0 10 8.5 17t22.5 7h116
l-22 -102q84 64 131 88t86 24q37 0 62 -22.5t25 -35.5q0 -9 -8.5 -17t-18.5 -8z" />
    <glyph glyph-name="Rcaron" unicode="&#x158;" 
d="M423 609l-108 109q-10 7 -10 15q0 10 7.5 17.5t17.5 7.5q6 0 16 -8l88 -88l127 88q11 8 19 8q16 0 16 -16q0 -12 -18 -25zM218 251l-44 -210h74q24 0 24 -16q0 -11 -9 -18t-23 -7h-170q-23 0 -23 17q0 24 32 24h54l102 481h-54q-23 0 -23 17q0 24 31 24h249q63 0 106 -37
t43 -92q0 -116 -173 -172q41 -33 64.5 -74.5t61.5 -146.5h30q24 0 24 -16q0 -11 -9 -18t-23 -7h-57q-40 122 -71.5 173.5t-82.5 77.5h-133zM227 292h114q80 0 142 40.5t62 92.5q0 40 -34 68.5t-82 28.5h-153z" />
    <glyph glyph-name="rcaron" unicode="&#x159;" 
d="M423 488l-108 109q-10 7 -10 15q0 10 7.5 17.5t17.5 7.5q6 0 16 -8l88 -88l127 88q11 8 19 8q16 0 16 -16q0 -12 -18 -25zM592 344q-6 0 -26 21t-46 21q-34 0 -76 -24t-140 -100l-47 -221h179q23 0 23 -17q0 -11 -9 -17.5t-23 -6.5h-316q-23 0 -23 17q0 11 9 17.5t23 6.5
h96l71 335h-74q-23 0 -23 17q0 10 8.5 17t22.5 7h116l-22 -102q84 64 131 88t86 24q37 0 62 -22.5t25 -35.5q0 -9 -8.5 -17t-18.5 -8z" />
    <glyph glyph-name="Sacute" unicode="&#x15a;" 
d="M533 733l-135 -100q-13 -9 -20 -9q-17 0 -17 16q0 11 17 24l135 100q13 9 21 9q16 0 16 -16q0 -12 -17 -24zM500 177q0 39 -31 60t-75 28.5t-87.5 17t-74.5 36t-31 73.5q0 73 66.5 129t152.5 56q88 0 135 -60q3 15 5 22t8.5 15.5t17.5 8.5q7 0 11.5 -4.5t4.5 -10.5
q0 -5 -2 -12l-22 -103q-5 -28 -25 -28q-9 0 -17 12l3 42q0 4 -12 22t-19 25q-13 13 -39.5 21.5t-52.5 8.5q-67 0 -118.5 -41.5t-51.5 -95.5q0 -32 22 -51t55.5 -26t72 -16t72 -18.5t55.5 -35.5t22 -67q0 -46 -20 -83t-49 -58.5t-64.5 -36t-63 -19.5t-47.5 -5q-108 0 -156 73
q0 -2 -2.5 -13.5t-4 -16t-5 -12.5t-9 -11t-12.5 -3t-11.5 4.5t-4.5 10.5q0 4 2 12l23 112q6 28 27 28q8 0 16 -12l-4 -46q0 -5 16 -26t25 -28q16 -13 46 -22t60 -9q77 0 135 46t58 107z" />
    <glyph glyph-name="sacute" unicode="&#x15b;" 
d="M508 589l-135 -100q-13 -9 -20 -9q-17 0 -17 16q0 11 17 24l135 100q13 9 21 9q16 0 16 -16q0 -12 -17 -24zM502 335q0 16 -34.5 36t-85.5 20q-58 0 -102.5 -25.5t-44.5 -58.5q0 -27 30 -41t69 -16.5t86 -13t71 -30.5q34 -27 34 -68q0 -63 -66.5 -109t-158.5 -46
q-96 0 -147 55q-9 -31 -19 -36q-5 -2 -10 -2q-6 0 -11 4.5t-5 10.5t2 12l17 83q6 27 27 27q7 0 11.5 -4.5t4.5 -10.5q0 -4 -1.5 -12.5t-1.5 -10.5q0 -32 39 -53t99 -21q72 0 123 31t51 74q0 62 -135 77q-28 3 -43 5.5t-39.5 9t-37.5 15t-23.5 24.5t-10.5 37q0 55 57 94
t139 39q86 0 129 -46q6 32 27 32q7 0 11.5 -4.5t4.5 -10.5q0 -3 -2 -13l-14 -69q-6 -28 -27 -28q-9 0 -16 12z" />
    <glyph glyph-name="Scircumflex" unicode="&#x15c;" 
d="M459 752l109 -108q9 -10 9 -16q0 -10 -7.5 -17.5t-17.5 -7.5q-6 0 -16 8l-88 88l-127 -88q-11 -8 -19 -8q-16 0 -16 16q0 10 18 24zM500 177q0 39 -31 60t-75 28.5t-87.5 17t-74.5 36t-31 73.5q0 73 66.5 129t152.5 56q88 0 135 -60q3 15 5 22t8.5 15.5t17.5 8.5
q7 0 11.5 -4.5t4.5 -10.5q0 -5 -2 -12l-22 -103q-5 -28 -25 -28q-9 0 -17 12l3 42q0 4 -12 22t-19 25q-13 13 -39.5 21.5t-52.5 8.5q-67 0 -118.5 -41.5t-51.5 -95.5q0 -32 22 -51t55.5 -26t72 -16t72 -18.5t55.5 -35.5t22 -67q0 -46 -20 -83t-49 -58.5t-64.5 -36t-63 -19.5
t-47.5 -5q-108 0 -156 73q0 -2 -2.5 -13.5t-4 -16t-5 -12.5t-9 -11t-12.5 -3t-11.5 4.5t-4.5 10.5q0 4 2 12l23 112q6 28 27 28q8 0 16 -12l-4 -46q0 -5 16 -26t25 -28q16 -13 46 -22t60 -9q77 0 135 46t58 107z" />
    <glyph glyph-name="scircumflex" unicode="&#x15d;" 
d="M429 606l109 -108q9 -10 9 -16q0 -10 -7.5 -17.5t-17.5 -7.5q-6 0 -16 8l-88 88l-127 -88q-11 -8 -19 -8q-16 0 -16 16q0 10 18 24zM502 335q0 16 -34.5 36t-85.5 20q-58 0 -102.5 -25.5t-44.5 -58.5q0 -27 30 -41t69 -16.5t86 -13t71 -30.5q34 -27 34 -68
q0 -63 -66.5 -109t-158.5 -46q-96 0 -147 55q-9 -31 -19 -36q-5 -2 -10 -2q-6 0 -11 4.5t-5 10.5t2 12l17 83q6 27 27 27q7 0 11.5 -4.5t4.5 -10.5q0 -4 -1.5 -12.5t-1.5 -10.5q0 -32 39 -53t99 -21q72 0 123 31t51 74q0 62 -135 77q-28 3 -43 5.5t-39.5 9t-37.5 15
t-23.5 24.5t-10.5 37q0 55 57 94t139 39q86 0 129 -46q6 32 27 32q7 0 11.5 -4.5t4.5 -10.5q0 -3 -2 -13l-14 -69q-6 -28 -27 -28q-9 0 -16 12z" />
    <glyph glyph-name="Scedilla" unicode="&#x15e;" 
d="M246 399q0 -38 31 -58t75 -27.5t87.5 -16.5t74.5 -36.5t31 -75.5q0 -80 -68 -138.5t-168 -62.5l-7 -34q29 -3 42 -15.5t13 -36.5q0 -33 -27 -55t-68 -22q-21 0 -49.5 9.5t-28.5 28.5q0 21 23 21q4 0 25.5 -9t39.5 -9q19 0 32 9t13 22q0 23 -35 23h-24l15 69
q-93 11 -128 71q0 -2 -2.5 -13.5t-4 -16t-5 -12.5t-9 -11t-12.5 -3t-11.5 4.5t-4.5 10.5q0 4 2 12l23 112q6 28 27 28q5 0 11 -5.5t6 -11.5l-5 -41q12 -20 17.5 -28t18.5 -22t26 -19.5t35 -10.5t50 -5q77 0 135 46t58 107q0 39 -31 60t-75 28.5t-87.5 17t-74.5 36t-31 73.5
q0 73 66.5 129t152.5 56q88 0 135 -60q3 15 5 22t8.5 15.5t17.5 8.5q7 0 11.5 -4.5t4.5 -10.5q0 -5 -2 -12l-22 -103q-5 -28 -25 -28q-9 0 -17 12l3 42q0 1 -3 8t-11.5 19t-21.5 23t-36 19t-51 8q-67 0 -118.5 -41.5t-51.5 -95.5z" />
    <glyph glyph-name="scedilla" unicode="&#x15f;" 
d="M502 335q0 16 -34.5 36t-85.5 20q-58 0 -102.5 -25.5t-44.5 -58.5q0 -29 45.5 -44t99.5 -20.5t99.5 -31t45.5 -73.5q0 -62 -62 -106t-154 -48l-7 -31q54 -1 54 -46q0 -34 -27 -57t-67 -23q-28 0 -54.5 11.5t-26.5 23.5q0 10 7 17t17 7q4 0 25 -10.5t38 -10.5
q22 0 36.5 9.5t14.5 24.5q0 20 -41 20h-21l14 66q-82 10 -118 53q-9 -31 -19 -36q-5 -2 -10 -2q-6 0 -11 4.5t-5 10.5t2 12l17 83q6 27 27 27q7 0 11.5 -4.5t4.5 -10.5q0 -4 -1.5 -12.5t-1.5 -10.5q0 -32 39 -53t98 -21q73 0 123.5 30.5t50.5 74.5q0 62 -134 77
q-23 3 -36.5 5t-34.5 6t-33 10t-25 15.5t-19 23t-6 31.5q0 55 57 94t139 39q86 0 129 -46q6 32 27 32q7 0 11.5 -4.5t4.5 -10.5q0 -3 -2 -13l-14 -69q-6 -28 -27 -28q-9 0 -16 12z" />
    <glyph glyph-name="Scaron" unicode="&#x160;" 
d="M423 609l-108 109q-10 7 -10 15q0 10 7.5 17.5t17.5 7.5q6 0 16 -8l88 -88l127 88q11 8 19 8q16 0 16 -16q0 -12 -18 -25zM500 177q0 39 -31 60t-75 28.5t-87.5 17t-74.5 36t-31 73.5q0 73 66.5 129t152.5 56q88 0 135 -60q3 15 5 22t8.5 15.5t17.5 8.5q7 0 11.5 -4.5
t4.5 -10.5q0 -5 -2 -12l-22 -103q-5 -28 -25 -28q-9 0 -17 12l3 42q0 4 -12 22t-19 25q-13 13 -39.5 21.5t-52.5 8.5q-67 0 -118.5 -41.5t-51.5 -95.5q0 -32 22 -51t55.5 -26t72 -16t72 -18.5t55.5 -35.5t22 -67q0 -46 -20 -83t-49 -58.5t-64.5 -36t-63 -19.5t-47.5 -5
q-108 0 -156 73q0 -2 -2.5 -13.5t-4 -16t-5 -12.5t-9 -11t-12.5 -3t-11.5 4.5t-4.5 10.5q0 4 2 12l23 112q6 28 27 28q8 0 16 -12l-4 -46q0 -5 16 -26t25 -28q16 -13 46 -22t60 -9q77 0 135 46t58 107z" />
    <glyph glyph-name="scaron" unicode="&#x161;" 
d="M423 489l-108 109q-10 7 -10 15q0 10 7.5 17.5t17.5 7.5q6 0 16 -8l88 -88l127 88q11 8 19 8q16 0 16 -16q0 -12 -18 -25zM502 335q0 16 -34.5 36t-85.5 20q-58 0 -102.5 -25.5t-44.5 -58.5q0 -27 30 -41t69 -16.5t86 -13t71 -30.5q34 -27 34 -68q0 -63 -66.5 -109
t-158.5 -46q-96 0 -147 55q-9 -31 -19 -36q-5 -2 -10 -2q-6 0 -11 4.5t-5 10.5t2 12l17 83q6 27 27 27q7 0 11.5 -4.5t4.5 -10.5q0 -4 -1.5 -12.5t-1.5 -10.5q0 -32 39 -53t99 -21q72 0 123 31t51 74q0 62 -135 77q-28 3 -43 5.5t-39.5 9t-37.5 15t-23.5 24.5t-10.5 37
q0 55 57 94t139 39q86 0 129 -46q6 32 27 32q7 0 11.5 -4.5t4.5 -10.5q0 -3 -2 -13l-14 -69q-6 -28 -27 -28q-9 0 -16 12z" />
    <glyph glyph-name="uni0162" unicode="&#x162;" 
d="M212 -113q4 0 25 -10.5t38 -10.5q22 0 36.5 9.5t14.5 24.5q0 20 -41 20h-21l17 80h-106q-23 0 -23 17q0 24 32 24h105l102 481h-167l-15 -73q-6 -27 -27 -27q-7 0 -11.5 4.5t-4.5 10.5q0 27 12 69.5t14 56.5h456l-24 -114q-6 -28 -26 -28q-5 0 -10 4.5t-6 9.5q0 12 1 14
l15 73h-166l-102 -481h105q23 0 23 -16q0 -11 -9 -18t-23 -7h-107l-10 -46q54 -2 54 -46q0 -34 -27 -57t-67 -23q-28 0 -54.5 11.5t-26.5 23.5q0 10 7 17t17 7z" />
    <glyph glyph-name="uni0163" unicode="&#x163;" 
d="M180 -130q4 0 25 -10.5t38 -10.5q22 0 36.5 9.5t14.5 24.5q0 20 -41 20h-21l17 81h38l-10 -47q54 -1 54 -46q0 -34 -27 -57t-67 -23q-28 0 -54.5 11.5t-26.5 23.5q0 10 7 17t17 7zM511 54q0 -28 -81.5 -49t-133.5 -21q-59 0 -95 26t-36 69q0 13 3 28l57 269h-74
q-24 0 -24 16q0 25 32 25h75l25 119q6 27 26 27q17 0 17 -15q0 -4 -2 -12l-25 -119h220q23 0 23 -16q0 -11 -9 -18t-23 -7h-220l-57 -267q-2 -14 -2 -18q0 -30 26 -48t70 -18q42 0 92.5 11.5t82.5 28.5q12 6 18 6q15 0 15 -17z" />
    <glyph glyph-name="Tcaron" unicode="&#x164;" 
d="M423 609l-108 109q-10 7 -10 15q0 10 7.5 17.5t17.5 7.5q6 0 16 -8l88 -88l127 88q11 8 19 8q16 0 16 -16q0 -12 -18 -25zM330 41h105q23 0 23 -16q0 -11 -9 -18t-23 -7h-251q-23 0 -23 17q0 24 32 24h105l102 481h-167l-15 -73q-6 -27 -27 -27q-7 0 -11.5 4.5t-4.5 10.5
q0 27 12 69.5t14 56.5h456l-24 -114q-6 -28 -26 -28q-5 0 -10 4.5t-6 9.5q0 12 1 14l15 73h-166z" />
    <glyph glyph-name="tcaron" unicode="&#x165;" 
d="M612 604h80l-120 -159q-12 -15 -22 -15q-14 0 -14 14q0 4 3 10zM511 54q0 -28 -81.5 -49t-133.5 -21q-59 0 -95 26t-36 69q0 13 3 28l57 269h-74q-24 0 -24 16q0 25 32 25h75l25 119q6 27 26 27q17 0 17 -15q0 -4 -2 -12l-25 -119h220q23 0 23 -16q0 -11 -9 -18t-23 -7
h-220l-57 -267q-2 -14 -2 -18q0 -30 26 -48t70 -18q42 0 92.5 11.5t82.5 28.5q12 6 18 6q15 0 15 -17z" />
    <glyph glyph-name="Tbar" unicode="&#x166;" 
d="M395 349h95q23 0 23 -16q0 -24 -32 -24h-94l-57 -268h105q23 0 23 -16q0 -11 -9 -18t-23 -7h-251q-23 0 -23 17q0 24 32 24h105l57 268h-101q-23 0 -23 16q0 24 32 24h100l37 173h-167l-15 -73q-6 -27 -27 -27q-7 0 -11.5 4.5t-4.5 10.5q0 27 12 69.5t14 56.5h456
l-24 -114q-6 -28 -26 -28q-5 0 -10 4.5t-6 9.5q0 12 1 14l15 73h-166z" />
    <glyph glyph-name="tbar" unicode="&#x167;" 
d="M511 54q0 -28 -81.5 -49t-133.5 -21q-59 0 -95 26t-36 69q0 13 3 28l32 150h-68q-30 0 -30 16q0 24 42 24h64l17 79h-74q-24 0 -24 16q0 25 32 25h75l25 119q6 27 26 27q17 0 17 -15q0 -4 -2 -12l-25 -119h220q23 0 23 -16q0 -11 -9 -18t-23 -7h-220l-17 -79h203
q30 0 30 -16q0 -24 -42 -24h-199l-32 -148q-2 -14 -2 -18q0 -30 26 -48t70 -18q42 0 92.5 11.5t82.5 28.5q12 6 18 6q15 0 15 -17z" />
    <glyph glyph-name="Utilde" unicode="&#x168;" 
d="M500 654q19 0 46.5 23t35.5 23q7 0 12 -4.5t5 -11.5q0 -13 -37 -42t-69 -29q-25 0 -64 24t-50 24q-24 0 -49 -22.5t-36 -22.5q-16 0 -16 15t37.5 43t70.5 28q22 0 62 -24t52 -24zM610 522l-71 -337q-18 -85 -88 -143t-154 -58q-72 0 -116.5 43t-44.5 113q0 20 5 45
l71 337h-33q-24 0 -24 16q0 25 32 25h150q22 0 22 -16q0 -25 -31 -25h-75l-71 -337q-4 -16 -4 -34q0 -56 35.5 -91t91.5 -35q67 0 123 46.5t70 113.5l71 337h-74q-23 0 -23 17q0 24 32 24h149q23 0 23 -16q0 -25 -32 -25h-34z" />
    <glyph glyph-name="utilde" unicode="&#x169;" 
d="M460 527q19 0 46.5 23t35.5 23q7 0 12 -4.5t5 -11.5q0 -13 -37 -42t-69 -29q-25 0 -64 24t-50 24q-24 0 -49 -22.5t-36 -22.5q-16 0 -16 15t37.5 43t70.5 28q22 0 62 -24t52 -24zM439 0l14 66q-98 -82 -200 -82q-50 0 -79 26.5t-29 71.5q0 11 4 33l55 261h-54
q-23 0 -23 16q0 25 32 25h95l-64 -302q-2 -6 -2 -18q0 -32 20.5 -52t52.5 -20q101 0 203 90l55 261h-74q-24 0 -24 16q0 25 33 25h115l-80 -376h34q23 0 23 -16q0 -25 -32 -25h-75z" />
    <glyph glyph-name="Umacron" unicode="&#x16a;" 
d="M547 626h-236q-23 0 -23 16q0 24 32 24h236q23 0 23 -16q0 -24 -32 -24zM610 522l-71 -337q-18 -85 -88 -143t-154 -58q-72 0 -116.5 43t-44.5 113q0 20 5 45l71 337h-33q-24 0 -24 16q0 25 32 25h150q22 0 22 -16q0 -25 -31 -25h-75l-71 -337q-4 -16 -4 -34
q0 -56 35.5 -91t91.5 -35q67 0 123 46.5t70 113.5l71 337h-74q-23 0 -23 17q0 24 32 24h149q23 0 23 -16q0 -25 -32 -25h-34z" />
    <glyph glyph-name="umacron" unicode="&#x16b;" 
d="M509 525h-236q-23 0 -23 16q0 24 32 24h236q23 0 23 -16q0 -24 -32 -24zM439 0l14 66q-98 -82 -200 -82q-50 0 -79 26.5t-29 71.5q0 11 4 33l55 261h-54q-23 0 -23 16q0 25 32 25h95l-64 -302q-2 -6 -2 -18q0 -32 20.5 -52t52.5 -20q101 0 203 90l55 261h-74
q-24 0 -24 16q0 25 33 25h115l-80 -376h34q23 0 23 -16q0 -25 -32 -25h-75z" />
    <glyph glyph-name="Ubreve" unicode="&#x16c;" 
d="M598 719q0 -35 -49 -75.5t-121 -40.5q-54 0 -89 26.5t-35 68.5q0 15 8 26t19 11q8 0 17 -11l-2 -29q0 -6 9 -17.5t31.5 -22.5t51.5 -11q40 0 74.5 20t43.5 48q8 23 25 23q6 0 11.5 -5.5t5.5 -10.5zM610 522l-71 -337q-18 -85 -88 -143t-154 -58q-72 0 -116.5 43
t-44.5 113q0 20 5 45l71 337h-33q-24 0 -24 16q0 25 32 25h150q22 0 22 -16q0 -25 -31 -25h-75l-71 -337q-4 -16 -4 -34q0 -56 35.5 -91t91.5 -35q67 0 123 46.5t70 113.5l71 337h-74q-23 0 -23 17q0 24 32 24h149q23 0 23 -16q0 -25 -32 -25h-34z" />
    <glyph glyph-name="ubreve" unicode="&#x16d;" 
d="M559 573q0 -35 -49 -75.5t-121 -40.5q-54 0 -89 26.5t-35 68.5q0 15 8 26t19 11q8 0 17 -11l-2 -29q0 -6 9 -17.5t31.5 -22.5t51.5 -11q40 0 74.5 20t43.5 48q8 23 25 23q6 0 11.5 -5.5t5.5 -10.5zM439 0l14 66q-98 -82 -200 -82q-50 0 -79 26.5t-29 71.5q0 11 4 33
l55 261h-54q-23 0 -23 16q0 25 32 25h95l-64 -302q-2 -6 -2 -18q0 -32 20.5 -52t52.5 -20q101 0 203 90l55 261h-74q-24 0 -24 16q0 25 33 25h115l-80 -376h34q23 0 23 -16q0 -25 -32 -25h-75z" />
    <glyph glyph-name="Uring" unicode="&#x16e;" 
d="M463 783q33 0 54.5 -20.5t21.5 -51.5q0 -42 -35 -75.5t-79 -33.5q-33 0 -54.5 20.5t-21.5 51.5q0 42 35 75.5t79 33.5zM456 750q-28 0 -50.5 -21.5t-22.5 -47.5q0 -20 14 -33t35 -13q29 0 51 21t22 48q0 20 -14 33t-35 13zM610 522l-71 -337q-18 -85 -88 -143t-154 -58
q-72 0 -116.5 43t-44.5 113q0 20 5 45l71 337h-33q-24 0 -24 16q0 25 32 25h150q22 0 22 -16q0 -25 -31 -25h-75l-71 -337q-4 -16 -4 -34q0 -56 35.5 -91t91.5 -35q67 0 123 46.5t70 113.5l71 337h-74q-23 0 -23 17q0 24 32 24h149q23 0 23 -16q0 -25 -32 -25h-34z" />
    <glyph glyph-name="uring" unicode="&#x16f;" 
d="M440 656q33 0 54.5 -20.5t21.5 -51.5q0 -42 -35 -75.5t-79 -33.5q-33 0 -54.5 20.5t-21.5 51.5q0 42 35 75.5t79 33.5zM433 623q-28 0 -50.5 -21.5t-22.5 -47.5q0 -20 14 -33t35 -13q29 0 51 21t22 48q0 20 -14 33t-35 13zM439 0l14 66q-98 -82 -200 -82q-50 0 -79 26.5
t-29 71.5q0 11 4 33l55 261h-54q-23 0 -23 16q0 25 32 25h95l-64 -302q-2 -6 -2 -18q0 -32 20.5 -52t52.5 -20q101 0 203 90l55 261h-74q-24 0 -24 16q0 25 33 25h115l-80 -376h34q23 0 23 -16q0 -25 -32 -25h-75z" />
    <glyph glyph-name="Uhungarumlaut" unicode="&#x170;" 
d="M485 747l-117 -94q-12 -9 -21 -9q-16 0 -16 16q0 11 17 24l117 94q12 9 21 9q16 0 16 -16q0 -11 -17 -24zM627 747l-118 -94q-12 -9 -21 -9q-16 0 -16 16q0 11 17 24l118 94q12 9 21 9q16 0 16 -16q0 -11 -17 -24zM610 522l-71 -337q-18 -85 -88 -143t-154 -58
q-72 0 -116.5 43t-44.5 113q0 20 5 45l71 337h-33q-24 0 -24 16q0 25 32 25h150q22 0 22 -16q0 -25 -31 -25h-75l-71 -337q-4 -16 -4 -34q0 -56 35.5 -91t91.5 -35q67 0 123 46.5t70 113.5l71 337h-74q-23 0 -23 17q0 24 32 24h149q23 0 23 -16q0 -25 -32 -25h-34z" />
    <glyph glyph-name="uhungarumlaut" unicode="&#x171;" 
d="M417 593l-117 -94q-12 -9 -21 -9q-16 0 -16 16q0 11 17 24l117 94q12 9 21 9q16 0 16 -16q0 -11 -17 -24zM559 593l-118 -94q-12 -9 -21 -9q-16 0 -16 16q0 11 17 24l118 94q12 9 21 9q16 0 16 -16q0 -11 -17 -24zM439 0l14 66q-98 -82 -200 -82q-50 0 -79 26.5t-29 71.5
q0 11 4 33l55 261h-54q-23 0 -23 16q0 25 32 25h95l-64 -302q-2 -6 -2 -18q0 -32 20.5 -52t52.5 -20q101 0 203 90l55 261h-74q-24 0 -24 16q0 25 33 25h115l-80 -376h34q23 0 23 -16q0 -25 -32 -25h-75z" />
    <glyph glyph-name="Uogonek" unicode="&#x172;" 
d="M337 -125q30 0 43.5 10.5t21.5 10.5q4 0 7.5 -4t3.5 -8q0 -14 -26.5 -26.5t-56.5 -12.5q-67 0 -67 47q0 29 20 52t66 46q-33 -6 -52 -6q-72 0 -116.5 43t-44.5 113q0 20 5 45l71 337h-33q-24 0 -24 16q0 25 32 25h150q22 0 22 -16q0 -25 -31 -25h-75l-71 -337
q-4 -16 -4 -34q0 -56 35.5 -91t91.5 -35q67 0 123 46.5t70 113.5l71 337h-74q-23 0 -23 17q0 24 32 24h149q23 0 23 -16q0 -25 -32 -25h-34l-71 -337q-13 -60 -53 -107t-131 -110q-50 -36 -50 -68q0 -25 32 -25z" />
    <glyph glyph-name="uogonek" unicode="&#x173;" 
d="M378 -109q0 18 8.5 35t18 27.5t26.5 21.5t24 14.5t22 10.5h-38l14 66q-98 -82 -200 -82q-50 0 -79 26.5t-29 71.5q0 11 4 33l55 261h-54q-23 0 -23 16q0 25 32 25h95l-64 -302q-2 -6 -2 -18q0 -32 20.5 -52t52.5 -20q101 0 203 90l55 261h-74q-24 0 -24 16q0 25 33 25
h115l-80 -376h34q23 0 23 -16q0 -13 -32 -29t-64 -40t-32 -55q0 -24 38 -24q22 0 40 9.5t21 9.5q11 0 11 -12q0 -14 -27.5 -26.5t-57.5 -12.5q-65 0 -65 46z" />
    <glyph glyph-name="Wcircumflex" unicode="&#x174;" 
d="M460 752l109 -108q9 -10 9 -16q0 -10 -7.5 -17.5t-17.5 -7.5q-6 0 -16 8l-88 88l-127 -88q-11 -8 -19 -8q-16 0 -16 16q0 10 18 24zM122 0l51 522h-15q-23 0 -23 16q0 25 32 25h149q24 0 24 -16q0 -25 -32 -25h-94l-45 -476l195 392h62l26 -392l158 476h-96q-23 0 -23 16
q0 25 32 25h150q23 0 23 -16q0 -25 -32 -25h-15l-173 -522h-64l-27 400l-200 -400h-63z" />
    <glyph glyph-name="wcircumflex" unicode="&#x175;" 
d="M429 606l109 -108q9 -10 9 -16q0 -10 -7.5 -17.5t-17.5 -7.5q-6 0 -16 8l-88 88l-127 -88q-11 -8 -19 -8q-16 0 -16 16q0 10 18 24zM442 0h-51l-35 259l-145 -259h-51l-4 376h-19q-23 0 -23 16q0 25 32 25h111q23 0 23 -16q0 -25 -32 -25h-53l4 -320l140 255h52l34 -255
l137 320h-50q-23 0 -23 16q0 25 32 25h111q23 0 23 -16q0 -25 -32 -25h-19z" />
    <glyph glyph-name="Ycircumflex" unicode="&#x176;" 
d="M461 752l109 -108q9 -10 9 -16q0 -10 -7.5 -17.5t-17.5 -7.5q-6 0 -16 8l-88 88l-127 -88q-11 -8 -19 -8q-16 0 -16 16q0 10 18 24zM376 254l-45 -213h105q23 0 23 -16q0 -25 -32 -25h-251q-23 0 -23 16q0 25 32 25h105l45 213l-122 268h-24q-23 0 -23 16q0 25 32 25h111
q23 0 23 -16q0 -25 -32 -25h-38l104 -227l198 227h-41q-24 0 -24 16q0 25 33 25h110q23 0 23 -17q0 -11 -9 -17.5t-23 -6.5h-23z" />
    <glyph glyph-name="ycircumflex" unicode="&#x177;" 
d="M429 606l109 -108q9 -10 9 -16q0 -10 -7.5 -17.5t-17.5 -7.5q-6 0 -16 8l-88 88l-127 -88q-11 -8 -19 -8q-16 0 -16 16q0 10 18 24zM282 0l-107 376h-16q-24 0 -24 16q0 25 32 25h115q23 0 23 -16q0 -25 -32 -25h-52l94 -331l231 331h-54q-23 0 -23 17q0 24 32 24h110
q23 0 23 -16q0 -25 -32 -25h-13l-367 -521h64q24 0 24 -16q0 -11 -9 -18t-23 -7h-233q-23 0 -23 16q0 25 32 25h126z" />
    <glyph glyph-name="Ydieresis" unicode="&#x178;" 
d="M331 722q18 0 29.5 -11.5t11.5 -28.5q0 -23 -19 -41.5t-43 -18.5q-17 0 -28.5 11.5t-11.5 28.5q0 23 19 41.5t42 18.5zM552 722q18 0 29.5 -11.5t11.5 -28.5q0 -23 -19 -41.5t-43 -18.5q-17 0 -28.5 11.5t-11.5 28.5q0 23 19 41.5t42 18.5zM376 254l-45 -213h105
q23 0 23 -16q0 -25 -32 -25h-251q-23 0 -23 16q0 25 32 25h105l45 213l-122 268h-24q-23 0 -23 16q0 25 32 25h111q23 0 23 -16q0 -25 -32 -25h-38l104 -227l198 227h-41q-24 0 -24 16q0 25 33 25h110q23 0 23 -17q0 -11 -9 -17.5t-23 -6.5h-23z" />
    <glyph glyph-name="Zacute" unicode="&#x179;" 
d="M523 722l-135 -100q-13 -9 -20 -9q-17 0 -17 16q0 11 17 24l135 100q13 9 21 9q16 0 16 -16q0 -12 -17 -24zM497 0h-394l13 59l425 460l1 3h-269l-25 -118q-6 -28 -27 -28q-16 0 -16 16q0 4 2 12l34 159h349l-12 -58l-427 -460l-1 -4h315l30 141q6 27 26 27q17 0 17 -15
q0 -6 -2 -12z" />
    <glyph glyph-name="zacute" unicode="&#x17a;" 
d="M508 586l-135 -100q-13 -9 -20 -9q-17 0 -17 16q0 11 17 24l135 100q13 9 21 9q16 0 16 -16q0 -12 -17 -24zM563 417l-8 -36l-375 -340h277l12 56q6 27 27 27q7 0 11.5 -4.5t4.5 -10.5q0 -4 -2 -12l-21 -97h-374l8 36l374 340h-252l-12 -55q-6 -27 -26 -27q-6 0 -11 4.5
t-5 10.5q0 23 10 60t12 48h350z" />
    <glyph glyph-name="Zdotaccent" unicode="&#x17b;" 
d="M446 715q18 0 29.5 -11.5t11.5 -28.5q0 -23 -19 -41.5t-43 -18.5q-17 0 -28.5 11.5t-11.5 28.5q0 23 19 41.5t42 18.5zM497 0h-394l13 59l425 460l1 3h-269l-25 -118q-6 -28 -27 -28q-16 0 -16 16q0 4 2 12l34 159h349l-12 -58l-427 -460l-1 -4h315l30 141q6 27 26 27
q17 0 17 -15q0 -6 -2 -12z" />
    <glyph glyph-name="zdotaccent" unicode="&#x17c;" 
d="M436 585q18 0 29.5 -11.5t11.5 -28.5q0 -23 -19 -41.5t-43 -18.5q-17 0 -28.5 11.5t-11.5 28.5q0 23 19 41.5t42 18.5zM563 417l-8 -36l-375 -340h277l12 56q6 27 27 27q7 0 11.5 -4.5t4.5 -10.5q0 -4 -2 -12l-21 -97h-374l8 36l374 340h-252l-12 -55q-6 -27 -26 -27
q-6 0 -11 4.5t-5 10.5q0 23 10 60t12 48h350z" />
    <glyph glyph-name="Zcaron" unicode="&#x17d;" 
d="M423 609l-108 109q-10 7 -10 15q0 10 7.5 17.5t17.5 7.5q6 0 16 -8l88 -88l127 88q11 8 19 8q16 0 16 -16q0 -12 -18 -25zM497 0h-394l13 59l425 460l1 3h-269l-25 -118q-6 -28 -27 -28q-16 0 -16 16q0 4 2 12l34 159h349l-12 -58l-427 -460l-1 -4h315l30 141q6 27 26 27
q17 0 17 -15q0 -6 -2 -12z" />
    <glyph glyph-name="zcaron" unicode="&#x17e;" 
d="M405 487l-108 109q-10 7 -10 15q0 10 7.5 17.5t17.5 7.5q6 0 16 -8l88 -88l127 88q11 8 19 8q16 0 16 -16q0 -12 -18 -25zM563 417l-8 -36l-375 -340h277l12 56q6 27 27 27q7 0 11.5 -4.5t4.5 -10.5q0 -4 -2 -12l-21 -97h-374l8 36l374 340h-252l-12 -55q-6 -27 -26 -27
q-6 0 -11 4.5t-5 10.5q0 23 10 60t12 48h350z" />
    <glyph glyph-name="longs" unicode="&#x17f;" 
d="M637 551q-3 0 -24.5 3t-52.5 6t-58 3q-50 0 -85.5 -23.5t-43.5 -61.5l-93 -437h177q24 0 24 -16q0 -11 -9 -18t-23 -7h-317q-23 0 -23 17q0 24 32 24h98l71 335h-88q-23 0 -23 17q0 24 32 24h88l13 61q11 55 62 90.5t118 35.5q46 0 98.5 -6t52.5 -22q0 -10 -7.5 -17.5
t-18.5 -7.5z" />
    <glyph glyph-name="uni0180" unicode="&#x180;" 
d="M265 25q77 0 148.5 64t71.5 157q0 63 -39.5 103.5t-103.5 40.5q-92 0 -156 -71.5t-64 -150.5q0 -62 39.5 -102.5t103.5 -40.5zM65 494q0 26 32 26h54l9 43h-54q-23 0 -23 15q0 26 32 26h95l-18 -84h138q24 0 24 -15q0 -10 -8 -18t-25 -8h-138l-32 -151q94 103 202 103
q78 0 126.5 -48t48.5 -124q0 -60 -32.5 -122.5t-96.5 -107.5t-141 -45q-110 0 -158 104l-18 -88h-95q-24 0 -24 16q0 9 7.5 17t24.5 8h54l93 438h-54q-23 0 -23 15z" />
    <glyph glyph-name="uni0181" unicode="&#x181;" 
d="M319 313q50 0 86.5 15.5t53 38t23.5 40.5t7 31q0 37 -30.5 60.5t-78.5 23.5h-164l-44 -209h147zM475 171q0 101 -163 101h-149l-49 -231h208q64 0 108.5 42t44.5 88zM12 450q0 48 38.5 80.5t79.5 32.5h258q64 0 103.5 -33t39.5 -85q0 -92 -113 -147q99 -40 99 -116
q0 -63 -58.5 -122.5t-142.5 -59.5h-306q-23 0 -23 15q0 26 32 26h54l102 481h-54q-21 0 -44.5 -19.5t-23.5 -45.5q0 -18 13 -30t30 -12t17 -17q0 -12 -9 -18t-16 -6q-32 0 -54 21.5t-22 54.5z" />
    <glyph glyph-name="uni0182" unicode="&#x182;" 
d="M146 538q0 9 7.5 17t24.5 8h450l-29 -139q-6 -27 -27 -27q-15 0 -15 16q0 7 1 11l21 98h-314l-45 -209h147q107 0 153 -37t46 -91q0 -66 -58.5 -125.5t-142.5 -59.5h-306q-24 0 -24 16q0 9 7.5 17t24.5 8h54l103 481h-54q-24 0 -24 16zM523 172q0 100 -162 100h-149
l-50 -231h208q64 0 108.5 42.5t44.5 88.5z" />
    <glyph glyph-name="uni0183" unicode="&#x183;" 
d="M265 25q77 0 148.5 64t71.5 157q0 63 -39.5 103.5t-103.5 40.5q-92 0 -156 -71.5t-64 -150.5q0 -62 39.5 -102.5t103.5 -40.5zM562 588q0 -25 -32 -25h-329l-50 -235q94 103 202 103q78 0 126.5 -48t48.5 -124q0 -60 -32.5 -122.5t-96.5 -107.5t-141 -45q-110 0 -158 104
l-18 -88h-95q-24 0 -24 16q0 9 7.5 17t24.5 8h54l111 522h-54q-23 0 -23 15q0 26 32 26h424q23 0 23 -16z" />
    <glyph glyph-name="uni0184" unicode="&#x184;" 
d="M480 171q0 101 -163 101h-149l-49 -231h208q64 0 108.5 42t44.5 88zM-8 15q0 26 32 26h54l86 407l-57 -35q-12 -6 -18 -6q-14 0 -14 12q0 20 20 30l80 48l14 66q6 27 26 27q16 0 16 -16q0 -7 -1 -11l-8 -37l85 51q13 6 18 6q15 0 15 -12q0 -19 -20 -29l-108 -66l-35 -163
h147q107 0 152.5 -37.5t45.5 -91.5q0 -77 -64.5 -130.5t-136.5 -53.5h-306q-23 0 -23 15z" />
    <glyph glyph-name="uni0185" unicode="&#x185;" 
d="M344 390q-93 0 -157 -71.5t-64 -149.5q0 -62 39.5 -103t103.5 -41q77 0 149 64t72 157q0 63 -39.5 103.5t-103.5 40.5zM-36 16q0 25 33 25h54l86 405l-52 -31q-12 -6 -18 -6q-14 0 -14 12q0 20 20 30l74 45l15 67q4 27 25 27q17 0 17 -18q0 -6 -1 -9l-9 -39l91 55
q13 6 18 6q15 0 15 -12q0 -19 -20 -29l-114 -69l-31 -147q94 103 202 103q79 0 127 -48.5t48 -124.5q0 -96 -78.5 -185t-191.5 -89q-110 0 -158 104l-19 -88h-95q-24 0 -24 16z" />
    <glyph glyph-name="uni0186" unicode="&#x186;" 
d="M246 446l-13 -38q-12 -12 -22 -12q-15 0 -15 17q0 7 1 11l24 112q2 10 3 12q7 15 23 15q15 0 15 -17q0 -3 -6 -39q86 69 187 69q91 0 142.5 -60t51.5 -142q0 -29 -5 -49l-18 -83q-4 -22 -15 -46q-38 -90 -124 -151t-175 -61q-106 0 -170 83q-17 24 -17 35q0 3 2 9
q7 14 22 14q10 0 16 -10q31 -48 67.5 -69t88.5 -21q76 0 147.5 50.5t103.5 127.5q9 22 14 45l16 71q5 28 5 48q0 73 -44.5 121t-115.5 48q-47 0 -92.5 -20t-69 -40t-27.5 -30z" />
    <glyph glyph-name="uni0187" unicode="&#x187;" 
d="M262 25q44 0 82.5 15.5t60 34.5t41 34.5t29.5 15.5q17 0 17 -11q0 -20 -50 -59q-91 -71 -189 -71q-89 0 -149 61.5t-60 148.5q0 21 5 48l18 83q20 96 104.5 173.5t190.5 77.5q101 0 158 -69l6 29q8 37 40.5 66.5t73.5 29.5q36 0 57 -21.5t21 -53.5q0 -39 -26 -39
q-16 0 -16 19v10q0 18 -12.5 31.5t-33.5 13.5q-19 -1 -38.5 -19t-24.5 -37l-23 -112q-6 -27 -27 -27q-15 0 -15 18q0 3 0.5 7.5t0.5 9.5q0 42 -43.5 72.5t-106.5 30.5q-83 0 -155 -63.5t-92 -152.5l-15 -71q-5 -25 -5 -44q0 -76 50 -127.5t126 -51.5z" />
    <glyph glyph-name="uni0188" unicode="&#x188;" 
d="M72 152q0 23 7.5 55t28 72t51 73t82 56t115.5 23q94 0 144 -55l3 13q8 37 40 66.5t73 29.5q35 0 56.5 -21.5t21.5 -53.5q0 -39 -26 -39q-16 0 -16 19v11q0 18 -12 31t-33 13q-19 -1 -39 -19t-24 -37l-14 -66q-1 -3 -3 -12.5t-3.5 -14.5t-4.5 -12t-8 -10t-12 -3
q-16 0 -16 17q0 3 0.5 7t0.5 8q0 37 -40 62t-100 25q-53 0 -96 -19t-67 -46.5t-40 -61t-21.5 -58.5t-5.5 -43q0 -62 41 -99.5t111 -37.5q110 0 203 72q11 10 20 10q15 0 15 -16v-3q-5 -20 -54 -49q-91 -55 -194 -55q-84 0 -134 46t-50 122z" />
    <glyph glyph-name="uni0189" unicode="&#x189;" 
d="M162 272h-77q-23 0 -23 16q0 25 32 25h77l44 209h-34q-23 0 -23 16q0 25 32 25h220q80 0 131 -55.5t51 -141.5q0 -28 -6 -56l-12 -56q-23 -104 -106.5 -179t-177.5 -75h-220q-23 0 -23 16q0 25 32 25h34zM551 357q0 27 -7 53.5t-23 52.5t-47.5 42.5t-74.5 16.5h-143
l-44 -209h162q23 0 23 -16q0 -25 -32 -25h-162l-49 -231h149q71 0 141.5 62.5t86.5 141.5l16 74q4 16 4 38z" />
    <glyph glyph-name="uni018A" unicode="&#x18a;" 
d="M491 358q0 27 -7 53t-23 52t-47.5 42.5t-74.5 16.5h-143l-102 -481h150q72 0 141 62t86 142l16 73q4 17 4 40zM-24 449q0 48 38 81t80 33h256q82 0 132 -54.5t50 -138.5q0 -28 -6 -60l-12 -56q-23 -107 -105 -180.5t-179 -73.5h-220q-23 0 -23 15q0 26 32 26h34l102 481
h-70q-20 0 -44 -19t-24 -44q0 -19 12.5 -31.5t30.5 -12.5q16 0 16 -17v-4q-4 -20 -24 -20q-33 0 -54.5 21t-21.5 54z" />
    <glyph glyph-name="uni018B" unicode="&#x18b;" 
d="M595 538q-7 -16 -31 -16h-54l-102 -481h54q24 0 24 -16q0 -3 -2 -9q-7 -16 -31 -16h-306q-64 0 -99.5 37t-35.5 89q0 28 13 59q23 54 84.5 91t168.5 37h147l44 209h-314l-21 -98q0 -2 -3 -11q-7 -16 -22 -16q-17 0 -17 17q0 6 1 10l30 139h450q24 0 24 -16q0 -3 -2 -9z
M62 172q-8 -19 -8 -38q0 -38 27.5 -65.5t77.5 -27.5h208l49 231h-149q-163 0 -205 -100z" />
    <glyph glyph-name="uni018C" unicode="&#x18c;" 
d="M184 25q93 0 157 71.5t64 150.5q0 62 -40 102.5t-104 40.5q-93 0 -157 -72t-64 -150q0 -61 40.5 -102t103.5 -41zM-1 161q0 98 78 184t191 86q107 0 158 -103l50 235h-329q-23 0 -23 15q0 26 32 26h424q23 0 23 -16q0 -25 -32 -25h-54l-111 -522h54q24 0 24 -15
q0 -26 -32 -26h-95l18 88q-92 -104 -202 -104q-77 0 -125.5 50t-48.5 127z" />
    <glyph glyph-name="uni018D" unicode="&#x18d;" 
d="M427 -63q0 -53 -41 -89t-108 -36q-43 0 -80.5 7.5t-77 20.5t-48.5 15q0 -2 -2.5 -13.5t-4 -16t-5 -12t-9 -10.5t-12.5 -3q-15 0 -15 16q0 7 1 11l16 78q7 29 26 29q17 0 17 -16q0 -4 -5 -27q20 -13 91 -30t112 -17q92 0 108 74q0 74 -127 74q-83 0 -131.5 53.5
t-48.5 117.5q0 108 80.5 198t199.5 90q81 0 131.5 -52t50.5 -130q0 -54 -20 -100.5t-52.5 -77t-60 -49t-53.5 -29.5q68 -30 68 -76zM504 264q0 61 -42 103.5t-108 42.5q-63 0 -111 -28.5t-71.5 -69.5t-34.5 -75.5t-11 -57.5q0 -60 41.5 -102t107.5 -42q95 0 162 72t67 157z
" />
    <glyph glyph-name="uni018E" unicode="&#x18e;" 
d="M439 272h-145q-1 -3 -5 -24t-9 -33q-6 -15 -22 -15t-16 15q0 7 2 12l27 131l3 12q8 15 24 15q15 0 15 -17q0 -6 -1 -10l-10 -45h145l45 209h-293q-3 -10 -9 -48t-16 -62q-6 -15 -22 -15t-16 16q0 7 1 11l29 139h429q24 0 24 -15q0 -6 -2 -9q-7 -17 -30 -17h-54l-103 -481
h54q24 0 24 -15q0 -6 -2 -9q-7 -17 -30 -17h-450l34 160l3 12q7 15 22 15q17 0 17 -17q0 -6 -1 -10l-26 -119h314z" />
    <glyph glyph-name="uni018F" unicode="&#x18f;" 
d="M487 253l-402 -1l-2 -11q-5 -21 -5 -49q0 -72 44.5 -119.5t115.5 -47.5q86 0 159.5 66t89.5 162zM229 -16q-87 0 -140.5 57t-53.5 147q0 22 5 47l13 58h443l4 19q5 25 5 44q0 76 -50 127.5t-126 51.5q-44 0 -82.5 -15.5t-60 -34.5t-41 -34.5t-29.5 -15.5q-17 0 -17 11
q0 20 50 59q91 71 189 71q89 0 149 -61.5t60 -148.5q0 -21 -5 -48l-18 -83q-20 -96 -104.5 -173.5t-190.5 -77.5z" />
    <glyph glyph-name="uni0190" unicode="&#x190;" 
d="M186 399q0 -40 37 -64t94 -24h48q23 0 23 -15q0 -10 -7.5 -18t-24.5 -8h-61q-83 0 -135.5 -40t-52.5 -97q0 -45 35 -76.5t103 -31.5t124 34t69 83q6 24 25 24q16 0 16 -16q0 -7 -1 -11l-24 -112q-6 -27 -26 -27q-17 0 -17 18q0 5 1.5 12t3.5 15t3 11q-78 -72 -184 -72
q-79 0 -126.5 37t-47.5 97q0 56 36 104.5t107 68.5l2 7q-65 25 -65 95q0 14 6 35t22 47t39.5 48.5t63.5 37.5t89 15q86 0 133 -59q3 15 5 22t8.5 15.5t17.5 8.5q15 0 15 -16q0 -7 -1 -11l-21 -103q-6 -27 -26 -27q-17 0 -17 17q0 2 1 7.5t1 12.5q0 41 -34 66.5t-88 25.5
q-47 0 -82.5 -16.5t-53 -40t-25.5 -44t-8 -35.5z" />
    <glyph glyph-name="uni0191" unicode="&#x191;" 
d="M-32 -39q3 0 24 -6.5t43 -6.5q33 0 60 32.5t38 83.5l97 458h-54q-24 0 -24 16q0 25 33 25h450l-30 -139q-6 -27 -27 -27q-15 0 -15 16q0 7 1 11l21 98h-314l-44 -209h145l9 45q6 27 26 27q16 0 16 -16q0 -7 -1 -11l-28 -131q-6 -27 -26 -27q-16 0 -16 17q0 6 1 10l10 45
h-145q-48 -226 -49 -231q-19 -59 -57 -96t-87 -38q-21 0 -50.5 7.5t-29.5 22.5q0 9 7 16.5t16 7.5z" />
    <glyph glyph-name="florin" unicode="&#x192;" 
d="M620 566q-4 0 -23.5 5.5t-37.5 5.5q-52 0 -91 -31.5t-49 -83.5l-18 -87h96q23 0 23 -16q0 -25 -32 -25h-96l-59 -276q-14 -63 -66 -107t-113 -44q-32 0 -56 9t-24 21q0 9 7 16.5t16 7.5q3 0 24.5 -6.5t41.5 -6.5q47 0 84 32.5t47 83.5l57 270h-96q-23 0 -23 17
q0 24 31 24h97l18 87q14 65 67.5 110.5t116.5 45.5q23 0 52 -6.5t29 -20.5q0 -10 -7.5 -17.5t-15.5 -7.5z" />
    <glyph glyph-name="uni0193" unicode="&#x193;" 
d="M546 235q0 -26 -33 -26h-14l-37 -173q-101 -52 -198 -52q-104 0 -163 52t-59 143q0 33 7 65l16 74q22 102 107.5 180t197.5 78q98 0 154 -54q11 50 41.5 80t75.5 30q36 0 57 -21.5t21 -53.5q0 -39 -26 -39q-16 0 -16 19v10q0 18 -12.5 31.5t-33.5 13.5q-19 -1 -38.5 -19
t-24.5 -37l-14 -66v-3l-5 -22q-6 -27 -26 -27q-15 0 -15 16q0 3 1 8t1 9q0 36 -42 60t-105 24q-58 0 -107 -25t-79 -62t-48 -71t-23 -60l-16 -73q-6 -30 -6 -57q0 -77 50 -119.5t142 -42.5q70 0 150 34l32 150h-139q-24 0 -24 16q0 25 33 25h194q24 0 24 -15z" />
    <glyph glyph-name="uni0194" unicode="&#x194;" 
d="M246 14q23 0 40 13.5t25 32.5t12 35.5t4 27.5q0 10 -1.5 19t-6 21t-7 18.5t-10.5 23t-11 22.5q-10 -12 -31.5 -35.5t-27.5 -31.5t-16 -24.5t-12.5 -31t-2.5 -35.5q0 -55 45 -55zM160 66q0 19 2.5 35.5t11.5 33.5t12.5 26.5t20 28t20 22.5t25.5 25.5t24 23.5l-123 261h-24
q-24 0 -24 16q0 25 33 25h111q23 0 23 -15q0 -10 -7.5 -18t-24.5 -8h-38l104 -227l197 227h-40q-25 0 -25 16q0 25 34 25h110q23 0 23 -15q0 -12 -9 -19t-23 -7h-24l-227 -260l10 -16q9 -17 13 -25.5t11 -25t10 -32.5t3 -32q0 -15 -7 -39t-21.5 -52t-42 -47.5t-61.5 -19.5
q-38 0 -57.5 26t-19.5 67z" />
    <glyph glyph-name="uni0195" unicode="&#x195;" 
d="M384 -16q-47 0 -76 27.5t-29 66.5l4 37l37 175q7 35 7 44q0 24 -15 40t-39 16h-23q-36 0 -67.5 -27.5t-41.5 -46.5l-12 -20l-54 -255h45q25 0 25 -15q0 -10 -8 -18t-25 -8h-132q-24 0 -24 16q0 9 7.5 17t24.5 8h46l111 522h-54q-23 0 -23 15q0 26 32 26h95l-53 -244
q25 37 51 54t68 17q106 0 106 -90q0 -23 -6 -50l-37 -176q-2 -14 -2 -19q0 -31 20.5 -51t53.5 -20q45 0 72 30t34 63l54 258h-74q-24 0 -24 15q0 26 33 26h115l-63 -301q-12 -52 -54 -92t-105 -40z" />
    <glyph glyph-name="uni0196" unicode="&#x196;" 
d="M458 72q0 -18 -47 -49t-102 -31q-41 0 -63 24.5t-22 65.5q0 21 4 38l85 403h-61q-23 0 -23 17q0 23 32 23h102l-94 -443q-4 -17 -4 -34q0 -53 53 -53q32 0 58 13.5t42 27.5t23 14q17 0 17 -16z" />
    <glyph glyph-name="uni0197" unicode="&#x197;" 
d="M160 296q0 9 7.5 17t24.5 8h95l43 201h-139q-23 0 -23 15q0 26 32 26h319q24 0 24 -16q0 -25 -33 -25h-139l-43 -201h100q24 0 24 -15q0 -9 -7.5 -17t-24.5 -8h-100l-51 -240h139q24 0 24 -16q0 -25 -33 -25h-319q-23 0 -23 15q0 26 32 26h139l51 240h-95q-24 0 -24 15z
" />
    <glyph glyph-name="uni0198" unicode="&#x198;" 
d="M548 415q25 0 46 21t21 42q0 17 -14.5 30.5t-31.5 13.5h-16l-264 -198q67 -30 95 -84t54 -199h56q23 0 23 -16q0 -25 -32 -25h-87q-22 152 -52.5 211.5t-96.5 82.5l-97 -73l-38 -180h75q23 0 23 -16q0 -25 -32 -25h-170q-23 0 -23 15q0 26 32 26h54l102 481h-54
q-23 0 -23 15q0 26 32 26h170q23 0 23 -16q0 -25 -32 -25h-75l-53 -249l333 249h-45q-24 0 -24 15q0 26 33 26h118q32 0 55 -20.5t23 -53.5q0 -40 -34 -77.5t-82 -37.5q-16 0 -16 16v4q4 21 24 21z" />
    <glyph glyph-name="uni0199" unicode="&#x199;" 
d="M1 15q0 26 32 26h54l90 421q14 65 67 110.5t117 45.5q24 0 52.5 -7t28.5 -21q0 -9 -7.5 -16.5t-16.5 -7.5q-3 0 -22.5 5.5t-39.5 5.5q-51 0 -89 -32t-49 -83l-50 -233l204 147h-22q-23 0 -23 15q0 26 32 26h130q23 0 23 -16q0 -25 -32 -25h-47l-185 -131l164 -204h45
q24 0 24 -15q0 -10 -8 -18t-25 -8h-131q-23 0 -23 15q0 26 32 26h28l-142 178l-54 -39l-39 -180h-95q-23 0 -23 15z" />
    <glyph glyph-name="uni019A" unicode="&#x19a;" 
d="M153 290q0 24 32 24h97l52 249h-117q-23 0 -23 15q0 26 32 26h158l-61 -290h98q23 0 23 -13q0 -10 -9.5 -18.5t-22.5 -8.5h-98l-49 -233h160q24 0 24 -15q0 -26 -33 -26h-361q-24 0 -24 16q0 25 33 25h160l49 233h-97q-23 0 -23 16z" />
    <glyph glyph-name="uni019B" unicode="&#x19b;" 
d="M268 614q9 0 15.5 -1t11.5 -4.5t7.5 -6.5t5.5 -11t4 -12.5t4 -17.5t5 -20l82 49q14 6 19 6q14 0 14 -12q0 -19 -20 -29l-85 -52l122 -464h14q19 0 21 -8l1 -13q-4 -20 -32 -20h-110q-22 0 -22 14q0 12 8 19.5t22 7.5h56l-90 340l-236 -340h53q24 0 24 -16q0 -25 -32 -25
h-110q-9 0 -15 2q-8 0 -8 16q0 7 7 15t24 8h12l268 385l-15 56l-89 -54q-13 -6 -19 -6q-14 0 -14 13q0 19 20 29l92 56l-14 55h-94q-23 0 -23 16q0 25 31 25h85z" />
    <glyph glyph-name="uni019C" unicode="&#x19c;" 
d="M540 25q0 -9 -7.5 -17t-24.5 -8h-74l11 52q-33 -36 -60 -51t-59 -15q-64 0 -82 71q-71 -71 -128 -71q-37 0 -61 24.5t-24 60.5q0 11 3 23l91 428h-34q-24 0 -24 15q0 26 32 26h74l-99 -465q-2 -10 -2 -15q0 -23 15.5 -39.5t37.5 -16.5q50 0 122 82l88 413h-34
q-24 0 -24 15q0 26 32 26h74l-98 -462q-2 -10 -2 -15q0 -25 14.5 -42t36.5 -17q51 0 123 82l88 413h-34q-24 0 -24 15q0 10 7.5 18t24.5 8h109q23 0 23 -16q0 -9 -7.5 -17t-24.5 -8h-34l-103 -481h34q24 0 24 -16z" />
    <glyph glyph-name="uni019D" unicode="&#x19d;" 
d="M662 548q0 -10 -7.5 -18t-24.5 -8h-34l-111 -522h-52l-166 504l-98 -463q-19 -59 -57 -96t-87 -38q-21 0 -50.5 7.5t-29.5 22.5q0 9 7 16.5t16 7.5q3 0 24 -6.5t43 -6.5q33 0 60 32.5t38 83.5l97 458h-54q-24 0 -24 16q0 25 33 25h106l166 -504l98 463h-74q-25 0 -25 16
q0 25 34 25h149q23 0 23 -15z" />
    <glyph glyph-name="uni019E" unicode="&#x19e;" 
d="M122 392q0 9 7.5 17t24.5 8h75l-14 -69q53 48 89.5 65.5t83.5 17.5q58 0 94.5 -30.5t36.5 -78.5q0 -14 -3 -27l-93 -438h34q24 0 24 -15q0 -26 -32 -26h-109q-24 0 -24 16q0 9 7.5 17t24.5 8h34l92 431q2 14 2 20q0 32 -23 57t-77 25q-50 0 -86 -22.5t-87 -73.5l-54 -253
h45q24 0 24 -15q0 -26 -32 -26h-131q-25 0 -25 16q0 25 33 25h45l72 335h-34q-24 0 -24 16z" />
    <glyph glyph-name="uni019F" unicode="&#x19f;" 
d="M102 206q0 81 39 165t115 144.5t166 60.5q88 0 141 -61.5t53 -159.5q0 -79 -30.5 -150.5t-78 -118.5t-103.5 -74.5t-108 -27.5q-87 0 -140.5 62t-53.5 160zM571 302q3 21 3 42q0 84 -44.5 137.5t-116.5 53.5q-81 0 -155 -67.5t-102 -165.5h415zM563 261h-415
q-4 -21 -4 -46q0 -83 45 -136.5t116 -53.5q81 0 156.5 69t101.5 167z" />
    <glyph glyph-name="Ohorn" unicode="&#x1a0;" 
d="M311 25q41 0 88 23.5t87.5 64t67 102.5t26.5 130q0 83 -44 136.5t-116 53.5q-43 0 -90 -24t-87 -65t-66 -102t-26 -128q0 -83 44.5 -137t115.5 -54zM672 636q0 -47 -35 -79t-75 -35q60 -62 60 -168q0 -79 -30.5 -150t-77.5 -118t-103 -74.5t-108 -27.5q-87 0 -140.5 62
t-53.5 160q0 81 39 165t115 144.5t166 60.5q36 0 72 -13h62q20 0 44 19t24 44q0 19 -12.5 31.5t-30.5 12.5q-7 0 -12 4.5t-5 11.5q0 1 0.5 2.5t0.5 2.5q4 20 24 20q33 0 54.5 -21t21.5 -54z" />
    <glyph glyph-name="ohorn" unicode="&#x1a1;" 
d="M297 25q84 0 157 64t73 157q0 63 -42 103.5t-110 40.5q-95 0 -162.5 -70t-67.5 -151q0 -63 42 -103.5t110 -40.5zM634 490q0 -47 -35.5 -79.5t-76.5 -34.5q46 -49 46 -122q0 -111 -88.5 -190.5t-191.5 -79.5q-82 0 -133.5 50t-51.5 126q0 97 81 184t199 87q42 0 78 -14
h64q21 0 44.5 19t23.5 44q0 19 -12.5 31.5t-30.5 12.5q-16 0 -16 17v4q2 8 9.5 14t15.5 6q33 0 54 -21t21 -54z" />
    <glyph glyph-name="uni01A2" unicode="&#x1a2;" 
d="M156 25q66 0 115.5 42t74 103t36 113t11.5 89q0 75 -32 119t-96 44q-54 0 -97 -28.5t-68.5 -70t-42.5 -91.5t-23.5 -88.5t-6.5 -66.5q0 -75 32.5 -120t96.5 -45zM-15 181q0 25 5.5 60.5t17.5 81.5t35 89.5t53 80.5t76 60t101 23q34 0 62 -11q58 73 159 73q53 0 75.5 -27
t22.5 -65q0 -17 -2 -24l-102 -481h21q24 0 24 -15q0 -26 -33 -26h-87q-24 0 -24 16q0 25 33 25h25l102 481q2 10 2 16q0 56 -81 56q-33 0 -55 -10t-48 -38q69 -52 69 -166q0 -29 -7.5 -73t-28 -101.5t-51.5 -106t-84 -82t-118 -33.5q-79 0 -120.5 53.5t-41.5 143.5z" />
    <glyph glyph-name="uni01A3" unicode="&#x1a3;" 
d="M157 25q75 0 127 77t52 160q0 57 -27.5 92.5t-73.5 35.5q-73 0 -125.5 -78t-52.5 -161q0 -56 27 -91t73 -35zM19 146q0 61 28 126t81.5 112t115.5 47q42 0 74 -23q64 60 157 60q33 0 52.5 -18t23 -34t3.5 -33v-7l-71 -335h46q24 0 24 -15q0 -10 -8 -18t-25 -8h-132
q-23 0 -23 15q0 26 32 26h46l71 335q1 4 1 9q0 10 -3.5 19.5t-17 18.5t-36.5 9q-61 0 -116 -46q35 -41 35 -106q0 -26 -6 -55l-10 -41q-16 -81 -80 -140.5t-132 -59.5q-58 0 -94 45.5t-36 116.5z" />
    <glyph glyph-name="uni01A4" unicode="&#x1a4;" 
d="M297 272q79 0 133.5 47.5t54.5 100.5q0 43 -34 72.5t-86 29.5h-149l-53 -250h134zM-13 15q0 26 32 26h54l102 481h-54q-20 0 -44 -19t-24 -44q0 -19 12.5 -31.5t30.5 -12.5q16 0 16 -17v-4q-4 -20 -24 -20q-33 0 -54.5 21t-21.5 54q0 48 38 81t80 33h240
q70 0 113.5 -37.5t43.5 -95.5q0 -72 -68.5 -135.5t-173.5 -63.5h-131l-40 -190h138q24 0 24 -16q0 -25 -33 -25h-233q-23 0 -23 15z" />
    <glyph glyph-name="uni01A5" unicode="&#x1a5;" 
d="M359 390q-89 0 -153.5 -64.5t-64.5 -139.5q0 -59 40.5 -97t105.5 -38q79 0 148.5 59t69.5 145q0 60 -40 97.5t-106 37.5zM-60 -170q0 9 7.5 17t24.5 8h54l129 607q14 66 67 111t117 45q29 0 48 -5t26 -11t7 -13v-3q-2 -8 -9 -14t-15 -6q-2 0 -21 5.5t-40 5.5
q-51 0 -89.5 -32t-49.5 -83l-27 -127q51 52 97 74t103 22q80 0 129 -46t49 -119q0 -41 -18.5 -85t-51.5 -82.5t-85.5 -63.5t-112.5 -25q-111 0 -158 96l-54 -251h98q24 0 24 -15q0 -26 -32 -26h-193q-24 0 -24 16z" />
    <glyph glyph-name="uni01A6" unicode="&#x1a6;" 
d="M274 221q58 0 114 26t56 63q0 28 -31 46t-72 18h-132l-32 -153h97zM332 546q0 -6 -6.5 -15t-21.5 -9h-63l-22 -105h131q58 0 97 -29t39 -70q0 -13 -5 -27.5t-18.5 -34t-45.5 -36.5t-78 -26q38 -24 48.5 -86t12.5 -139.5t18 -113.5h27q20 0 20 -17q0 -7 -7 -15.5t-22 -8.5
h-50q-18 31 -24.5 92.5t-8 114.5t-18.5 100.5t-54 59.5h-113l-29 -140h63q19 0 19 -16q0 -4 -1.5 -9t-8.5 -10.5t-18 -5.5h-149q-20 0 -20 17q0 8 8 16t21 8h45l102 481h-45q-20 0 -20 17q0 7 7 15.5t22 8.5h149q19 0 19 -17z" />
    <glyph glyph-name="uni01A7" unicode="&#x1a7;" 
d="M154 177q-10 -23 -10 -46q0 -46 38.5 -76.5t99.5 -30.5q71 0 119 31q13 7 37.5 28t26.5 26l16 46q12 12 21 12q16 0 16 -18q0 -6 -1 -10l-25 -112q0 -6 -3 -12q-6 -15 -22 -15t-16 18q0 7 3.5 21.5t3.5 16.5q-79 -73 -187 -73q-22 0 -48.5 6.5t-56.5 20t-50 41.5t-20 64
q0 32 17 70q20 48 62.5 75.5t90.5 37t95.5 17t86.5 27.5t55 57q8 19 8 41q0 41 -33.5 68.5t-86.5 27.5q-63 0 -105 -30q-10 -7 -30 -25t-21 -22l-15 -42q-13 -12 -22 -12q-14 0 -14 17q0 7 1 11l22 103q1 5 3 12q6 15 22 15q17 0 17 -18q0 -3 -5 -28q72 60 160 60
q68 0 110.5 -36.5t42.5 -91.5q0 -27 -12 -57q-20 -47 -62 -73.5t-90 -36t-95.5 -17t-87 -28.5t-56.5 -60z" />
    <glyph glyph-name="uni01A8" unicode="&#x1a8;" 
d="M218 335l-10 -31q-12 -12 -21 -12q-16 0 -16 18q0 6 1 10l15 69q1 3 4 13q6 15 22 15q15 0 15 -18q0 -9 -1 -14q62 46 148 46q67 0 107.5 -27t40.5 -69q0 -16 -8 -37q-11 -26 -31.5 -43.5t-52 -27t-52 -13t-57.5 -7.5q-142 -15 -168 -77q-5 -11 -5 -26q0 -34 37.5 -56.5
t97.5 -22.5t108 21t61 53q1 2 3 10.5t4 12.5q6 15 22 15q17 0 17 -17q0 -6 -1 -10l-19 -83q0 -6 -3 -12q-6 -15 -22 -15q-15 0 -15 17q0 7 2 21q-74 -55 -170 -55q-76 0 -122.5 32t-46.5 81q0 21 10 42q17 41 63 68q40 24 110.5 33.5t122 21.5t66.5 46q3 9 3 18
q0 27 -32.5 46.5t-82.5 19.5t-93 -20t-51 -36z" />
    <glyph glyph-name="uni01A9" unicode="&#x1a9;" 
d="M450 214q16 0 16 -14q0 -8 -2 -14l-46 -186h-388l15 60l219 247l-105 212l15 58h388l-41 -163q-8 -28 -28 -28q-7 0 -12 6v1q0 1 -0.5 3t-0.5 4v6v8l30 121h-310l-1 -4l112 -226l-230 -258l-1 -4h308l35 143q7 28 27 28z" />
    <glyph glyph-name="uni01AA" unicode="&#x1aa;" 
d="M218 470q27 0 50 20t23 49q0 20 -13.5 33t-34.5 13q-25 0 -49.5 -20t-24.5 -48q0 -20 13.5 -33.5t35.5 -13.5zM450 -54q0 -21 -33.5 -30t-61.5 -9q-53 0 -85.5 33t-32.5 84q0 10 4 34l85 404q4 15 4 32q0 20 -6 38q0 -1 -0.5 -3t-0.5 -3q-8 -36 -41 -62.5t-71 -26.5
q-33 0 -54.5 21t-21.5 52q0 44 37 76t78 32q54 0 87.5 -34t33.5 -86q0 -20 -4 -36l-84 -398q-4 -22 -4 -31q0 -38 23 -61.5t61 -23.5q21 0 45 6.5t28 6.5q14 0 14 -15z" />
    <glyph glyph-name="uni01AB" unicode="&#x1ab;" 
d="M213 -145q4 0 25.5 -6.5t42.5 -6.5q46 0 82.5 32.5t46.5 83.5l13 59q-83 -33 -165 -33q-62 0 -97 26t-35 71q0 13 3 26l57 269h-74q-24 0 -24 15q0 26 33 26h74l25 119q6 27 27 27q15 0 15 -15q0 -7 -1 -12l-25 -119h220q23 0 23 -16q0 -25 -32 -25h-220l-57 -267
q-2 -12 -2 -16q0 -32 25.5 -50t71.5 -18q97 0 174 40q11 6 17 6q15 0 15 -17v-3l-21 -99q-14 -63 -66 -107t-113 -44q-21 0 -50.5 7.5t-29.5 22.5q0 9 6.5 16.5t15.5 7.5z" />
    <glyph glyph-name="uni01AC" unicode="&#x1ac;" 
d="M92 15q0 26 32 26h105l102 481h-167q-20 0 -44 -19t-24 -44q0 -19 12.5 -31.5t30.5 -12.5q16 0 16 -17v-4q-4 -20 -24 -20q-33 0 -54.5 21t-21.5 54q0 48 38 81t80 33h415l-24 -114q-6 -27 -26 -27q-16 0 -16 18q0 6 1 9l15 73h-166l-102 -481h105q23 0 23 -16
q0 -25 -32 -25h-251q-23 0 -23 15z" />
    <glyph glyph-name="uni01AD" unicode="&#x1ad;" 
d="M420 566q-2 0 -21 5.5t-40 5.5q-51 0 -89.5 -32t-49.5 -83l-9 -45h220q23 0 23 -15q0 -10 -7.5 -18t-24.5 -8h-220l-57 -267q-2 -12 -2 -17q0 -31 25.5 -49t70.5 -18q42 0 92 11.5t83 28.5q11 6 17 6q15 0 15 -17v-3q-4 -22 -76.5 -44.5t-136.5 -22.5q-62 0 -97 26
t-35 71q0 13 3 26l57 269h-74q-25 0 -25 16q0 25 34 25h74l9 45q14 66 67 111t117 45q81 0 81 -30q0 -7 -7.5 -14.5t-16.5 -7.5z" />
    <glyph glyph-name="uni01AE" unicode="&#x1ae;" 
d="M440 -160q0 -21 -33.5 -30t-60.5 -9q-53 0 -86 33.5t-33 84.5q0 11 4 33l121 570h-167l-15 -73q-6 -27 -27 -27q-15 0 -15 16q0 7 1 11l24 114h456l-24 -114q-6 -27 -26 -27q-16 0 -16 18q0 6 1 9l15 73h-166l-120 -564q-3 -15 -3 -29q0 -39 22.5 -63t61.5 -24
q22 0 45 6.5t27 6.5q14 0 14 -15z" />
    <glyph glyph-name="Uhorn" unicode="&#x1af;" 
d="M728 636q0 -48 -38 -81t-80 -33h-34l-72 -337q-18 -85 -87.5 -143t-153.5 -58q-73 0 -117.5 43.5t-44.5 112.5q0 20 5 45l72 337h-34q-23 0 -23 15q0 26 32 26h149q23 0 23 -16q0 -25 -32 -25h-74l-72 -337q-4 -16 -4 -35q0 -55 35.5 -90t92.5 -35q66 0 122 46.5
t70 113.5l72 337h-74q-23 0 -23 15q0 26 32 26h149q20 0 44 19t24 44q0 19 -12.5 31.5t-30.5 12.5q-7 0 -12 4.5t-5 11.5q0 1 0.5 2.5t0.5 2.5q4 20 24 20q33 0 54.5 -21t21.5 -54z" />
    <glyph glyph-name="uhorn" unicode="&#x1b0;" 
d="M538 417q20 0 43 19t23 44q0 19 -12.5 31.5t-30.5 12.5q-16 0 -16 17v4q2 8 9.5 14t15.5 6q33 0 54 -21t21 -54q0 -47 -37 -80t-78 -34l-72 -335h34q24 0 24 -15q0 -26 -32 -26h-75l14 66q-102 -82 -200 -82q-51 0 -80 26.5t-29 71.5q0 17 4 33l56 261h-54q-24 0 -24 16
q0 9 7.5 17t24.5 8h95l-64 -302q-2 -14 -2 -19q0 -31 20.5 -51t53.5 -20q100 0 202 90l56 261h-74q-25 0 -25 16q0 25 33 25h115z" />
    <glyph glyph-name="uni01B1" unicode="&#x1b1;" 
d="M199 -2q-16 2 -34.5 9.5t-42.5 23.5t-40 49t-16 78q0 103 66 184.5t142 88.5l21 97h-125l-22 -101q-4 -27 -24 -27q-17 0 -17 17q0 1 0.5 4.5t0.5 5.5l31 144h207l-37 -175q-62 -6 -105.5 -34.5t-62.5 -67.5t-26.5 -68.5t-7.5 -51.5v-13q0 -26 12.5 -56t28.5 -40l31 -18
q12 -7 27 -9h92q80 9 130.5 78.5t50.5 143.5q0 107 -100 132l-27 4l37 175h212l-31 -144q-1 -7 -9 -17t-18 -10q-15 0 -15 18q0 1 0.5 4t0.5 5l22 101h-129l-21 -97q61 -13 91 -60t30 -103q0 -93 -70 -181.5t-163 -88.5h-90z" />
    <glyph glyph-name="uni01B2" unicode="&#x1b2;" 
d="M100 539q0 24 32 24h141q27 0 27 -16q0 -26 -34 -26h-49l-79 -373q-4 -22 -4 -31q0 -40 31.5 -64t82.5 -24q43 0 75 13t47.5 34t22.5 36.5t10 31.5l89 417h94q24 0 24 -14q0 -26 -33 -26h-52l-80 -377q-33 -156 -204 -156q-150 0 -150 114q0 17 5 44l81 377h-53
q-24 0 -24 16z" />
    <glyph glyph-name="uni01B3" unicode="&#x1b3;" 
d="M272 547q0 -25 -32 -25h-38l104 -227l197 227h-40q-24 0 -24 15q0 26 33 26h110q23 0 23 -17q0 -3 -2 -8t-10 -10.5t-20 -5.5h-24l-233 -268l-45 -213h105q23 0 23 -16q0 -25 -32 -25h-251q-23 0 -23 15q0 26 32 26h105l45 213l-122 268h-24q-20 0 -44 -19t-24 -44
q0 -19 12.5 -31.5t30.5 -12.5q16 0 16 -17v-4q-4 -20 -24 -20q-33 0 -54.5 21t-21.5 54q0 48 38 81t80 33h111q23 0 23 -16z" />
    <glyph glyph-name="uni01B4" unicode="&#x1b4;" 
d="M679 490q0 -47 -37 -80.5t-80 -33.5h-14l-367 -521h65q23 0 23 -16q0 -25 -32 -25h-233q-23 0 -23 15q0 26 32 26h127l102 145l-108 376h-16q-24 0 -24 16q0 9 7.5 17t24.5 8h115q24 0 24 -15q0 -26 -32 -26h-52l93 -331l232 331h-54q-24 0 -24 16q0 9 7.5 17t24.5 8h110
q21 0 44.5 19t23.5 44q0 19 -12.5 31.5t-30.5 12.5q-16 0 -16 16l1 2v3q4 20 24 20q33 0 54 -21t21 -54z" />
    <glyph glyph-name="uni01B5" unicode="&#x1b5;" 
d="M452 306q0 -9 -7.5 -17t-24.5 -8h-110l-218 -236l-1 -4h314l30 141q6 27 26 27q16 0 16 -16q0 -7 -1 -11l-39 -182h-394l13 59l205 222h-77q-24 0 -24 15q0 9 7.5 17t24.5 8h106l183 198l1 3h-269l-25 -118q-6 -28 -26 -28q-16 0 -16 17q0 7 1 11l34 159h349l-12 -58
l-171 -184h81q24 0 24 -15z" />
    <glyph glyph-name="uni01B6" unicode="&#x1b6;" 
d="M159 216q0 25 32 25h112l149 135h-251l-12 -55q-6 -27 -26 -27q-16 0 -16 16q0 7 1 11l20 96h350l-7 -36l-155 -140h71q23 0 23 -16q0 -24 -32 -24h-106l-177 -160h277l12 56q6 27 27 27q15 0 15 -16q0 -7 -1 -11l-20 -97h-374l7 36l181 165h-77q-23 0 -23 15z" />
    <glyph glyph-name="uni01B7" unicode="&#x1b7;" 
d="M333 354q-52 0 -102 -20t-54 -20q-8 0 -12 5.5t-4 10.5q0 11 11 19l217 173h-232q-20 0 -20 17q0 6 6.5 15t21.5 9h327q25 0 25 -15q0 -26 -33 -26h-38l-174 -139q33 12 76 12q64 0 102 -40t38 -105q0 -21 -6.5 -50.5t-25 -68t-45.5 -70.5t-73.5 -54t-103.5 -22
q-49 0 -93 19.5t-65 40.5t-21 34q0 8 7 15.5t17 7.5q7 0 19.5 -12t26.5 -26t44.5 -26t70.5 -12q47 0 84.5 18t59.5 44t37 57t20.5 55.5t5.5 41.5q0 51 -30.5 81.5t-83.5 30.5z" />
    <glyph glyph-name="uni01B8" unicode="&#x1b8;" 
d="M280 354q-53 0 -96 -30.5t-65 -81.5q-16 -36 -16 -87q0 -55 29.5 -92t101.5 -37q40 0 75.5 12t55.5 26t37.5 26t24.5 12q16 0 16 -16q0 -1 -0.5 -3.5t-0.5 -3.5q-10 -23 -78.5 -58.5t-140.5 -35.5q-88 0 -124.5 46t-36.5 113q0 62 19 106q28 65 83 105t119 40
q43 0 71 -12l-115 139h-38q-24 0 -24 16q0 4 2 10q6 15 31 15h327q19 0 19 -17q0 -6 -1 -7q-8 -17 -27 -17h-232l143 -173q5 -5 5 -12q0 -3 -2 -7q-1 -4 -8 -10t-15 -6t-25 10t-46.5 20t-67.5 10z" />
    <glyph glyph-name="uni01B9" unicode="&#x1b9;" 
d="M87 -1q0 105 63 178t136 73h13l-107 126h-16q-25 0 -25 16q0 25 34 25h273q19 0 19 -17q0 -6 -6.5 -15t-21.5 -9h-200l143 -173q4 -6 4 -12t-5.5 -14t-17.5 -8q-13 0 -20.5 6.5t-12 14t-20.5 14t-42 6.5q-51 0 -100.5 -57.5t-49.5 -140.5q0 -55 25.5 -92.5t66.5 -37.5
q39 0 72 19t54.5 37.5t32.5 18.5q10 0 14 -6t4 -11q0 -10 -27.5 -33t-73 -44t-85.5 -21q-61 0 -92.5 45t-31.5 112z" />
    <glyph glyph-name="uni01BA" unicode="&#x1ba;" 
d="M42 -116q0 15 8 34.5t26.5 44t59.5 41t97 16.5q76 3 118.5 41t42.5 96q0 32 -25 42.5t-73 10.5q-27 0 -45.5 -6.5t-26 -14t-18 -14t-23.5 -6.5q-15 0 -15 14q0 12 10 20l217 173h-200q-20 0 -20 17q0 7 7 15.5t22 8.5h273q24 0 24 -15q0 -26 -33 -26h-16l-161 -126h13
q132 0 132 -82q0 -16 -5.5 -37.5t-20.5 -48.5t-36.5 -49.5t-59 -37.5t-83.5 -15q-76 0 -112 -27t-36 -62q0 -27 28.5 -39t101.5 -12q45 0 89.5 22t50.5 39q6 15 22 15t16 -16q0 -36 -64.5 -68t-131.5 -32q-44 0 -75 5.5t-54.5 25t-23.5 53.5z" />
    <glyph glyph-name="uni01BB" unicode="&#x1bb;" 
d="M506 476q0 -37 -18.5 -70.5t-37.5 -52.5t-58 -52h53q24 0 24 -14q0 -9 -9.5 -17.5t-22.5 -8.5h-93q-54 -44 -156.5 -125t-121.5 -95h314q1 3 3 14t3.5 17.5t5 15t9 12.5t13.5 4q16 0 16 -17q0 -6 -1 -10l-17 -77h-394l13 60l256 201h-86q-24 0 -24 15q0 9 7.5 17t24.5 8
h129q76 63 97 90q30 38 30 79q0 45 -34 76t-84 31q-51 0 -99 -30t-69 -75q-10 -20 -26 -20q-15 0 -15 15v3q9 41 72.5 94.5t145.5 53.5q64 0 107 -41.5t43 -100.5z" />
    <glyph glyph-name="uni01BC" unicode="&#x1bc;" 
d="M137 539q0 6 6.5 15t21.5 9h327q25 0 25 -15q0 -26 -33 -26h-241l-34 -157q80 30 139 30q64 0 102 -40t38 -105q0 -21 -6.5 -50.5t-25 -68t-45.5 -70.5t-73.5 -54t-103.5 -22q-49 0 -93 19.5t-65 40.5t-21 34q0 8 7 15.5t17 7.5q7 0 19.5 -12t26.5 -26t44.5 -26t70.5 -12
q47 0 84.5 18t59.5 44t37 57t20.5 55.5t5.5 41.5q0 51 -30.5 81.5t-83.5 30.5q-41 0 -73.5 -10t-53 -20.5t-30.5 -10.5q-15 0 -15 16q0 4 1 6l40 187h-45q-20 0 -20 17z" />
    <glyph glyph-name="uni01BD" unicode="&#x1bd;" 
d="M228 20q62 0 100 38.5t38 99.5q0 37 -27 53.5t-87 16.5q-32 0 -57.5 -7t-39.5 -13.5t-18 -6.5q-10 0 -10 14q0 7 1 11l32 150q-23 0 -23 15q0 26 32 26h273q20 0 20 -16q0 -8 -6.5 -16.5t-21.5 -8.5h-233l-26 -121q32 13 70 13h16q69 0 107 -28t38 -80q0 -18 -7.5 -44
t-25.5 -58.5t-58 -55t-95 -22.5q-60 0 -98 22.5t-38 46.5q0 11 8.5 18.5t17.5 7.5q6 0 13 -8.5t15 -19t31.5 -19t58.5 -8.5z" />
    <glyph glyph-name="uni01BE" unicode="&#x1be;" 
d="M173 385q0 10 7.5 18t24.5 8h105l24 111h-105q-24 0 -24 15q0 26 32 26h251q25 0 25 -16q0 -25 -33 -25h-105l-24 -111h105q25 0 25 -16q0 -25 -34 -25h-105l-11 -54q71 -38 101 -70t30 -73q0 -14 -5 -34.5t-20 -48t-37.5 -50t-62 -38.5t-89.5 -16q-39 0 -69 8t-59.5 23
t-36.5 17l14 68q6 27 27 27q15 0 15 -16q0 -7 -1 -11l-8 -41q60 -34 121 -34q47 0 82.5 16t52.5 39.5t25 43.5t8 34q0 35 -32.5 66t-102.5 63l17 81h-105q-23 0 -23 15z" />
    <glyph glyph-name="uni01BF" unicode="&#x1bf;" 
d="M112 -21l325 227q57 39 80 79.5t23 70.5q0 29 -21.5 38.5t-63.5 9.5q-36 0 -58 -2t-58 -13.5t-70 -34.5l-90 -60zM78 391q0 26 32 26h95l-15 -71l60 40q40 27 84 40.5t67.5 15.5t60.5 2q119 0 119 -79q0 -39 -27.5 -91t-96.5 -100l-356 -248l-15 -71h98q23 0 23 -15
q0 -26 -32 -26h-193q-23 0 -23 15q0 26 32 26h54l111 521h-54q-24 0 -24 15z" />
    <glyph glyph-name="uni01C0" unicode="&#x1c0;" 
d="M392 577l-144 -674q-4 -27 -25 -27q-16 0 -16 18q0 6 1 9l144 674q4 27 25 27q16 0 16 -18q0 -6 -1 -9z" />
    <glyph glyph-name="uni01C1" unicode="&#x1c1;" 
d="M456 577l-144 -674q-4 -27 -25 -27q-16 0 -16 17q0 1 0.5 4.5t0.5 5.5l144 674q4 27 25 27q16 0 16 -17q0 -1 -0.5 -4.5t-0.5 -5.5zM328 577l-144 -674q-4 -27 -25 -27q-16 0 -16 17q0 1 0.5 4.5t0.5 5.5l144 674q4 27 25 27q16 0 16 -17q0 -1 -0.5 -4.5t-0.5 -5.5z" />
    <glyph glyph-name="uni01C2" unicode="&#x1c2;" 
d="M74 350q0 25 33 25h202l43 202q4 27 25 27q16 0 16 -18q0 -6 -1 -9l-43 -202h202q23 0 23 -15q0 -10 -7.5 -18t-24.5 -8h-202l-22 -103h202q24 0 24 -15q0 -10 -8 -18t-25 -8h-202l-61 -287q-4 -27 -25 -27q-16 0 -16 18q0 6 1 9l61 287h-202q-23 0 -23 15q0 26 32 26
h202l22 103h-202q-24 0 -24 16z" />
    <glyph glyph-name="uni01C3" unicode="&#x1c3;" 
d="M458 563l-88 -326q-7 -28 -27 -28q-6 0 -10.5 4.5t-4.5 10.5q0 7 1 13l51 326q9 55 51 55q14 0 23 -8t9 -21q0 -6 -5 -26zM311 85h12q20 0 32.5 -11t12.5 -29q0 -24 -20 -42t-46 -18h-12q-19 0 -31.5 11t-12.5 28q0 25 19.5 43t45.5 18z" />
    <glyph glyph-name="uni01C4" unicode="&#x1c4;" 
d="M492 600l-82 109q-8 8 -8 16q0 9 7.5 16.5t14.5 7.5q6 0 12 -8l67 -88l105 88q10 8 16 8q11 0 11 -16q0 -5 -2 -9.5t-4 -7t-5 -5.5l-4 -3zM481 0h-234l13 59l285 460v3h-128l-25 -118q-6 -28 -26 -28q-16 0 -16 17q0 7 1 11l34 159h208l-12 -58l-285 -460l-1 -4h154
l30 141q6 27 26 27q16 0 16 -16q0 -7 -1 -11zM-53 15q0 26 32 26h18l102 481h-18q-23 0 -23 15q0 26 32 26h92q125 0 125 -143q0 -45 -13 -110l-12 -56q-54 -254 -220 -254h-92q-23 0 -23 15zM38 41h38q121 0 163 204l16 73q13 65 13 85q0 34 -14 65q-14 33 -29 43.5
t-54 10.5h-31z" />
    <glyph glyph-name="uni01C5" unicode="&#x1c5;" 
d="M479 480l-82 109q-7 7 -7 15q0 10 6.5 17.5t14.5 7.5q5 0 13 -8l66 -88l105 88q10 8 16 8q12 0 12 -16q0 -10 -15 -25zM576 417l-8 -36l-247 -340h149l12 56q6 27 27 27q15 0 15 -16q0 -7 -1 -11l-21 -97h-246l8 36l245 340h-115l-12 -55q-4 -27 -25 -27q-17 0 -17 18
q0 6 1 9l21 96h214zM-40 15q0 26 32 26h18l102 481h-18q-23 0 -23 15q0 26 32 26h92q125 0 125 -143q0 -45 -13 -110l-12 -56q-54 -254 -220 -254h-92q-23 0 -23 15zM51 41h38q121 0 163 204l16 73q13 65 13 85q0 34 -14 65q-15 33 -30 43.5t-53 10.5h-31z" />
    <glyph glyph-name="uni01C6" unicode="&#x1c6;" 
d="M465 480l-83 109q-7 8 -7 16q0 10 7.5 17t14.5 7q6 0 12 -8l67 -88l104 88q11 8 17 8q11 0 11 -16q0 -5 -2 -9.5t-4 -7t-6 -5.5l-3 -3zM64 25q38 0 67 33.5t43.5 81t21 87t6.5 64.5q0 99 -60 99q-44 0 -77 -101t-33 -186q0 -78 32 -78zM190 579q0 9 7.5 17t24.5 8h95
l-119 -563h55l242 335h-123l-12 -55q-6 -27 -26 -27q-16 0 -16 16q0 7 1 11l20 96h222l-7 -36l-247 -340h149l11 56q6 27 27 27q15 0 15 -16q0 -7 -1 -11l-20 -97h-340l10 49q-18 -37 -39.5 -51t-66.5 -14q-62 0 -62 110q0 33 8.5 84.5t25 110.5t49 100.5t73.5 41.5
q23 0 38.5 -5t23.5 -15.5t11.5 -19.5t6.5 -24l42 196h-54q-24 0 -24 16z" />
    <glyph glyph-name="uni01C7" unicode="&#x1c7;" 
d="M254 548q0 -26 -32 -26h-56l-103 -481h89l34 160q6 27 27 27q15 0 15 -16q0 -7 -1 -11l-42 -201h-211q-24 0 -24 16q0 9 7.5 17t24.5 8h40l103 481h-40q-24 0 -24 16q0 9 7.5 17t24.5 8q26 1 69 1q11 0 33 -0.5t35 -0.5q24 0 24 -15zM649 548q0 -26 -32 -26h-50l-76 -357
q-38 -181 -154 -181q-13 0 -23 1t-18.5 6t-13 8t-10.5 14t-8.5 15.5t-10 21.5t-10.5 24l32 149q6 27 27 27q15 0 15 -16q0 -7 -1 -11l-27 -130q2 -5 6.5 -18.5t6 -17t5.5 -11.5t7 -10t8.5 -5.5t11.5 -4.5t15 -1q20 0 35.5 8t25 18t18 32t12 37l10.5 45l76 357h-95
q-24 0 -24 16q0 9 7.5 17t24.5 8h186q24 0 24 -15z" />
    <glyph glyph-name="uni01C8" unicode="&#x1c8;" 
d="M380 548q0 -10 -8 -18t-25 -8h-96l-102 -481h173l34 160q6 27 27 27q15 0 15 -16q0 -7 -1 -11l-43 -201h-351q-23 0 -23 15q0 26 32 26h96l102 481h-96q-23 0 -23 15q0 26 32 26h233q24 0 24 -15zM182 -170q0 25 33 25h128q50 0 89.5 33t49.5 84l86 404h-81q-23 0 -23 15
q0 26 32 26h122l-95 -445q-14 -70 -67 -114t-121 -44h-129q-24 0 -24 16zM669 624l-22 -104h-59l22 104h59z" />
    <glyph glyph-name="uni01C9" unicode="&#x1c9;" 
d="M82 -170q0 25 33 25h128q50 0 89.5 33t49.5 84l86 404h-81q-23 0 -23 15q0 26 32 26h122l-95 -445q-14 -70 -67 -114t-121 -44h-129q-24 0 -24 16zM569 624l-22 -104h-59l22 104h59zM211 578q0 26 32 26h97l-120 -563h64q25 0 25 -15q0 -10 -8 -18t-26 -8h-171
q-23 0 -23 15q0 26 32 26h66l111 522h-56q-23 0 -23 15z" />
    <glyph glyph-name="uni01CA" unicode="&#x1ca;" 
d="M612 522l-76 -357q-8 -37 -13 -57t-15.5 -48t-22.5 -41.5t-31.5 -24t-44.5 -10.5q-68 0 -68 63q0 13 3 27l32 149q6 27 26 27q7 0 11.5 -4.5t4.5 -10.5q0 -13 -3 -25l-26 -117q-4 -19 -4 -34q0 -19 7.5 -26.5t25.5 -7.5q46 0 77 140l76 357h-35q-24 0 -24 16q0 25 32 25
h116q23 0 23 -16q0 -25 -32 -25h-39zM269 0h-50l-63 472l-91 -431h43q23 0 23 -15q0 -10 -7.5 -18t-24.5 -8h-102q-24 0 -24 16q0 25 33 25h18l102 481h-38q-24 0 -24 16q0 25 33 25h90l62 -472l92 431h-42q-25 0 -25 16q0 25 34 25h117q23 0 23 -15q0 -10 -7.5 -18
t-24.5 -8h-34q-99 -449 -113 -522z" />
    <glyph glyph-name="uni01CB" unicode="&#x1cb;" 
d="M532 548q0 -10 -8 -18t-25 -8h-34l-111 -522h-52l-101 488l-95 -447h75q24 0 24 -15q0 -10 -8 -18t-25 -8h-150q-23 0 -23 15q0 26 32 26h34l102 481h-54q-23 0 -23 15q0 26 32 26h106l101 -488l95 447h-74q-24 0 -24 15q0 26 33 26h149q24 0 24 -15zM182 -170
q0 25 33 25h128q50 0 89.5 33t49.5 84l86 404h-81q-23 0 -23 15q0 26 32 26h122l-95 -445q-14 -70 -67 -114t-121 -44h-129q-24 0 -24 16zM669 624l-22 -104h-59l22 104h59z" />
    <glyph glyph-name="uni01CC" unicode="&#x1cc;" 
d="M62 391q0 26 32 26h75l-15 -69q51 53 75 68t58 15h2q57 0 90.5 -30t33.5 -77q0 -14 -3 -29l-54 -254h34q24 0 24 -15q0 -10 -8 -18t-25 -8h-109q-23 0 -23 15q0 26 32 26h34l53 247q1 5 1 14q0 33 -21.5 60.5t-73.5 27.5q-20 0 -46.5 -19t-84.5 -77l-54 -253h45
q24 0 24 -15q0 -10 -8 -18t-25 -8h-131q-24 0 -24 15q0 26 33 26h45l71 335h-34q-23 0 -23 15zM182 -170q0 25 33 25h128q50 0 89.5 33t49.5 84l86 404h-81q-23 0 -23 15q0 26 32 26h122l-95 -445q-14 -70 -67 -114t-121 -44h-129q-24 0 -24 16zM669 624l-22 -104h-59
l22 104h59z" />
    <glyph glyph-name="uni01CD" unicode="&#x1cd;" 
d="M359 616l-108 109q-10 7 -10 15q0 10 7.5 17.5t17.5 7.5q6 0 16 -8l88 -88l127 88q11 8 19 8q16 0 16 -16q0 -12 -18 -25zM468 188h-265l-86 -147h79q23 0 23 -16q0 -11 -9 -18t-23 -7h-151q-23 0 -23 17q0 24 32 24h31l281 481h-120q-23 0 -23 16q0 25 32 25h203
l87 -522h37q23 0 23 -16q0 -25 -32 -25h-156q-23 0 -23 16q0 25 32 25h76zM462 229l-50 293h-15l-170 -293h235z" />
    <glyph glyph-name="uni01CE" unicode="&#x1ce;" 
d="M400 471l-108 109q-10 7 -10 15q0 10 7.5 17.5t17.5 7.5q6 0 16 -8l88 -88l127 88q11 8 19 8q16 0 16 -16q0 -12 -18 -25zM205 374q0 24 73.5 40.5t112.5 16.5q61 0 99 -28t38 -72q0 -15 -2 -23l-57 -267h54q23 0 23 -16q0 -25 -32 -25h-95l14 67q-106 -83 -208 -83
q-62 0 -97 27.5t-35 75.5q0 73 70.5 122t174.5 49q58 0 132 -21l15 71q1 5 1 14q0 31 -29 49.5t-78 18.5q-45 0 -98 -16t-61 -16q-6 0 -10.5 4.5t-4.5 11.5zM443 112l19 90q-58 15 -125 15q-86 0 -144 -34.5t-58 -86.5q0 -34 25 -52.5t71 -18.5q54 0 102 19.5t110 67.5z" />
    <glyph glyph-name="uni01CF" unicode="&#x1cf;" 
d="M430 616l-108 109q-10 7 -10 15q0 10 7.5 17.5t17.5 7.5q6 0 16 -8l88 -88l127 88q11 8 19 8q16 0 16 -16q0 -12 -18 -25zM431 522l-102 -481h139q24 0 24 -16q0 -11 -9 -18t-23 -7h-320q-23 0 -23 16q0 25 31 25h140l102 481h-139q-23 0 -23 16q0 25 31 25h320
q24 0 24 -16q0 -11 -9 -18t-23 -7h-140z" />
    <glyph glyph-name="uni01D0" unicode="&#x1d0;" 
d="M380 471l-108 109q-10 7 -10 15q0 10 7.5 17.5t17.5 7.5q6 0 16 -8l88 -88l127 88q11 8 19 8q16 0 16 -16q0 -12 -18 -25zM409 417l-80 -376h160q24 0 24 -16q0 -11 -9 -18t-23 -7h-362q-23 0 -23 16q0 25 31 25h161l71 335h-118q-23 0 -23 17q0 24 32 24h159z" />
    <glyph glyph-name="uni01D1" unicode="&#x1d1;" 
d="M431 616l-108 109q-10 7 -10 15q0 10 7.5 17.5t17.5 7.5q6 0 16 -8l88 -88l127 88q11 8 19 8q16 0 16 -16q0 -12 -18 -25zM422 576q86 0 140 -61t54 -158q0 -94 -45 -181t-119.5 -139.5t-155.5 -52.5q-86 0 -140 61.5t-54 161.5q0 93 45.5 178.5t120 138t154.5 52.5z
M415 535q-103 0 -187 -98.5t-84 -220.5q0 -83 45 -137t113 -54q104 0 188 98.5t84 221.5q0 82 -45 136t-114 54z" />
    <glyph glyph-name="uni01D2" unicode="&#x1d2;" 
d="M400 471l-108 109q-10 7 -10 15q0 10 7.5 17.5t17.5 7.5q6 0 16 -8l88 -88l127 88q11 8 19 8q16 0 16 -16q0 -12 -18 -25zM391 431q83 0 134.5 -50t51.5 -129q0 -104 -86 -186t-195 -82q-82 0 -133.5 50t-51.5 128q0 104 86 186.5t194 82.5zM382 390q-89 0 -159 -67
t-70 -152q0 -64 42.5 -105t109.5 -41q89 0 159.5 67t70.5 152q0 65 -42.5 105.5t-110.5 40.5z" />
    <glyph glyph-name="uni01D3" unicode="&#x1d3;" 
d="M431 616l-108 109q-10 7 -10 15q0 10 7.5 17.5t17.5 7.5q6 0 16 -8l88 -88l127 88q11 8 19 8q16 0 16 -16q0 -12 -18 -25zM610 522l-71 -337q-18 -85 -88 -143t-154 -58q-72 0 -116.5 43t-44.5 113q0 20 5 45l71 337h-33q-24 0 -24 16q0 25 32 25h150q22 0 22 -16
q0 -25 -31 -25h-75l-71 -337q-4 -16 -4 -34q0 -56 35.5 -91t91.5 -35q67 0 123 46.5t70 113.5l71 337h-74q-23 0 -23 17q0 24 32 24h149q23 0 23 -16q0 -25 -32 -25h-34z" />
    <glyph glyph-name="uni01D4" unicode="&#x1d4;" 
d="M376 471l-108 109q-10 7 -10 15q0 10 7.5 17.5t17.5 7.5q6 0 16 -8l88 -88l127 88q11 8 19 8q16 0 16 -16q0 -12 -18 -25zM439 0l14 66q-98 -82 -200 -82q-50 0 -79 26.5t-29 71.5q0 11 4 33l55 261h-54q-23 0 -23 16q0 25 32 25h95l-64 -302q-2 -6 -2 -18
q0 -32 20.5 -52t52.5 -20q101 0 203 90l55 261h-74q-24 0 -24 16q0 25 33 25h115l-80 -376h34q23 0 23 -16q0 -25 -32 -25h-75z" />
    <glyph glyph-name="uni01D5" unicode="&#x1d5;" 
d="M585 760h-236q-23 0 -23 16q0 24 32 24h236q23 0 23 -16q0 -24 -32 -24zM319 714q18 0 29.5 -11.5t11.5 -28.5q0 -23 -19 -41.5t-43 -18.5q-17 0 -28.5 11.5t-11.5 28.5q0 23 19 41.5t42 18.5zM540 714q18 0 29.5 -11.5t11.5 -28.5q0 -23 -19 -41.5t-43 -18.5
q-17 0 -28.5 11.5t-11.5 28.5q0 23 19 41.5t42 18.5zM610 522l-71 -337q-18 -85 -88 -143t-154 -58q-72 0 -116.5 43t-44.5 113q0 20 5 45l71 337h-33q-24 0 -24 16q0 25 32 25h150q22 0 22 -16q0 -25 -31 -25h-75l-71 -337q-4 -16 -4 -34q0 -56 35.5 -91t91.5 -35
q67 0 123 46.5t70 113.5l71 337h-74q-23 0 -23 17q0 24 32 24h149q23 0 23 -16q0 -25 -32 -25h-34z" />
    <glyph glyph-name="uni01D6" unicode="&#x1d6;" 
d="M548 651h-236q-23 0 -23 16q0 24 32 24h236q23 0 23 -16q0 -24 -32 -24zM307 588q18 0 29.5 -11.5t11.5 -28.5q0 -23 -19 -41.5t-43 -18.5q-17 0 -28.5 11.5t-11.5 28.5q0 23 19 41.5t42 18.5zM528 588q18 0 29.5 -11.5t11.5 -28.5q0 -23 -19 -41.5t-43 -18.5
q-17 0 -28.5 11.5t-11.5 28.5q0 23 19 41.5t42 18.5zM439 0l14 66q-98 -82 -200 -82q-50 0 -79 26.5t-29 71.5q0 11 4 33l55 261h-54q-23 0 -23 16q0 25 32 25h95l-64 -302q-2 -6 -2 -18q0 -32 20.5 -52t52.5 -20q101 0 203 90l55 261h-74q-24 0 -24 16q0 25 33 25h115
l-80 -376h34q23 0 23 -16q0 -25 -32 -25h-75z" />
    <glyph glyph-name="uni01D7" unicode="&#x1d7;" 
d="M574 759l-135 -100q-13 -9 -20 -9q-17 0 -17 16q0 11 17 24l135 100q13 9 21 9q16 0 16 -16q0 -12 -17 -24zM602 474l-63 -289q-19 -85 -88.5 -143t-153.5 -58q-72 0 -116.5 43t-44.5 113q0 20 5 45l63 289h-33q-24 0 -24 16q0 25 32 25h150q22 0 22 -16q0 -25 -31 -25
h-75l-63 -289q-4 -16 -4 -34q0 -56 35.5 -91t91.5 -35q67 0 122.5 46t70.5 114l63 289h-74q-23 0 -23 17q0 24 32 24h149q23 0 23 -16q0 -25 -32 -25h-34zM319 663q18 0 29.5 -11.5t11.5 -28.5q0 -23 -19 -41.5t-43 -18.5q-17 0 -28.5 11.5t-11.5 28.5q0 23 19 41.5t42 18.5
zM540 663q18 0 29.5 -11.5t11.5 -28.5q0 -23 -19 -41.5t-43 -18.5q-17 0 -28.5 11.5t-11.5 28.5q0 23 19 41.5t42 18.5z" />
    <glyph glyph-name="uni01D8" unicode="&#x1d8;" 
d="M585 715l-135 -100q-13 -9 -20 -9q-17 0 -17 16q0 11 17 24l135 100q13 9 21 9q16 0 16 -16q0 -12 -17 -24zM307 588q18 0 29.5 -11.5t11.5 -28.5q0 -23 -19 -41.5t-43 -18.5q-17 0 -28.5 11.5t-11.5 28.5q0 23 19 41.5t42 18.5zM528 588q18 0 29.5 -11.5t11.5 -28.5
q0 -23 -19 -41.5t-43 -18.5q-17 0 -28.5 11.5t-11.5 28.5q0 23 19 41.5t42 18.5zM439 0l14 66q-98 -82 -200 -82q-50 0 -79 26.5t-29 71.5q0 11 4 33l55 261h-54q-23 0 -23 16q0 25 32 25h95l-64 -302q-2 -6 -2 -18q0 -32 20.5 -52t52.5 -20q101 0 203 90l55 261h-74
q-24 0 -24 16q0 25 33 25h115l-80 -376h34q23 0 23 -16q0 -25 -32 -25h-75z" />
    <glyph glyph-name="uni01D9" unicode="&#x1d9;" 
d="M432 651l-108 109q-10 8 -10 15q0 10 7.5 17.5t17.5 7.5q6 0 16 -8l88 -88l127 88q11 8 19 8q16 0 16 -16q0 -12 -18 -25zM601 478l-62 -293q-18 -85 -88 -143t-154 -58q-72 0 -116.5 43t-44.5 113q0 20 5 45l62 293h-33q-24 0 -24 16q0 25 32 25h150q22 0 22 -16
q0 -25 -31 -25h-75l-62 -293q-4 -16 -4 -34q0 -56 35.5 -91t91.5 -35q67 0 123 46.5t70 113.5l62 293h-74q-23 0 -23 17q0 24 32 24h149q23 0 23 -16q0 -25 -32 -25h-34zM319 658q18 0 29.5 -11.5t11.5 -28.5q0 -23 -19 -41.5t-43 -18.5q-17 0 -28.5 11.5t-11.5 28.5
q0 23 19 41.5t42 18.5zM540 658q18 0 29.5 -11.5t11.5 -28.5q0 -23 -19 -41.5t-43 -18.5q-17 0 -28.5 11.5t-11.5 28.5q0 23 19 41.5t42 18.5z" />
    <glyph glyph-name="uni01DA" unicode="&#x1da;" 
d="M430 616l-108 109q-10 7 -10 15q0 10 7.5 17.5t17.5 7.5q6 0 16 -8l88 -88l127 88q11 8 19 8q16 0 16 -16q0 -12 -18 -25zM307 588q18 0 29.5 -11.5t11.5 -28.5q0 -23 -19 -41.5t-43 -18.5q-17 0 -28.5 11.5t-11.5 28.5q0 23 19 41.5t42 18.5zM528 588q18 0 29.5 -11.5
t11.5 -28.5q0 -23 -19 -41.5t-43 -18.5q-17 0 -28.5 11.5t-11.5 28.5q0 23 19 41.5t42 18.5zM439 0l14 66q-98 -82 -200 -82q-50 0 -79 26.5t-29 71.5q0 11 4 33l55 261h-54q-23 0 -23 16q0 25 32 25h95l-64 -302q-2 -6 -2 -18q0 -32 20.5 -52t52.5 -20q101 0 203 90l55 261
h-74q-24 0 -24 16q0 25 33 25h115l-80 -376h34q23 0 23 -16q0 -25 -32 -25h-75z" />
    <glyph glyph-name="uni01DB" unicode="&#x1db;" 
d="M370 790l92 -100q2 -1 5.5 -7.5t3.5 -8.5q0 -9 -8.5 -16.5t-17.5 -7.5q-7 0 -16 9l-93 100q-8 10 -8 15q0 10 8 17.5t18 7.5q7 0 16 -9zM319 714q18 0 29.5 -11.5t11.5 -28.5q0 -23 -19 -41.5t-43 -18.5q-17 0 -28.5 11.5t-11.5 28.5q0 23 19 41.5t42 18.5zM540 714
q18 0 29.5 -11.5t11.5 -28.5q0 -23 -19 -41.5t-43 -18.5q-17 0 -28.5 11.5t-11.5 28.5q0 23 19 41.5t42 18.5zM610 522l-71 -337q-18 -85 -88 -143t-154 -58q-72 0 -116.5 43t-44.5 113q0 20 5 45l71 337h-33q-24 0 -24 16q0 25 32 25h150q22 0 22 -16q0 -25 -31 -25h-75
l-71 -337q-4 -16 -4 -34q0 -56 35.5 -91t91.5 -35q67 0 123 46.5t70 113.5l71 337h-74q-23 0 -23 17q0 24 32 24h149q23 0 23 -16q0 -25 -32 -25h-34z" />
    <glyph glyph-name="uni01DC" unicode="&#x1dc;" 
d="M336 791l92 -100q2 -1 5.5 -7.5t3.5 -8.5q0 -9 -8.5 -16.5t-17.5 -7.5q-7 0 -16 9l-93 100q-8 10 -8 15q0 10 8 17.5t18 7.5q7 0 16 -9zM307 588q18 0 29.5 -11.5t11.5 -28.5q0 -23 -19 -41.5t-43 -18.5q-17 0 -28.5 11.5t-11.5 28.5q0 23 19 41.5t42 18.5zM528 588
q18 0 29.5 -11.5t11.5 -28.5q0 -23 -19 -41.5t-43 -18.5q-17 0 -28.5 11.5t-11.5 28.5q0 23 19 41.5t42 18.5zM439 0l14 66q-98 -82 -200 -82q-50 0 -79 26.5t-29 71.5q0 11 4 33l55 261h-54q-23 0 -23 16q0 25 32 25h95l-64 -302q-2 -6 -2 -18q0 -32 20.5 -52t52.5 -20
q101 0 203 90l55 261h-74q-24 0 -24 16q0 25 33 25h115l-80 -376h34q23 0 23 -16q0 -25 -32 -25h-75z" />
    <glyph glyph-name="uni01DD" unicode="&#x1dd;" 
d="M143 345q0 26 78.5 56t152.5 30q87 0 141.5 -52t54.5 -135q0 -103 -84 -181.5t-195 -78.5q-82 0 -134.5 47.5t-52.5 121.5q0 23 8 63h416q1 10 1 22q0 67 -46 109.5t-119 42.5q-47 0 -99.5 -15t-88.5 -39q-13 -7 -18 -7q-15 0 -15 16zM519 175h-374q-1 -5 -1 -12
q0 -61 43.5 -99.5t111.5 -38.5q73 0 132.5 40.5t87.5 109.5z" />
    <glyph glyph-name="uni01DE" unicode="&#x1de;" 
d="M560 758h-236q-23 0 -23 16q0 24 32 24h236q23 0 23 -16q0 -24 -32 -24zM319 714q18 0 29.5 -11.5t11.5 -28.5q0 -23 -19 -41.5t-43 -18.5q-17 0 -28.5 11.5t-11.5 28.5q0 23 19 41.5t42 18.5zM540 714q18 0 29.5 -11.5t11.5 -28.5q0 -23 -19 -41.5t-43 -18.5
q-17 0 -28.5 11.5t-11.5 28.5q0 23 19 41.5t42 18.5zM468 188h-265l-86 -147h79q23 0 23 -16q0 -11 -9 -18t-23 -7h-151q-23 0 -23 17q0 24 32 24h31l281 481h-120q-23 0 -23 16q0 25 32 25h203l87 -522h37q23 0 23 -16q0 -25 -32 -25h-156q-23 0 -23 16q0 25 32 25h76z
M462 229l-50 293h-15l-170 -293h235z" />
    <glyph glyph-name="uni01DF" unicode="&#x1df;" 
d="M546 651h-236q-23 0 -23 16q0 24 32 24h236q23 0 23 -16q0 -24 -32 -24zM307 588q18 0 29.5 -11.5t11.5 -28.5q0 -23 -19 -41.5t-43 -18.5q-17 0 -28.5 11.5t-11.5 28.5q0 23 19 41.5t42 18.5zM528 588q18 0 29.5 -11.5t11.5 -28.5q0 -23 -19 -41.5t-43 -18.5
q-17 0 -28.5 11.5t-11.5 28.5q0 23 19 41.5t42 18.5zM205 374q0 24 73.5 40.5t112.5 16.5q61 0 99 -28t38 -72q0 -15 -2 -23l-57 -267h54q23 0 23 -16q0 -25 -32 -25h-95l14 67q-106 -83 -208 -83q-62 0 -97 27.5t-35 75.5q0 73 70.5 122t174.5 49q58 0 132 -21l15 71
q1 5 1 14q0 31 -29 49.5t-78 18.5q-45 0 -98 -16t-61 -16q-6 0 -10.5 4.5t-4.5 11.5zM443 112l19 90q-58 15 -125 15q-86 0 -144 -34.5t-58 -86.5q0 -34 25 -52.5t71 -18.5q54 0 102 19.5t110 67.5z" />
    <glyph glyph-name="uni01E0" unicode="&#x1e0;" 
d="M559 757h-236q-23 0 -23 16q0 24 32 24h236q23 0 23 -16q0 -24 -32 -24zM437 716q18 0 29.5 -11.5t11.5 -28.5q0 -23 -19 -41.5t-43 -18.5q-17 0 -28.5 11.5t-11.5 28.5q0 23 19 41.5t42 18.5zM468 188h-265l-86 -147h79q23 0 23 -16q0 -11 -9 -18t-23 -7h-151
q-23 0 -23 17q0 24 32 24h31l281 481h-120q-23 0 -23 16q0 25 32 25h203l87 -522h37q23 0 23 -16q0 -25 -32 -25h-156q-23 0 -23 16q0 25 32 25h76zM462 229l-50 293h-15l-170 -293h235z" />
    <glyph glyph-name="uni01E1" unicode="&#x1e1;" 
d="M547 611h-236q-23 0 -23 16q0 24 32 24h236q23 0 23 -16q0 -24 -32 -24zM420 571q18 0 29.5 -11.5t11.5 -28.5q0 -23 -19 -41.5t-43 -18.5q-17 0 -28.5 11.5t-11.5 28.5q0 23 19 41.5t42 18.5zM205 374q0 24 73.5 40.5t112.5 16.5q61 0 99 -28t38 -72q0 -15 -2 -23
l-57 -267h54q23 0 23 -16q0 -25 -32 -25h-95l14 67q-106 -83 -208 -83q-62 0 -97 27.5t-35 75.5q0 73 70.5 122t174.5 49q58 0 132 -21l15 71q1 5 1 14q0 31 -29 49.5t-78 18.5q-45 0 -98 -16t-61 -16q-6 0 -10.5 4.5t-4.5 11.5zM443 112l19 90q-58 15 -125 15
q-86 0 -144 -34.5t-58 -86.5q0 -34 25 -52.5t71 -18.5q54 0 102 19.5t110 67.5z" />
    <glyph glyph-name="uni01E2" unicode="&#x1e2;" 
d="M606 616h-236q-23 0 -23 16q0 24 32 24h236q23 0 23 -16q0 -24 -32 -24zM337 189h-141l-72 -148h26q23 0 23 -16q0 -25 -32 -25h-104q-23 0 -23 16q0 25 32 25h37l235 481h-63q-23 0 -23 16q0 25 32 25h426l-32 -152q-6 -27 -27 -27q-7 0 -11.5 4.5t-4.5 10.5q0 4 2 12
l23 111h-191l-44 -208h78q1 3 3 13.5t3.5 15.5t5 12.5t8.5 10.5t12 3t11.5 -4.5t4.5 -10.5q0 -4 -2 -12l-20 -96q-6 -27 -26 -27q-16 0 -16 16q0 5 1 11.5t3 14.5l3 12h-78l-49 -232h211l20 93q3 26 26 26q16 0 16 -16q0 -30 -13.5 -79t-16.5 -65h-345q-23 0 -23 17
q0 24 32 24h52zM346 230l62 292h-50l-142 -292h130z" />
    <glyph glyph-name="uni01E3" unicode="&#x1e3;" 
d="M532 471h-236q-23 0 -23 16q0 24 32 24h236q23 0 23 -16q0 -24 -32 -24zM150 374q0 24 54.5 40.5t85.5 16.5q37 0 63.5 -23t31.5 -61q27 39 63.5 61.5t72.5 22.5q52 0 80.5 -36t28.5 -99q0 -41 -11 -97h-258q-3 -27 -3 -45q0 -56 26 -92.5t67 -36.5q33 0 76 31t50 31
q16 0 16 -17t-55 -51.5t-97 -34.5q-73 0 -108 77q-1 -3 -3 -13.5t-3.5 -17t-5 -14.5t-9 -12t-12.5 -4t-11.5 4.5t-4.5 10.5q0 9 7 37q-71 -68 -135 -68q-55 0 -87.5 31.5t-32.5 83.5q0 68 62.5 113t150.5 45q43 0 83 -12l13 60q2 12 2 17q0 30 -20 49t-52 19q-37 0 -71 -16
t-39 -16t-10 5t-5 11zM303 110l20 93q-42 13 -77 13q-42 0 -86 -17t-62 -40q-18 -25 -18 -59t23.5 -54.5t61.5 -20.5q54 0 138 85zM370 240h216q3 33 3 48q0 102 -77 102q-90 0 -142 -150z" />
    <glyph glyph-name="uni01E4" unicode="&#x1e4;" 
d="M279 121q0 25 33 25h139l13 63h-139q-24 0 -24 16q0 25 33 25h194q24 0 24 -15q0 -26 -33 -26h-14l-13 -63h14q24 0 24 -15q0 -26 -33 -26h-14l-15 -69q-101 -52 -198 -52q-104 0 -163 52t-59 143q0 33 7 65l16 74q22 102 107.5 180t197.5 78q98 0 154 -54q8 41 30 41
q15 0 15 -15q0 -7 -1 -12l-19 -91q-6 -27 -26 -27q-15 0 -15 16q0 3 0.5 7.5t0.5 8.5q0 36 -41.5 60.5t-104.5 24.5q-58 0 -107 -25t-79 -62t-48 -71t-23 -60l-16 -73q-6 -30 -6 -57q0 -77 50 -119.5t142 -42.5q69 0 150 34l10 46h-139q-24 0 -24 16z" />
    <glyph glyph-name="uni01E5" unicode="&#x1e5;" 
d="M257 51q77 0 142.5 60.5t65.5 145.5q0 59 -37.5 96t-98.5 37q-88 0 -148 -66t-60 -139q0 -58 38 -96t98 -38zM621 402q0 -10 -7.5 -18t-24.5 -8h-54l-86 -404q-1 -6 -5 -18h51q24 0 24 -15q0 -9 -7.5 -17t-24.5 -8h-62q-25 -40 -73.5 -70t-101.5 -30h-114q-23 0 -23 15
q0 26 32 26h116q68 0 117 59h-127q-24 0 -24 15q0 9 7.5 17t24.5 8h143q9 27 19 80t16 73q-87 -97 -192 -97q-73 0 -119.5 47t-46.5 119q0 105 83.5 180t172.5 75q105 0 150 -97l18 83h95q23 0 23 -15z" />
    <glyph glyph-name="Gcaron" unicode="&#x1e6;" 
d="M445 616l-108 109q-10 7 -10 15q0 10 7.5 17.5t17.5 7.5q6 0 16 -8l88 -88l127 88q11 8 19 8q16 0 16 -16q0 -12 -18 -25zM575 465q0 9 -15 25t-51 31t-81 15q-86 0 -161.5 -64.5t-94.5 -154.5q-2 -8 -9 -37.5t-10 -50.5t-3 -42q0 -76 51 -119t140 -43q70 0 151 34
l32 150h-139q-23 0 -23 16q0 25 32 25h194q24 0 24 -16q0 -25 -33 -25h-14l-37 -173q-101 -52 -198 -52q-103 0 -162.5 52.5t-59.5 142.5q0 34 7 65l16 74q23 109 111 183.5t194 74.5q98 0 154 -54q8 41 29 41q17 0 17 -15q0 -4 -2 -12l-19 -91q-6 -28 -27 -28q-7 0 -16 12z
" />
    <glyph glyph-name="gcaron" unicode="&#x1e7;" 
d="M370 471l-108 109q-10 7 -10 15q0 10 7.5 17.5t17.5 7.5q6 0 16 -8l88 -88l127 88q11 8 19 8q16 0 16 -16q0 -12 -18 -25zM511 334l18 83h95q23 0 23 -16q0 -25 -32 -25h-54l-86 -404q-4 -20 -18 -44.5t-37.5 -51t-61 -44.5t-81.5 -18h-115q-23 0 -23 16q0 25 32 25h116
q51 0 94 36t54 87l28 129q-87 -97 -192 -97q-73 0 -119.5 47t-46.5 120q0 97 79 175.5t177 78.5q105 0 150 -97zM354 390q-80 0 -143.5 -62.5t-63.5 -141.5q0 -60 37.5 -97.5t97.5 -37.5q82 0 145.5 63t63.5 144q0 59 -38 95.5t-99 36.5z" />
    <glyph glyph-name="uni01E8" unicode="&#x1e8;" 
d="M425 616l-108 109q-10 7 -10 15q0 10 7.5 17.5t17.5 7.5q6 0 16 -8l88 -88l127 88q11 8 19 8q16 0 16 -16q0 -12 -18 -25zM212 221l-38 -180h74q24 0 24 -16q0 -11 -9 -18t-23 -7h-170q-23 0 -23 17q0 24 32 24h54l102 481h-54q-23 0 -23 17q0 24 32 24h169q24 0 24 -16
q0 -25 -32 -25h-75l-53 -249l333 249h-45q-24 0 -24 16q0 25 32 25h119q24 0 24 -16q0 -25 -32 -25h-17l-264 -198q66 -30 95 -84.5t54 -198.5h56q23 0 23 -16q0 -11 -9 -18t-23 -7h-86q-23 152 -53.5 211.5t-96.5 82.5z" />
    <glyph glyph-name="uni01E9" unicode="&#x1e9;" 
d="M437 616l-108 109q-10 7 -10 15q0 10 7.5 17.5t17.5 7.5q6 0 16 -8l88 -88l127 88q11 8 19 8q16 0 16 -16q0 -12 -18 -25zM223 180l-38 -180h-95q-23 0 -23 17q0 24 32 24h54l111 522h-54q-23 0 -23 17q0 24 31 24h96l-80 -375l204 147h-22q-23 0 -23 17q0 24 32 24h129
q24 0 24 -17q0 -11 -9 -17.5t-23 -6.5h-47l-185 -131l164 -204h45q23 0 23 -16q0 -11 -9 -18t-23 -7h-131q-23 0 -23 17q0 24 32 24h28l-142 178z" />
    <glyph glyph-name="uni01EA" unicode="&#x1ea;" 
d="M261 -134q22 0 40 9.5t21 9.5q11 0 11 -12q0 -14 -27.5 -26.5t-57.5 -12.5q-65 0 -65 46q0 64 90 105q-77 8 -124 68.5t-47 153.5t45.5 178.5t120 138t154.5 52.5q86 0 140 -61t54 -158q0 -136 -88.5 -247t-205.5 -125l-23 -11q-76 -37 -76 -84q0 -24 38 -24zM415 535
q-103 0 -187 -98.5t-84 -220.5q0 -83 45 -137t113 -54q104 0 188 98.5t84 221.5q0 82 -45 136t-114 54z" />
    <glyph glyph-name="uni01EB" unicode="&#x1eb;" 
d="M265 -134q22 0 40 9.5t21 9.5q11 0 11 -12q0 -14 -27.5 -26.5t-57.5 -12.5q-65 0 -65 46q0 64 90 105q-74 6 -120 55t-46 122q0 104 86 186.5t194 82.5q83 0 134.5 -50t51.5 -129q0 -96 -75 -175t-175 -91l-24 -12q-76 -37 -76 -84q0 -24 38 -24zM382 390q-89 0 -159 -67
t-70 -152q0 -64 42.5 -105t109.5 -41q89 0 159.5 67t70.5 152q0 65 -42.5 105.5t-110.5 40.5z" />
    <glyph glyph-name="uni01EC" unicode="&#x1ec;" 
d="M548 616h-236q-23 0 -23 16q0 24 32 24h236q23 0 23 -16q0 -24 -32 -24zM261 -134q22 0 40 9.5t21 9.5q11 0 11 -12q0 -14 -27.5 -26.5t-57.5 -12.5q-65 0 -65 46q0 64 90 105q-77 8 -124 68.5t-47 153.5t45.5 178.5t120 138t154.5 52.5q86 0 140 -61t54 -158
q0 -136 -88.5 -247t-205.5 -125l-23 -11q-76 -37 -76 -84q0 -24 38 -24zM415 535q-103 0 -187 -98.5t-84 -220.5q0 -83 45 -137t113 -54q104 0 188 98.5t84 221.5q0 82 -45 136t-114 54z" />
    <glyph glyph-name="uni01ED" unicode="&#x1ed;" 
d="M517 471h-236q-23 0 -23 16q0 24 32 24h236q23 0 23 -16q0 -24 -32 -24zM265 -134q22 0 40 9.5t21 9.5q11 0 11 -12q0 -14 -27.5 -26.5t-57.5 -12.5q-65 0 -65 46q0 64 90 105q-74 6 -120 55t-46 122q0 104 86 186.5t194 82.5q83 0 134.5 -50t51.5 -129q0 -96 -75 -175
t-175 -91l-24 -12q-76 -37 -76 -84q0 -24 38 -24zM382 390q-89 0 -159 -67t-70 -152q0 -64 42.5 -105t109.5 -41q89 0 159.5 67t70.5 152q0 65 -42.5 105.5t-110.5 40.5z" />
    <glyph glyph-name="uni01EE" unicode="&#x1ee;" 
d="M340 616l-108 109q-10 7 -10 15q0 10 7.5 17.5t17.5 7.5q6 0 16 -8l88 -88l127 88q11 8 19 8q16 0 16 -16q0 -12 -18 -25zM333 354q-52 0 -102 -20t-54 -20q-8 0 -12 5.5t-4 10.5q0 11 11 19l217 173h-232q-20 0 -20 17q0 6 6.5 15t21.5 9h327q25 0 25 -15q0 -26 -33 -26
h-38l-174 -139q33 12 76 12q64 0 102 -40t38 -105q0 -21 -6.5 -50.5t-25 -68t-45.5 -70.5t-73.5 -54t-103.5 -22q-49 0 -93 19.5t-65 40.5t-21 34q0 8 7 15.5t17 7.5q7 0 19.5 -12t26.5 -26t44.5 -26t70.5 -12q47 0 84.5 18t59.5 44t37 57t20.5 55.5t5.5 41.5
q0 51 -30.5 81.5t-83.5 30.5z" />
    <glyph glyph-name="uni01EF" unicode="&#x1ef;" 
d="M345 471l-108 109q-10 7 -10 15q0 10 7.5 17.5t17.5 7.5q6 0 16 -8l88 -88l127 88q11 8 19 8q16 0 16 -16q0 -12 -18 -25zM495 402q0 -26 -34 -26h-16l-160 -126h13q56 0 86 -40t30 -101q0 -55 -26.5 -116t-77.5 -106t-111 -45q-26 0 -48.5 7t-40.5 21t-28 24t-24 27
q-4 4 -4 11q0 11 8.5 18t17.5 7q7 0 22.5 -18.5t42.5 -37.5t62 -19q61 0 113.5 72t52.5 145q0 48 -23 79.5t-61 31.5q-28 0 -46.5 -6.5t-25.5 -14t-17 -14t-24 -6.5q-15 0 -15 14q0 12 11 20l216 173h-200q-19 0 -19 16q0 4 1.5 9t8.5 10.5t18 5.5h273q25 0 25 -15z" />
    <glyph glyph-name="uni01F0" unicode="&#x1f0;" 
d="M506 522l-108 109q-10 7 -10 15q0 10 7.5 17.5t17.5 7.5q6 0 16 -8l88 -88l127 88q11 8 19 8q16 0 16 -16q0 -12 -18 -25zM497 376h-240q-24 0 -24 16q0 25 33 25h281l-95 -445q-14 -70 -67 -114t-121 -44h-129q-23 0 -23 16q0 25 32 25h128q50 0 89.5 33t49.5 84z" />
    <glyph glyph-name="uni01F1" unicode="&#x1f1;" 
d="M501 0h-234l13 59l284 460l1 3h-128l-25 -118q-6 -28 -26 -28q-16 0 -16 17q0 7 1 11l34 159h208l-12 -58l-285 -460l-1 -4h154l30 141q6 27 26 27q16 0 16 -16q0 -7 -1 -11zM-33 15q0 26 32 26h18l102 481h-18q-23 0 -23 15q0 26 32 26h92q125 0 125 -143
q0 -45 -13 -110l-12 -56q-54 -254 -220 -254h-92q-23 0 -23 15zM58 41h38q121 0 163 204l16 73q13 65 13 85q0 34 -14 65q-15 33 -30 43.5t-53 10.5h-31z" />
    <glyph glyph-name="uni01F2" unicode="&#x1f2;" 
d="M583 417l-8 -36l-247 -340h149l12 56q6 27 27 27q15 0 15 -16q0 -7 -1 -11l-21 -97h-246l8 36l245 340h-115l-12 -55q-5 -27 -25 -27q-17 0 -17 18q0 6 1 9l21 96h214zM-33 15q0 26 32 26h18l102 481h-18q-23 0 -23 15q0 26 32 26h92q125 0 125 -143q0 -45 -13 -110
l-12 -56q-54 -254 -220 -254h-92q-23 0 -23 15zM58 41h38q121 0 163 204l16 73q13 65 13 85q0 34 -14 65q-15 33 -30 43.5t-53 10.5h-31z" />
    <glyph glyph-name="uni01F3" unicode="&#x1f3;" 
d="M67 25q38 0 67 33.5t43 81t20.5 87t6.5 64.5q0 99 -60 99q-43 0 -76 -100t-33 -187q0 -78 32 -78zM193 578q0 26 32 26h95l-120 -563h56l241 335h-123l-11 -55q-6 -27 -26 -27q-16 0 -16 16q0 7 1 11l20 96h222l-8 -36l-247 -340h149l12 56q6 27 27 27q15 0 15 -16
q0 -7 -1 -11l-20 -97h-340l10 49q-18 -37 -39.5 -51t-66.5 -14q-62 0 -62 110q0 31 8.5 82t25 110.5t49 102t73.5 42.5q23 0 38.5 -5t23.5 -15.5t11.5 -19.5t6.5 -24l41 196h-54q-23 0 -23 15z" />
    <glyph glyph-name="uni01F4" unicode="&#x1f4;" 
d="M600 725l-135 -100q-13 -9 -20 -9q-17 0 -17 16q0 11 17 24l135 100q13 9 21 9q16 0 16 -16q0 -12 -17 -24zM575 465q0 9 -15 25t-51 31t-81 15q-86 0 -161.5 -64.5t-94.5 -154.5q-2 -8 -9 -37.5t-10 -50.5t-3 -42q0 -76 51 -119t140 -43q70 0 151 34l32 150h-139
q-23 0 -23 16q0 25 32 25h194q24 0 24 -16q0 -25 -33 -25h-14l-37 -173q-101 -52 -198 -52q-103 0 -162.5 52.5t-59.5 142.5q0 34 7 65l16 74q23 109 111 183.5t194 74.5q98 0 154 -54q8 41 29 41q17 0 17 -15q0 -4 -2 -12l-19 -91q-6 -28 -27 -28q-7 0 -16 12z" />
    <glyph glyph-name="uni01F5" unicode="&#x1f5;" 
d="M525 580l-135 -100q-13 -9 -20 -9q-17 0 -17 16q0 11 17 24l135 100q13 9 21 9q16 0 16 -16q0 -12 -17 -24zM511 334l18 83h95q23 0 23 -16q0 -25 -32 -25h-54l-86 -404q-4 -20 -18 -44.5t-37.5 -51t-61 -44.5t-81.5 -18h-115q-23 0 -23 16q0 25 32 25h116q51 0 94 36
t54 87l28 129q-87 -97 -192 -97q-73 0 -119.5 47t-46.5 120q0 97 79 175.5t177 78.5q105 0 150 -97zM354 390q-80 0 -143.5 -62.5t-63.5 -141.5q0 -60 37.5 -97.5t97.5 -37.5q82 0 145.5 63t63.5 144q0 59 -38 95.5t-99 36.5z" />
    <glyph glyph-name="uni01F6" unicode="&#x1f6;" 
d="M471 550q0 -26 -32 -26h-25l-87 -409q-2 -14 -2 -19q0 -31 20.5 -51t53.5 -20q45 0 72 30t34 63l55 258h-74q-25 0 -25 16q0 25 33 25h115l-63 -301q-12 -52 -54 -92t-105 -40q-47 0 -75.5 27t-28.5 68l3 36l34 159h-190l-49 -231h54q23 0 23 -16q0 -25 -32 -25h-140
q-24 0 -24 16q0 25 33 25h45l102 481h-25q-23 0 -23 17q0 24 32 24h104q23 0 23 -15q0 -26 -32 -26h-38l-44 -209h190l44 209h-38q-23 0 -23 17q0 24 32 24h104q23 0 23 -15z" />
    <glyph glyph-name="uni01F7" unicode="&#x1f7;" 
d="M96 537q0 26 32 26h95l-19 -86l72 44q84 51 197 51q58 0 91.5 -21t33.5 -64q0 -36 -25 -85t-89 -102l-383 -311l-29 -134h98q23 0 23 -15q0 -26 -32 -26h-193q-23 0 -23 15q0 26 32 26h54l142 667h-54q-23 0 -23 15zM194 426l-81 -380l347 282q51 43 74.5 84t23.5 70
q0 27 -22.5 38.5t-71.5 11.5q-98 0 -172 -45z" />
    <glyph glyph-name="uni01F8" unicode="&#x1f8;" 
d="M329 756l92 -100q2 -1 5.5 -7.5t3.5 -8.5q0 -9 -8.5 -16.5t-17.5 -7.5q-7 0 -16 9l-93 100q-8 10 -8 15q0 10 8 17.5t18 7.5q7 0 16 -9zM501 0h-52l-198 504l-98 -463h74q24 0 24 -16q0 -11 -9 -18t-23 -7h-150q-23 0 -23 17q0 24 32 24h34l102 481h-54q-23 0 -23 17
q0 24 32 24h106l198 -504l98 463h-74q-24 0 -24 16q0 25 32 25h150q23 0 23 -16q0 -25 -32 -25h-34z" />
    <glyph glyph-name="uni01F9" unicode="&#x1f9;" 
d="M303 611l92 -100q2 -1 5.5 -7.5t3.5 -8.5q0 -9 -8.5 -16.5t-17.5 -7.5q-7 0 -16 9l-93 100q-8 10 -8 15q0 10 8 17.5t18 7.5q7 0 16 -9zM502 308q0 30 -22.5 56t-76.5 26q-48 0 -81 -18.5t-92 -77.5l-54 -253h45q23 0 23 -16q0 -25 -32 -25h-131q-24 0 -24 16q0 25 32 25
h46l71 335h-34q-23 0 -23 16q0 25 32 25h75l-15 -69q54 48 90.5 65.5t82.5 17.5q59 0 95 -30.5t36 -81.5q0 -16 -2 -24l-54 -254h34q23 0 23 -16q0 -11 -9 -18t-23 -7h-109q-23 0 -23 16q0 25 32 25h34l52 247q2 7 2 20z" />
    <glyph glyph-name="Aringacute" unicode="&#x1fa;" 
d="M468 150h-265l-86 -117h79q23 0 23 -13q0 -20 -32 -20h-151q-23 0 -23 14q0 19 32 19h31l281 385h-120q-23 0 -23 12q0 20 32 20h203l87 -417h37q23 0 23 -13q0 -20 -32 -20h-156q-23 0 -23 13q0 20 32 20h76zM462 183l-50 235h-15l-170 -235h235zM454 661
q33 0 54.5 -20.5t21.5 -51.5q0 -42 -35 -75.5t-79 -33.5q-33 0 -54.5 20.5t-21.5 51.5q0 42 35 75.5t79 33.5zM447 628q-28 0 -50.5 -21.5t-22.5 -47.5q0 -20 14 -33t35 -13q29 0 51 21t22 48q0 20 -14 33t-35 13zM509 760l-135 -100q-15 -9 -20 -9q-17 0 -17 16q0 11 17 24
l135 100q13 9 21 9q16 0 16 -16q0 -12 -17 -24z" />
    <glyph glyph-name="aringacute" unicode="&#x1fb;" 
d="M572 760l-135 -100q-13 -9 -20 -9q-17 0 -17 16q0 11 17 24l135 100q13 9 21 9q16 0 16 -16q0 -12 -17 -24zM205 374q0 24 73.5 40.5t112.5 16.5q61 0 99 -28t38 -72q0 -15 -2 -23l-57 -267h54q23 0 23 -16q0 -25 -32 -25h-95l14 67q-106 -83 -208 -83q-62 0 -97 27.5
t-35 75.5q0 73 70.5 122t174.5 49q58 0 132 -21l15 71q1 5 1 14q0 31 -29 49.5t-78 18.5q-45 0 -98 -16t-61 -16q-6 0 -10.5 4.5t-4.5 11.5zM443 112l19 90q-58 15 -125 15q-86 0 -144 -34.5t-58 -86.5q0 -34 25 -52.5t71 -18.5q54 0 102 19.5t110 67.5zM440 635
q33 0 54.5 -20.5t21.5 -51.5q0 -42 -35 -75.5t-79 -33.5q-33 0 -54.5 20.5t-21.5 51.5q0 42 35 75.5t79 33.5zM433 602q-28 0 -50.5 -21.5t-22.5 -47.5q0 -20 14 -33t35 -13q29 0 51 21t22 48q0 20 -14 33t-35 13z" />
    <glyph glyph-name="AEacute" unicode="&#x1fc;" 
d="M643 725l-135 -100q-13 -9 -20 -9q-17 0 -17 16q0 11 17 24l135 100q13 9 21 9q16 0 16 -16q0 -12 -17 -24zM337 189h-141l-72 -148h26q23 0 23 -16q0 -25 -32 -25h-104q-23 0 -23 16q0 25 32 25h37l235 481h-63q-23 0 -23 16q0 25 32 25h426l-32 -152q-6 -27 -27 -27
q-7 0 -11.5 4.5t-4.5 10.5q0 4 2 12l23 111h-191l-44 -208h78q1 3 3 13.5t3.5 15.5t5 12.5t8.5 10.5t12 3t11.5 -4.5t4.5 -10.5q0 -4 -2 -12l-20 -96q-6 -27 -26 -27q-16 0 -16 16q0 5 1 11.5t3 14.5l3 12h-78l-49 -232h211l20 93q3 26 26 26q16 0 16 -16q0 -30 -13.5 -79
t-16.5 -65h-345q-23 0 -23 17q0 24 32 24h52zM346 230l62 292h-50l-142 -292h130z" />
    <glyph glyph-name="aeacute" unicode="&#x1fd;" 
d="M569 580l-135 -100q-13 -9 -20 -9q-17 0 -17 16q0 11 17 24l135 100q13 9 21 9q16 0 16 -16q0 -12 -17 -24zM150 374q0 24 54.5 40.5t85.5 16.5q37 0 63.5 -23t31.5 -61q27 39 63.5 61.5t72.5 22.5q52 0 80.5 -36t28.5 -99q0 -41 -11 -97h-258q-3 -27 -3 -45
q0 -56 26 -92.5t67 -36.5q33 0 76 31t50 31q16 0 16 -17t-55 -51.5t-97 -34.5q-73 0 -108 77q-1 -3 -3 -13.5t-3.5 -17t-5 -14.5t-9 -12t-12.5 -4t-11.5 4.5t-4.5 10.5q0 9 7 37q-71 -68 -135 -68q-55 0 -87.5 31.5t-32.5 83.5q0 68 62.5 113t150.5 45q43 0 83 -12l13 60
q2 12 2 17q0 30 -20 49t-52 19q-37 0 -71 -16t-39 -16t-10 5t-5 11zM303 110l20 93q-42 13 -77 13q-42 0 -86 -17t-62 -40q-18 -25 -18 -59t23.5 -54.5t61.5 -20.5q54 0 138 85zM370 240h216q3 33 3 48q0 102 -77 102q-90 0 -142 -150z" />
    <glyph glyph-name="Oslashacute" unicode="&#x1fe;" 
d="M549 734l-135 -100q-13 -9 -20 -9q-17 0 -17 16q0 11 17 24l135 100q13 9 21 9q16 0 16 -16q0 -12 -17 -24zM152 51l-83 -82q-12 -12 -21 -12q-14 0 -14 14q0 8 12 20l88 87q-32 58 -32 129q0 142 99 255.5t222 113.5q86 0 143 -66l84 83q12 12 20 12q15 0 15 -14
q0 -8 -12 -20l-88 -88q31 -56 31 -129q0 -142 -98.5 -256t-221.5 -114q-91 0 -144 67zM167 112l366 364q-47 59 -117 59q-103 0 -187.5 -98.5t-84.5 -219.5q0 -58 23 -105zM551 449l-366 -365q47 -59 117 -59q104 0 188 98.5t84 220.5q0 57 -23 105z" />
    <glyph glyph-name="oslashacute" unicode="&#x1ff;" 
d="M531 607l-135 -100q-13 -9 -20 -9q-17 0 -17 16q0 11 17 24l135 100q13 9 21 9q16 0 16 -16q0 -12 -17 -24zM161 35l-81 -68q-11 -10 -19 -10q-14 0 -14 14q0 8 14 21l80 67q-30 47 -30 103q0 105 85.5 187t195.5 82q81 0 133 -49l78 66q13 10 20 10q14 0 14 -14
q0 -8 -14 -21l-78 -65q32 -47 32 -104q0 -106 -85.5 -188t-195.5 -82q-81 0 -135 51zM511 329l-314 -264q42 -40 108 -40q90 0 160 67t70 153q0 47 -24 84zM176 89l314 263q-42 38 -107 38q-90 0 -160 -66.5t-70 -152.5q0 -45 23 -82z" />
    <glyph glyph-name="uni0200" unicode="&#x200;" 
d="M272 769l92 -100q2 -1 5.5 -7.5t3.5 -8.5q0 -9 -8.5 -16.5t-17.5 -7.5q-7 0 -16 9l-93 100q-8 10 -8 15q0 10 8 17.5t18 7.5q7 0 16 -9zM422 769l92 -100q2 -1 5.5 -7.5t3.5 -8.5q0 -9 -8.5 -16.5t-17.5 -7.5q-7 0 -16 9l-93 100q-8 10 -8 15q0 10 8 17.5t18 7.5
q7 0 16 -9zM468 188h-265l-86 -147h79q23 0 23 -16q0 -11 -9 -18t-23 -7h-151q-23 0 -23 17q0 24 32 24h31l281 481h-120q-23 0 -23 16q0 25 32 25h203l87 -522h37q23 0 23 -16q0 -25 -32 -25h-156q-23 0 -23 16q0 25 32 25h76zM462 229l-50 293h-15l-170 -293h235z" />
    <glyph glyph-name="uni0201" unicode="&#x201;" 
d="M286 631l92 -100q2 -1 5.5 -7.5t3.5 -8.5q0 -9 -8.5 -16.5t-17.5 -7.5q-7 0 -16 9l-93 100q-8 10 -8 15q0 10 8 17.5t18 7.5q7 0 16 -9zM436 631l92 -100q2 -1 5.5 -7.5t3.5 -8.5q0 -9 -8.5 -16.5t-17.5 -7.5q-7 0 -16 9l-93 100q-8 10 -8 15q0 10 8 17.5t18 7.5
q7 0 16 -9zM205 374q0 24 73.5 40.5t112.5 16.5q61 0 99 -28t38 -72q0 -15 -2 -23l-57 -267h54q23 0 23 -16q0 -25 -32 -25h-95l14 67q-106 -83 -208 -83q-62 0 -97 27.5t-35 75.5q0 73 70.5 122t174.5 49q58 0 132 -21l15 71q1 5 1 14q0 31 -29 49.5t-78 18.5
q-45 0 -98 -16t-61 -16q-6 0 -10.5 4.5t-4.5 11.5zM443 112l19 90q-58 15 -125 15q-86 0 -144 -34.5t-58 -86.5q0 -34 25 -52.5t71 -18.5q54 0 102 19.5t110 67.5z" />
    <glyph glyph-name="uni0202" unicode="&#x202;" 
d="M278 622q0 35 49 75.5t121 40.5q54 0 89 -26.5t35 -68.5q0 -15 -8 -26t-19 -11q-8 0 -17 11l2 29q0 6 -9 17.5t-31.5 22.5t-51.5 11q-40 0 -74.5 -20t-43.5 -48q-8 -23 -25 -23q-6 0 -11.5 5.5t-5.5 10.5zM468 188h-265l-86 -147h79q23 0 23 -16q0 -11 -9 -18t-23 -7
h-151q-23 0 -23 17q0 24 32 24h31l281 481h-120q-23 0 -23 16q0 25 32 25h203l87 -522h37q23 0 23 -16q0 -25 -32 -25h-156q-23 0 -23 16q0 25 32 25h76zM462 229l-50 293h-15l-170 -293h235z" />
    <glyph glyph-name="uni0203" unicode="&#x203;" 
d="M276 506q0 35 49 75.5t121 40.5q54 0 89 -26.5t35 -68.5q0 -15 -8 -26t-19 -11q-8 0 -17 11l2 29q0 6 -9 17.5t-31.5 22.5t-51.5 11q-40 0 -74.5 -20t-43.5 -48q-8 -23 -25 -23q-6 0 -11.5 5.5t-5.5 10.5zM205 374q0 24 73.5 40.5t112.5 16.5q61 0 99 -28t38 -72
q0 -15 -2 -23l-57 -267h54q23 0 23 -16q0 -25 -32 -25h-95l14 67q-106 -83 -208 -83q-62 0 -97 27.5t-35 75.5q0 73 70.5 122t174.5 49q58 0 132 -21l15 71q1 5 1 14q0 31 -29 49.5t-78 18.5q-45 0 -98 -16t-61 -16q-6 0 -10.5 4.5t-4.5 11.5zM443 112l19 90q-58 15 -125 15
q-86 0 -144 -34.5t-58 -86.5q0 -34 25 -52.5t71 -18.5q54 0 102 19.5t110 67.5z" />
    <glyph glyph-name="uni0204" unicode="&#x204;" 
d="M303 776l92 -100q2 -1 5.5 -7.5t3.5 -8.5q0 -9 -8.5 -16.5t-17.5 -7.5q-7 0 -16 9l-93 100q-8 10 -8 15q0 10 8 17.5t18 7.5q7 0 16 -9zM453 776l92 -100q2 -1 5.5 -7.5t3.5 -8.5q0 -9 -8.5 -16.5t-17.5 -7.5q-7 0 -16 9l-93 100q-8 10 -8 15q0 10 8 17.5t18 7.5
q7 0 16 -9zM223 272l-49 -231h314l25 119q6 27 27 27q7 0 11.5 -4.5t4.5 -10.5q0 -2 -2 -12l-34 -160h-450q-23 0 -23 17q0 24 32 24h54l102 481h-54q-23 0 -23 17q0 24 32 24h429l-30 -139q-5 -27 -26 -27q-7 0 -11.5 4.5t-4.5 10.5q0 24 10 61.5t12 48.5h-293l-44 -209
h145l9 45q6 27 26 27q17 0 17 -15q0 -4 -2 -12l-28 -131q-5 -27 -26 -27q-7 0 -11.5 4.5t-4.5 10.5q0 12 5 32t6 25h-145z" />
    <glyph glyph-name="uni0205" unicode="&#x205;" 
d="M258 631l92 -100q2 -1 5.5 -7.5t3.5 -8.5q0 -9 -8.5 -16.5t-17.5 -7.5q-7 0 -16 9l-93 100q-8 10 -8 15q0 10 8 17.5t18 7.5q7 0 16 -9zM408 631l92 -100q2 -1 5.5 -7.5t3.5 -8.5q0 -9 -8.5 -16.5t-17.5 -7.5q-7 0 -16 9l-93 100q-8 10 -8 15q0 10 8 17.5t18 7.5
q7 0 16 -9zM531 70q0 -26 -78.5 -56t-152.5 -30q-87 0 -141.5 52t-54.5 135q0 103 84 181.5t195 78.5q82 0 134.5 -47.5t52.5 -121.5q0 -23 -8 -63h-416q-1 -10 -1 -22q0 -67 46 -109.5t119 -42.5q47 0 99.5 15t88.5 39q13 7 18 7q15 0 15 -16zM155 240h374q1 5 1 12
q0 61 -43.5 99.5t-111.5 38.5q-73 0 -132.5 -40.5t-87.5 -109.5z" />
    <glyph glyph-name="uni0206" unicode="&#x206;" 
d="M294 610q0 35 49 75.5t121 40.5q54 0 89 -26.5t35 -68.5q0 -15 -8 -26t-19 -11q-8 0 -17 11l2 29q0 6 -9 17.5t-31.5 22.5t-51.5 11q-40 0 -74.5 -20t-43.5 -48q-8 -23 -25 -23q-6 0 -11.5 5.5t-5.5 10.5zM223 272l-49 -231h314l25 119q6 27 27 27q7 0 11.5 -4.5
t4.5 -10.5q0 -2 -2 -12l-34 -160h-450q-23 0 -23 17q0 24 32 24h54l102 481h-54q-23 0 -23 17q0 24 32 24h429l-30 -139q-5 -27 -26 -27q-7 0 -11.5 4.5t-4.5 10.5q0 24 10 61.5t12 48.5h-293l-44 -209h145l9 45q6 27 26 27q17 0 17 -15q0 -4 -2 -12l-28 -131
q-5 -27 -26 -27q-7 0 -11.5 4.5t-4.5 10.5q0 12 5 32t6 25h-145z" />
    <glyph glyph-name="uni0207" unicode="&#x207;" 
d="M251 506q0 35 49 75.5t121 40.5q54 0 89 -26.5t35 -68.5q0 -15 -8 -26t-19 -11q-8 0 -17 11l2 29q0 6 -9 17.5t-31.5 22.5t-51.5 11q-40 0 -74.5 -20t-43.5 -48q-8 -23 -25 -23q-6 0 -11.5 5.5t-5.5 10.5zM531 70q0 -26 -78.5 -56t-152.5 -30q-87 0 -141.5 52t-54.5 135
q0 103 84 181.5t195 78.5q82 0 134.5 -47.5t52.5 -121.5q0 -23 -8 -63h-416q-1 -10 -1 -22q0 -67 46 -109.5t119 -42.5q47 0 99.5 15t88.5 39q13 7 18 7q15 0 15 -16zM155 240h374q1 5 1 12q0 61 -43.5 99.5t-111.5 38.5q-73 0 -132.5 -40.5t-87.5 -109.5z" />
    <glyph glyph-name="uni0208" unicode="&#x208;" 
d="M337 766l92 -100q2 -1 5.5 -7.5t3.5 -8.5q0 -9 -8.5 -16.5t-17.5 -7.5q-7 0 -16 9l-93 100q-8 10 -8 15q0 10 8 17.5t18 7.5q7 0 16 -9zM487 766l92 -100q2 -1 5.5 -7.5t3.5 -8.5q0 -9 -8.5 -16.5t-17.5 -7.5q-7 0 -16 9l-93 100q-8 10 -8 15q0 10 8 17.5t18 7.5
q7 0 16 -9zM431 522l-102 -481h139q24 0 24 -16q0 -11 -9 -18t-23 -7h-320q-23 0 -23 16q0 25 31 25h140l102 481h-139q-23 0 -23 16q0 25 31 25h320q24 0 24 -16q0 -11 -9 -18t-23 -7h-140z" />
    <glyph glyph-name="uni0209" unicode="&#x209;" 
d="M263 631l92 -100q2 -1 5.5 -7.5t3.5 -8.5q0 -9 -8.5 -16.5t-17.5 -7.5q-7 0 -16 9l-93 100q-8 10 -8 15q0 10 8 17.5t18 7.5q7 0 16 -9zM413 631l92 -100q2 -1 5.5 -7.5t3.5 -8.5q0 -9 -8.5 -16.5t-17.5 -7.5q-7 0 -16 9l-93 100q-8 10 -8 15q0 10 8 17.5t18 7.5
q7 0 16 -9zM409 417l-80 -376h160q24 0 24 -16q0 -11 -9 -18t-23 -7h-362q-23 0 -23 16q0 25 31 25h161l71 335h-118q-23 0 -23 17q0 24 32 24h159z" />
    <glyph glyph-name="uni020A" unicode="&#x20a;" 
d="M296 621q0 35 49 75.5t121 40.5q54 0 89 -26.5t35 -68.5q0 -15 -8 -26t-19 -11q-8 0 -17 11l2 29q0 6 -9 17.5t-31.5 22.5t-51.5 11q-40 0 -74.5 -20t-43.5 -48q-8 -23 -25 -23q-6 0 -11.5 5.5t-5.5 10.5zM431 522l-102 -481h139q24 0 24 -16q0 -11 -9 -18t-23 -7h-320
q-23 0 -23 16q0 25 31 25h140l102 481h-139q-23 0 -23 16q0 25 31 25h320q24 0 24 -16q0 -11 -9 -18t-23 -7h-140z" />
    <glyph glyph-name="uni020B" unicode="&#x20b;" 
d="M238 506q0 35 49 75.5t121 40.5q54 0 89 -26.5t35 -68.5q0 -15 -8 -26t-19 -11q-8 0 -17 11l2 29q0 6 -9 17.5t-31.5 22.5t-51.5 11q-40 0 -74.5 -20t-43.5 -48q-8 -23 -25 -23q-6 0 -11.5 5.5t-5.5 10.5zM409 417l-80 -376h160q24 0 24 -16q0 -11 -9 -18t-23 -7h-362
q-23 0 -23 16q0 25 31 25h161l71 335h-118q-23 0 -23 17q0 24 32 24h159z" />
    <glyph glyph-name="uni020C" unicode="&#x20c;" 
d="M297 767l92 -100q2 -1 5.5 -7.5t3.5 -8.5q0 -9 -8.5 -16.5t-17.5 -7.5q-7 0 -16 9l-93 100q-8 10 -8 15q0 10 8 17.5t18 7.5q7 0 16 -9zM447 767l92 -100q2 -1 5.5 -7.5t3.5 -8.5q0 -9 -8.5 -16.5t-17.5 -7.5q-7 0 -16 9l-93 100q-8 10 -8 15q0 10 8 17.5t18 7.5
q7 0 16 -9zM422 576q86 0 140 -61t54 -158q0 -94 -45 -181t-119.5 -139.5t-155.5 -52.5q-86 0 -140 61.5t-54 161.5q0 93 45.5 178.5t120 138t154.5 52.5zM415 535q-103 0 -187 -98.5t-84 -220.5q0 -83 45 -137t113 -54q104 0 188 98.5t84 221.5q0 82 -45 136t-114 54z" />
    <glyph glyph-name="uni020D" unicode="&#x20d;" 
d="M296 631l92 -100q2 -1 5.5 -7.5t3.5 -8.5q0 -9 -8.5 -16.5t-17.5 -7.5q-7 0 -16 9l-93 100q-8 10 -8 15q0 10 8 17.5t18 7.5q7 0 16 -9zM446 631l92 -100q2 -1 5.5 -7.5t3.5 -8.5q0 -9 -8.5 -16.5t-17.5 -7.5q-7 0 -16 9l-93 100q-8 10 -8 15q0 10 8 17.5t18 7.5
q7 0 16 -9zM391 431q83 0 134.5 -50t51.5 -129q0 -104 -86 -186t-195 -82q-82 0 -133.5 50t-51.5 128q0 104 86 186.5t194 82.5zM382 390q-89 0 -159 -67t-70 -152q0 -64 42.5 -105t109.5 -41q89 0 159.5 67t70.5 152q0 65 -42.5 105.5t-110.5 40.5z" />
    <glyph glyph-name="uni020E" unicode="&#x20e;" 
d="M292 614q0 35 49 75.5t121 40.5q54 0 89 -26.5t35 -68.5q0 -15 -8 -26t-19 -11q-8 0 -17 11l2 29q0 6 -9 17.5t-31.5 22.5t-51.5 11q-40 0 -74.5 -20t-43.5 -48q-8 -23 -25 -23q-6 0 -11.5 5.5t-5.5 10.5zM422 576q86 0 140 -61t54 -158q0 -94 -45 -181t-119.5 -139.5
t-155.5 -52.5q-86 0 -140 61.5t-54 161.5q0 93 45.5 178.5t120 138t154.5 52.5zM415 535q-103 0 -187 -98.5t-84 -220.5q0 -83 45 -137t113 -54q104 0 188 98.5t84 221.5q0 82 -45 136t-114 54z" />
    </font>
</defs>
</svg>
